<?xml version="1.0" standalone="no"?>
<!DOCTYPE svg PUBLIC "-//W3C//DTD SVG 1.1//EN" "http://www.w3.org/Graphics/SVG/1.1/DTD/svg11.dtd" >
<svg xmlns="http://www.w3.org/2000/svg" xmlns:xlink="http://www.w3.org/1999/xlink" version="1.1">
<metadata>
Created by FontForge 20201107 at Fri Feb 16 19:17:23 2024
 By 
copyright missing
</metadata>
<defs>
<font id="NeueRegrade-Bold-Italic" horiz-adv-x="1222" >
  <font-face 
    font-family="Neue Regrade Bold"
    font-weight="700"
    font-style="italic"
    font-stretch="normal"
    units-per-em="2048"
    panose-1="0 0 0 0 0 0 0 0 0 0"
    ascent="1638"
    descent="-410"
    x-height="999"
    cap-height="1434"
    bbox="-326 -594 2761 2130"
    underline-thickness="102"
    underline-position="-255"
    slope="-12"
    unicode-range="U+0020-2265"
  />
<missing-glyph horiz-adv-x="1167" 
d="M956 1741v-2335h-739v2335h739zM778 150h-389v-265h389v265zM700 72v-111h-233v111h233zM778 553h-233v-131h78v53h77v-108h-233v186h-78v-264h389v264zM778 838h-78v-154h-311v-80h389v234zM778 977h-389v-76h156v-88h-156v-76h234v164h155v76zM545 1204v-84h-78v84h78z
M623 1284h-234v-244h389v80h-155v164zM778 1585h-385v-78h152v-86h-156v-78h389v78h-155v86h155v78zM778 -170h-389v-76h164l-164 -110v-76h389v76h-239l163 110h76v76z" />
    <glyph glyph-name=".notdef" horiz-adv-x="1167" 
d="M956 1741v-2335h-739v2335h739zM778 150h-389v-265h389v265zM700 72v-111h-233v111h233zM778 553h-233v-131h78v53h77v-108h-233v186h-78v-264h389v264zM778 838h-78v-154h-311v-80h389v234zM778 977h-389v-76h156v-88h-156v-76h234v164h155v76zM545 1204v-84h-78v84h78z
M623 1284h-234v-244h389v80h-155v164zM778 1585h-385v-78h152v-86h-156v-78h389v78h-155v86h155v78zM778 -170h-389v-76h164l-164 -110v-76h389v76h-239l163 110h76v76z" />
    <glyph glyph-name=".null" horiz-adv-x="0" 
 />
    <glyph glyph-name="nonmarkingreturn" horiz-adv-x="682" 
 />
    <glyph glyph-name="space" unicode=" " horiz-adv-x="548" 
 />
    <glyph glyph-name="space" unicode="&#xa0;" horiz-adv-x="548" 
 />
    <glyph glyph-name="exclam" unicode="!" horiz-adv-x="626" 
d="M375 1434h274l-248 -1047h-225zM227 -25q-75 0 -119 51.5t-30 123.5q13 57 62 95t106 38q70 0 112 -52t27 -125q-12 -55 -59 -93t-99 -38z" />
    <glyph glyph-name="quotedbl" unicode="&#x22;" horiz-adv-x="931" 
d="M594 1434l-148 -572h-223l96 572h275zM1006 1434l-148 -572h-223l96 572h275z" />
    <glyph glyph-name="numbersign" unicode="#" horiz-adv-x="1423" 
d="M1157 1434h260l-581 -1434h-261zM676 1434h260l-580 -1434h-260zM102 600h1190l-47 -223h-1190zM264 1053h1190l-47 -224h-1190z" />
    <glyph glyph-name="dollar" unicode="$" horiz-adv-x="1228" 
d="M721 1636l-389 -1837h229l389 1837h-229zM1133 379q16 64 9 119t-25 98.5t-53.5 79.5t-76.5 63.5t-95 48.5t-109 34.5t-117 23.5q-132 22 -188.5 70.5t-39.5 127.5q15 70 88.5 118t204.5 48q133 -1 199.5 -57t50.5 -127q0 -2 -2 -8h274q3 9 4 10q16 77 -6.5 152
t-80.5 138t-164.5 101.5t-245.5 38.5q-142 0 -250.5 -34.5t-175.5 -96t-105.5 -134.5t-54.5 -163q-15 -78 1 -144t52.5 -111.5t92.5 -81.5t115 -57t126 -34q143 -30 191 -48q125 -48 106 -138q-16 -81 -98 -137t-221 -56t-196 61.5t-40 145.5h-274q-7 -45 -7 -91t16.5 -90.5
t41 -85t67 -75t94.5 -60t122.5 -39.5t152.5 -14q145 0 258.5 33t185 91.5t113.5 127.5t60 152z" />
    <glyph glyph-name="percent" unicode="%" horiz-adv-x="1714" 
d="M362 0h-313l1387 1434h311zM489 977q80 0 132.5 48t66.5 110q9 46 -11.5 81t-80.5 35q-81 0 -134 -48t-65 -109q-11 -47 9.5 -82t82.5 -35zM594 1458q77 0 136.5 -21.5t93.5 -57.5t55 -83.5t21 -98.5t-9 -103q-13 -60 -42.5 -114.5t-76 -103t-119 -77.5t-159.5 -29
q-78 0 -138.5 21.5t-94.5 58t-54.5 83.5t-20.5 98.5t9 103.5q12 60 41 114.5t76 102.5t120 77t162 29zM1204 184q80 0 134.5 48t66.5 108q11 47 -11 82t-85 35q-79 0 -132.5 -48t-66.5 -110q-9 -45 12.5 -80t81.5 -35zM1307 664q78 0 138.5 -21.5t94.5 -58t54.5 -83.5
t20.5 -98.5t-9 -103.5q-12 -59 -41.5 -113.5t-76.5 -103t-120 -78t-162 -29.5q-64 0 -116.5 15.5t-86.5 42t-58.5 62t-33.5 76t-11.5 84t7.5 85.5q14 60 44 114.5t77 103t119.5 77.5t159.5 29z" />
    <glyph glyph-name="ampersand" unicode="&#x26;" horiz-adv-x="1558" 
d="M758 348l88 94l-47 74q-79 121 -191 119q-88 -2 -166.5 -59t-101.5 -164q-11 -59 -2 -99.5t37.5 -65.5t63 -35.5t75.5 -10.5q36 0 68.5 11.5t67.5 38.5t53 43.5t55 53.5zM1522 639q-111 0 -178 -21t-132 -79l-88 -86l295 -453h-286l-181 274l-98 -106q-47 -47 -77 -73
t-78.5 -58.5t-103 -47t-118.5 -14.5q-94 0 -176 29.5t-141.5 85.5t-83.5 146t0 202q18 83 63.5 152.5t103.5 112t120 65.5t118 23q24 0 45.5 -3.5t35.5 -7.5t27.5 -11.5t20 -12.5t15.5 -12.5t10 -8.5l53 -4q-88 76 -137 146q-19 28 -24.5 36t-21.5 34.5t-21 42t-12 41t-6 51
t7 53.5q27 140 152.5 231.5t302.5 91.5q159 0 254.5 -96t66.5 -229h-274q9 45 -18.5 73.5t-82.5 28.5q-54 0 -93 -30t-50 -75q-10 -60 51 -155l232 -348l102 94q91 78 201.5 110.5t253.5 32.5z" />
    <glyph glyph-name="quotesingle" unicode="'" horiz-adv-x="520" 
d="M594 1434l-148 -572h-223l96 572h275z" />
    <glyph glyph-name="parenleft" unicode="(" horiz-adv-x="634" 
d="M434 -426q-94 189 -112.5 433t34.5 482q54 252 177.5 505.5t297.5 439.5h-276q-349 -377 -463 -916q-50 -239 -20 -491.5t131 -452.5h231z" />
    <glyph glyph-name="parenright" unicode=")" horiz-adv-x="634" 
d="M-199 -426q176 189 296.5 427.5t172.5 487.5q35 164 41.5 329t-21.5 328t-91 288h231q102 -203 134 -436.5t-17 -479.5q-55 -257 -174 -507t-295 -437h-277z" />
    <glyph glyph-name="asterisk" unicode="*" horiz-adv-x="772" 
d="M659 1434l-47 -217l228 79l24 -141l-252 -88l93 -217l-125 -76l-82 203l-168 -203l-119 76l192 240l-217 86l78 120l201 -79l47 217h147z" />
    <glyph glyph-name="plus" unicode="+" horiz-adv-x="1128" 
d="M803 1100l-64 -301h299l-49 -226h-299l-63 -299h-230l64 299h-297l49 226h297l63 301h230z" />
    <glyph glyph-name="comma" unicode="," horiz-adv-x="604" 
d="M360 150q12 56 -18.5 94.5t-83.5 38.5q-74 0 -140 -52t-81 -125q-12 -55 19.5 -93t90.5 -38q69 0 134.5 52t78.5 123zM199 -16q-23 -147 -164 -179l-41 -88q164 15 284 150q95 106 115 227q20 114 -43 163q-35 27 -92 26z" />
    <glyph glyph-name="hyphen" unicode="-" horiz-adv-x="1011" 
d="M160 668h758l-48 -224h-757z" />
    <glyph glyph-name="period" unicode="." horiz-adv-x="561" 
d="M193 -25q-74 0 -118.5 52t-29.5 123q12 56 61 94.5t107 38.5q70 0 112 -52t27 -125q-12 -55 -59 -93t-100 -38z" />
    <glyph glyph-name="slash" unicode="/" horiz-adv-x="952" 
d="M1149 1434l-1077 -1805h-260l1077 1805h260z" />
    <glyph glyph-name="zero" unicode="0" horiz-adv-x="1394" 
d="M612 223q95 0 178.5 46t142.5 122t99 164t60 182q15 70 19.5 133.5t-5 127t-35 109.5t-77 74.5t-124.5 28.5q-95 0 -178.5 -46t-142 -122t-98.5 -164t-60 -182q-15 -71 -20.5 -134t3.5 -126.5t34 -109.5t77 -74.5t127 -28.5zM877 1458q96 0 175 -24t134.5 -65.5
t95.5 -99.5t61.5 -125t29.5 -143t3 -152t-22 -153q-22 -104 -62 -203t-105.5 -194t-147 -166t-194 -114.5t-239.5 -43.5q-96 0 -175 24t-134.5 65.5t-95.5 99.5t-61.5 125t-29.5 143t-3 152t22 153q22 104 62 203t105.5 194t147 166t194 114.5t239.5 43.5z" />
    <glyph glyph-name="one" unicode="1" horiz-adv-x="788" 
d="M608 1434q-16 -77 -49.5 -142t-85.5 -118.5t-128.5 -85t-170.5 -33.5l-55 -258q71 1 138.5 28t120 72.5t92.5 98.5t67 110h36q-57 -109 -88 -246l-180 -860h270l304 1434h-271z" />
    <glyph glyph-name="two" unicode="2" horiz-adv-x="1302" 
d="M748 248q-60 0 -122.5 -9t-95.5 -19l-32 -9l6 37q368 268 481 354q258 195 307 397q16 58 10.5 114.5t-24.5 107.5t-58.5 94.5t-92 75t-126 49.5t-159.5 18q-121 0 -221.5 -26.5t-169 -69.5t-120 -102t-80 -118t-42.5 -124q-12 -47 -12 -49h270q2 8 5 24.5t5 24.5
q17 73 103 132.5t217 59.5q135 0 191.5 -57t37.5 -135q-8 -35 -43 -79.5t-96.5 -97.5t-104.5 -86.5t-114 -86.5l-613 -451l-47 -217h1094l53 248h-407z" />
    <glyph glyph-name="three" unicode="3" horiz-adv-x="1232" 
d="M1128 410q19 83 7.5 150t-38.5 116.5t-68.5 84t-83.5 53.5t-83 24q-17 2 -35 2t-33.5 -1.5t-30.5 -4t-27 -5t-20.5 -5t-13.5 -4.5l-6 -1l9 37l544 379l41 199h-948l-53 -248h516l-406 -281l-45 -211h295q119 0 181 -68.5t36 -179.5q-24 -102 -108.5 -162.5t-210.5 -60.5
q-127 0 -186.5 54.5t-41.5 136.5q0 1 5 16h-269q-4 -12 -4 -20q-13 -47 -3.5 -97.5t29.5 -99t60 -91.5t89.5 -76t117.5 -52t143 -19q277 0 438.5 119.5t202.5 315.5z" />
    <glyph glyph-name="four" unicode="4" horiz-adv-x="1449" 
d="M1087 1186h-32l-729 -707h376q56 0 112.5 -9.5t85.5 -18.5l28 -9zM1382 479l-47 -223h-174l-53 -256h-272l51 256h-883l64 301l913 877h430l-203 -955h174z" />
    <glyph glyph-name="five" unicode="5" horiz-adv-x="1302" 
d="M1223 475q16 69 11.5 136t-21 128t-53.5 113t-85 90.5t-115 60t-145 21.5q-261 0 -360 -147h-37q9 10 24 27.5t47.5 74.5t49.5 115l30 92h701l53 248h-924l-268 -723h328q28 43 98.5 78.5t167.5 35.5q63 0 111.5 -18t76 -48t44 -69.5t16 -82.5t-7.5 -87
q-11 -54 -40.5 -105.5t-74.5 -95t-111 -70t-143 -26.5q-51 0 -94 13.5t-71 35.5t-50.5 50t-31 57t-13 56t3.5 48h-266q-9 -71 6.5 -143t56 -137.5t100.5 -116.5t147.5 -81t190.5 -30q116 0 216 29t171 77.5t126 114t87 135t48 144.5z" />
    <glyph glyph-name="six" unicode="6" horiz-adv-x="1396" 
d="M641 223q88 0 162 25.5t121.5 67.5t77 89.5t40.5 96.5q6 40 4.5 79.5t-21.5 75.5t-51.5 64t-87 44.5t-126.5 16.5q-88 0 -161.5 -25t-122.5 -66.5t-79 -90t-41 -100.5q-9 -31 -5.5 -64t13 -63.5t33.5 -58t56 -47.5t80.5 -32t107.5 -12zM860 1024q85 -6 157.5 -31t124 -65
t90.5 -92t57 -111.5t24 -125t-8 -130.5q-19 -100 -71.5 -188t-134.5 -157t-200.5 -109t-257.5 -40q-148 0 -261.5 48.5t-185 142.5t-92.5 233t17 320q22 106 64.5 207t111.5 198.5t155.5 171t204 118t250.5 44.5q119 0 216 -37.5t156 -99.5t90.5 -135.5t33.5 -151.5h-260
q-13 76 -92.5 126t-219.5 50q-61 0 -124.5 -19.5t-126 -61t-115 -99.5t-92.5 -142t-58 -183l37 2q10 34 37 76t74 87t104 81t135 57t160 16z" />
    <glyph glyph-name="seven" unicode="7" horiz-adv-x="1159" 
d="M242 1434l-52 -248h445q58 0 126 9t107 19l39 9l-6 -39q-113 -78 -212.5 -199t-166 -245t-122.5 -269.5t-86.5 -254t-53.5 -216.5h275q15 71 28 126t35.5 134.5t45.5 144.5t57.5 146t73 148.5t91 142.5t111.5 138.5t134.5 126t160.5 114.5l45 213h-1075z" />
    <glyph glyph-name="eight" unicode="8" horiz-adv-x="1327" 
d="M602 223q55 0 111.5 12.5t109.5 37.5t92 69.5t52 101.5q12 56 -8 100t-63.5 68.5t-94.5 37t-105 12.5q-76 0 -149.5 -20.5t-137 -72.5t-79.5 -127q-12 -58 8 -102t63.5 -68.5t94 -36.5t106.5 -12zM518 1049q-12 -54 20.5 -92t85 -53t117.5 -15q48 0 94 9t89 27.5t73 51
t39 74.5q8 42 -8 74t-50.5 50t-76.5 26.5t-90 8.5q-65 0 -125 -15t-108.5 -53t-59.5 -93zM952 756q136 -31 218 -134.5t53 -242.5q-13 -64 -47 -122.5t-90.5 -110t-131 -89.5t-174.5 -60t-215 -22q-143 0 -252 34t-171 91t-86 129.5t-7 151.5q20 93 87.5 174t156 131
t184.5 70l8 37q-54 15 -99 43.5t-78.5 68t-47 93t-0.5 112.5q15 68 59.5 129t116 110.5t177.5 79t233 29.5t226.5 -33t155.5 -87t79 -120t8 -135q-17 -77 -73.5 -138t-126.5 -96t-154 -56z" />
    <glyph glyph-name="nine" unicode="9" horiz-adv-x="1398" 
d="M844 1210q-88 0 -162 -25.5t-121.5 -67t-77 -89t-39.5 -96.5q-9 -33 -6.5 -67t11.5 -65t32.5 -58.5t55 -47.5t80 -31.5t108.5 -11.5q88 0 162 25t122.5 67t79 90.5t41.5 100.5q8 31 4.5 63.5t-13 63.5t-33.5 58t-56 47t-80.5 32t-107.5 12zM627 410q-86 6 -158.5 31
t-124 65t-90.5 92t-57 111.5t-24.5 125t7.5 130.5q19 100 71.5 188t134.5 156.5t200.5 108.5t257.5 40q149 0 262.5 -48t184.5 -142t92 -233t-17 -320q-22 -106 -64.5 -207.5t-111.5 -199t-155 -170.5t-203.5 -118t-249.5 -45q-120 0 -217 37.5t-155.5 99.5t-90 135.5
t-33.5 151.5h260q11 -76 90 -126t219 -50q61 0 125 19.5t126.5 61t115.5 100t93.5 142.5t58.5 183l-37 -2q-13 -44 -54.5 -98t-104.5 -106.5t-157 -85.5t-194 -27z" />
    <glyph glyph-name="colon" unicode=":" horiz-adv-x="593" 
d="M211 -25q-75 0 -119 51.5t-29 123.5q12 57 60 95t106 38q70 0 112.5 -52t27.5 -125q-10 -54 -58 -92.5t-100 -38.5zM369 717q-75 0 -119 51t-31 123q12 56 61 94.5t107 38.5q70 0 113 -52t26 -124q-10 -54 -57.5 -92.5t-99.5 -38.5z" />
    <glyph glyph-name="semicolon" unicode=";" horiz-adv-x="645" 
d="M410 717q-74 0 -118.5 51.5t-29.5 122.5q12 56 61 94.5t107 38.5q70 0 112 -51.5t27 -124.5q-12 -55 -59 -93t-100 -38zM381 150q12 56 -18.5 94.5t-83.5 38.5q-74 0 -140.5 -52t-81.5 -125q-12 -55 20 -93t91 -38q69 0 134.5 52t78.5 123zM219 -16q-23 -147 -164 -179
l-41 -88q164 15 284 150q95 106 116 227q19 114 -43 163q-35 27 -92 26z" />
    <glyph glyph-name="less" unicode="&#x3c;" horiz-adv-x="1132" 
d="M950 373l-51 -232l-762 295l70 332l889 297l-52 -254q-493 -166 -524 -176q-27 -9 -63 -16.5t-58 -10.5l-22 -4v-22q70 -13 123 -33z" />
    <glyph glyph-name="equal" unicode="=" horiz-adv-x="1130" 
d="M170 586h825l-49 -224h-825zM256 999h825l-47 -223h-825z" />
    <glyph glyph-name="greater" unicode="&#x3e;" horiz-adv-x="1134" 
d="M127 393q483 164 526 176q27 9 62.5 16.5t57.5 10.5l22 4v25q-70 12 -123 32l-449 177l49 231l762 -297l-67 -332l-889 -295z" />
    <glyph glyph-name="question" unicode="?" horiz-adv-x="1138" 
d="M1194 1063q16 73 -3.5 142t-70.5 124.5t-140.5 90.5t-203.5 38q-135 3 -242 -24.5t-177.5 -80.5t-113.5 -121.5t-61 -154.5q-4 -32 -4 -47h268q0 10 3 19q18 79 86.5 122t183.5 39q115 -6 168.5 -46t36.5 -115q-10 -43 -42.5 -74.5t-78.5 -53.5t-100.5 -45.5t-112 -60.5
t-109.5 -88t-96 -138t-68 -202h467l45 223h-26q-52 0 -104 -8.5t-79 -17.5l-26 -9q7 38 40.5 69t82 54t106.5 45.5t117.5 50.5t111 62.5t90 87.5t52.5 119zM465 -25q-66 0 -104 45t-25 109q14 67 65.5 110.5t128.5 43.5q61 0 97.5 -45t23.5 -109q-14 -65 -67 -109.5
t-119 -44.5z" />
    <glyph glyph-name="at" unicode="@" horiz-adv-x="1970" 
d="M782 221q81 -1 151.5 34t119 92.5t80.5 124t47 136.5q11 50 13 97t-8.5 93t-33.5 80t-65.5 55t-100.5 21q-87 0 -157.5 -32t-117 -87t-75.5 -119.5t-45 -140.5q-10 -50 -11.5 -97.5t8.5 -94.5t32.5 -82t64 -57t98.5 -23zM1165 1458q123 0 234 -32.5t197.5 -91.5t154 -142
t103.5 -183.5t45.5 -216.5t-19.5 -241q-40 -192 -140 -307t-245 -115q-54 0 -102.5 16t-85.5 46t-53 78t-3 106l-39 -21q-159 -293 -432 -293q-73 0 -134 21.5t-103 60t-71 90t-42 112.5t-12.5 128t14.5 135q20 92 61.5 177t104.5 160.5t156.5 121t203.5 45.5
q85 0 149.5 -25t103 -70.5t60 -99t29.5 -118.5l54 10q-9 131 18 244l10 34h160l-123 -567q-49 -231 70 -231q84 0 146 83t91 220q41 193 -18.5 356t-200.5 257.5t-331 94.5q-211 0 -404 -100.5t-325.5 -272t-176.5 -376.5q-40 -191 19.5 -354.5t201 -259t330.5 -95.5
q126 0 234 34.5t221 100.5l250 -12q-337 -280 -692 -280q-123 0 -234 32.5t-198 91.5t-155 142t-104 183.5t-45.5 216.5t19.5 241q37 176 139 336.5t242.5 276.5t315.5 184.5t351 68.5z" />
    <glyph glyph-name="A" unicode="A" horiz-adv-x="1400" 
d="M1063 1434l209 -1434h-236l-41 299h-661l-166 -299h-256l815 1434h336zM461 522h502l-91 664h-36z" />
    <glyph glyph-name="B" unicode="B" horiz-adv-x="1343" 
d="M684 248q260 0 301 188q20 97 -38.5 143t-182.5 46h-322l-82 -377h324zM811 872q93 0 153.5 40t77.5 116q15 76 -27.5 117t-135.5 41h-318l-65 -314h315zM1245 365q-21 -99 -82.5 -172t-150.5 -114t-188 -60t-210 -19h-575l303 1434h569q93 0 172.5 -23t138.5 -66
t84.5 -113t6.5 -157q-57 -271 -389 -305l-9 -37q56 -4 107 -18t100.5 -42t80 -70.5t45.5 -101.5t-3 -136z" />
    <glyph glyph-name="C" unicode="C" horiz-adv-x="1492" 
d="M1092 436q-151 -213 -381 -213q-74 0 -132 20.5t-96 57t-63 84t-34.5 104t-8 114.5t13.5 118q19 87 63.5 171t109.5 156.5t158.5 117t197.5 44.5q74 0 132.5 -20t94 -54.5t55.5 -68.5t31 -72h291q-3 29 -12 63.5t-29.5 80t-49.5 88.5t-75 86t-102.5 74.5t-136 51
t-171.5 19.5q-141 0 -264.5 -40.5t-214 -108t-161.5 -159.5t-114.5 -191.5t-66.5 -208.5q-16 -75 -16.5 -153t15 -154t46 -145t79.5 -128t111 -102.5t146 -68t180 -24.5q95 0 182.5 20t152.5 50t124.5 74.5t99 84.5t75.5 89t54 79.5t35 63.5h-319z" />
    <glyph glyph-name="D" unicode="D" horiz-adv-x="1458" 
d="M588 256q217 0 368.5 126.5t196.5 336.5q44 210 -53 338.5t-314 128.5h-225l-199 -930h226zM1421 700q-72 -337 -307 -518.5t-571 -181.5h-506l305 1434h502q159 0 283.5 -50t201.5 -144.5t103 -230.5t-11 -309z" />
    <glyph glyph-name="E" unicode="E" horiz-adv-x="1165" 
d="M1257 1434l-51 -248h-645l-69 -334h575l-51 -242h-578l-78 -362h646l-52 -248h-917l305 1434h915z" />
    <glyph glyph-name="F" unicode="F" horiz-adv-x="1093" 
d="M1178 1186h-617l-69 -334h499l-51 -242h-502l-129 -610h-270l303 1434h887z" />
    <glyph glyph-name="G" unicode="G" horiz-adv-x="1533" 
d="M1475 717q12 57 -18.5 96t-88.5 39h-547l-53 -248h342q22 0 33 -14.5t6 -36.5q-16 -78 -77.5 -153t-159 -125.5t-201.5 -51.5q-75 0 -134 21t-96.5 57t-62.5 83t-34 103.5t-7.5 114t14.5 117.5q15 69 44.5 137.5t77 132.5t106.5 113t137.5 78.5t165.5 29.5
q64 0 116.5 -16t85.5 -39.5t58 -54t36 -56t17 -49.5h297q-3 41 -22 95t-64 120t-108 120t-165.5 91t-224.5 37q-143 0 -267 -40.5t-215 -108.5t-161.5 -160.5t-114 -192t-65.5 -208.5q-21 -119 -14 -231t50 -211t108 -172.5t161 -116t207 -42.5q73 0 143 22t125 57.5
t106 82.5t87.5 94t67 95.5t48 83t27.5 61.5h37q-165 -281 -193 -416l-12 -55h250z" />
    <glyph glyph-name="H" unicode="H" horiz-adv-x="1458" 
d="M1505 1434l-301 -1434h-274l129 608h-619l-129 -608h-272l303 1434h272l-120 -576l618 -2l121 578h272z" />
    <glyph glyph-name="I" unicode="I" horiz-adv-x="565" 
d="M342 1434h272l-303 -1434h-272z" />
    <glyph glyph-name="J" unicode="J" horiz-adv-x="813" 
d="M322 1434l-52 -248h269l-164 -760q-13 -73 -75.5 -125.5t-133.5 -52.5h-195l-53 -248h211q210 0 343 105t173 298l217 1031h-540z" />
    <glyph glyph-name="K" unicode="K" horiz-adv-x="1421" 
d="M1593 1434l-864 -740l-6 -35l496 -659h-301l-437 584h-49l-123 -584h-272l305 1434h270l-127 -603h39l701 603h368z" />
    <glyph glyph-name="L" unicode="L" horiz-adv-x="1107" 
d="M614 1434l-252 -1186h648l-52 -248h-919l303 1434h272z" />
    <glyph glyph-name="M" unicode="M" horiz-adv-x="2031" 
d="M1597 1434l-630 -1186h-37l-125 1186h-463l-301 -1434h270l201 952q11 52 19.5 110.5t10.5 91.5l3 32h37l127 -1186h401l631 1186h37q-45 -119 -70 -236l-201 -950h271l303 1434h-484z" />
    <glyph glyph-name="N" unicode="N" horiz-adv-x="1619" 
d="M1204 522q-15 -68 -25 -136.5t-13 -103.5l-3 -34h-37l-360 1186h-424l-301 -1434h270l195 922q14 64 24 130t14 100l3 34h37l360 -1186h422l303 1434h-270z" />
    <glyph glyph-name="O" unicode="O" horiz-adv-x="1544" 
d="M686 223q112 0 210 46.5t166 122.5t113.5 164.5t65.5 182.5q15 67 15.5 132t-17.5 127t-53 108.5t-97 75t-145 28.5q-90 0 -171.5 -30.5t-143 -81.5t-111 -118.5t-80.5 -139t-47 -144.5q-15 -68 -15.5 -133t17 -127t52 -109t96.5 -75.5t145 -28.5zM952 1458
q122 0 221 -32t164 -88t109 -129.5t62 -159.5t17 -175.5t-20 -179.5q-22 -103 -66 -202t-116 -193.5t-163 -165.5t-215 -114.5t-263 -43.5q-122 0 -221 32t-164 87.5t-109.5 129t-63 159t-18.5 174.5t19 178q22 104 66.5 204t117 195t164 166t215.5 114.5t264 43.5z" />
    <glyph glyph-name="P" unicode="P" horiz-adv-x="1308" 
d="M868 852q81 0 144.5 43.5t83.5 118.5q17 71 -25 121.5t-121 50.5h-385l-71 -334h374zM991 1434q128 0 222 -61.5t132.5 -161.5t14.5 -214q-36 -166 -168 -280.5t-320 -114.5h-432l-127 -602h-274l303 1434h649z" />
    <glyph glyph-name="Q" unicode="Q" horiz-adv-x="1576" 
d="M391 700q-15 -68 -15.5 -132.5t17 -126.5t52 -108.5t96.5 -75t145 -28.5q106 0 203.5 48t166.5 124t116 164.5t65 175.5q15 68 15.5 132.5t-16.5 126t-52 108t-97.5 74.5t-146.5 28q-111 0 -208 -46.5t-164 -122t-112 -163t-65 -178.5zM1004 197q153 51 284 51h92
l-53 -248h-678q-118 0 -212 30t-156 84t-103.5 124t-58 154t-15 170.5t20.5 176.5q22 103 65.5 202.5t116 194t163.5 165.5t215.5 114t264.5 43q122 0 220 -33t162.5 -90t108 -131t61.5 -160.5t17.5 -173.5t-18.5 -174q-20 -91 -60 -165t-87 -122t-109.5 -85t-116.5 -57
t-118 -36z" />
    <glyph glyph-name="R" unicode="R" horiz-adv-x="1355" 
d="M872 852q81 0 145.5 43t82.5 117q17 72 -25 123t-121 51h-385l-71 -334h374zM1018 717q98 -5 158 -80t36 -180l-96 -457h-246q66 323 101 481q11 55 -10 88t-76 33h-443l-131 -602h-272l311 1434h645q85 0 154.5 -22t114 -60.5t74 -90t34.5 -111t-6 -122.5
q-14 -63 -47.5 -113t-71.5 -78.5t-84 -47.5t-77.5 -26t-59.5 -9z" />
    <glyph glyph-name="S" unicode="S" horiz-adv-x="1269" 
d="M1157 379q16 64 9 119t-25 98.5t-53.5 79.5t-76.5 63.5t-95 48.5t-109 34.5t-117 23.5q-131 22 -187.5 70.5t-39.5 127.5q15 70 88.5 118t204.5 48q133 -1 199.5 -57t50.5 -127q0 -2 -2 -8h274q3 9 4 10q7 43 5.5 87t-19 86.5t-43.5 80.5t-69.5 70t-96.5 55.5t-123.5 37
t-151.5 13.5q-114 0 -207.5 -23t-157 -62.5t-110 -95t-72 -116t-38.5 -131.5q-15 -78 1 -144t52.5 -111.5t92.5 -81.5t115 -57t126 -34q143 -30 191 -48q125 -48 106 -138q-16 -81 -98.5 -137t-221.5 -56t-195.5 61.5t-39.5 145.5h-275q-17 -81 4 -160t76.5 -145.5
t161.5 -108t246 -41.5q117 0 213.5 22t164 59.5t117.5 90t78.5 110t42.5 122.5z" />
    <glyph glyph-name="T" unicode="T" horiz-adv-x="1173" 
d="M1331 1434l-51 -248h-414l-252 -1186h-270l252 1186h-414l51 248h1098z" />
    <glyph glyph-name="U" unicode="U" horiz-adv-x="1464" 
d="M1079 618q-12 -56 -36 -111t-62.5 -106.5t-85.5 -91t-109.5 -63t-130.5 -23.5q-66 0 -114.5 22t-75 58t-39.5 84.5t-12 98t12 102.5l180 846h-274l-172 -813q-15 -74 -15 -148.5t15.5 -147.5t53 -135.5t93 -111t141 -76t191.5 -27.5q122 0 229.5 37.5t185.5 99
t139.5 142.5t98 164t54.5 168l180 848h-275z" />
    <glyph glyph-name="V" unicode="V" horiz-adv-x="1411" 
d="M1286 1434q-556 -1024 -579 -1063q-14 -27 -27.5 -58t-19.5 -48l-7 -17h-37q4 62 -4 125l-127 1061h-268l168 -1434h428l774 1434h-301z" />
    <glyph glyph-name="W" unicode="W" horiz-adv-x="2349" 
d="M2234 1434q-516 -1047 -532 -1082l-45 -104h-37q2 57 -2 104l-64 1082h-395l-518 -1082l-47 -104h-35v104l-76 1082h-256l62 -1434h450l512 1067q11 22 23.5 51.5t19.5 48.5l6 19h37q-4 -68 -4 -119l62 -1067h452l668 1434h-281z" />
    <glyph glyph-name="X" unicode="X" horiz-adv-x="1585" 
d="M1751 1434l-670 -723l367 -713l-309 2l-287 586h-37l-534 -586h-359l672 733l-365 701h310l297 -600l553 600h362z" />
    <glyph glyph-name="Y" unicode="Y" horiz-adv-x="1306" 
d="M778 940q-18 -22 -33 -46t-21 -37l-5 -13h-37q0 49 -18 98l-189 492h-258l320 -838l-125 -596h270l127 594l674 840h-309z" />
    <glyph glyph-name="Z" unicode="Z" horiz-adv-x="1277" 
d="M379 279q71 37 180 143l805 811l41 201h-1108l-51 -248h741l-6 -33q-7 -2 -20 -8.5t-55.5 -37.5t-86.5 -75l-825 -831l-41 -201h1149l51 248h-782z" />
    <glyph glyph-name="bracketleft" unicode="[" horiz-adv-x="647" 
d="M561 1231q88 -21 205 -21h29l49 224h-512l-395 -1860h509l48 223h-29q-52 0 -105 -4.5t-80 -8.5l-28 -5z" />
    <glyph glyph-name="backslash" unicode="\" horiz-adv-x="919" 
d="M424 1434l307 -1805h-227l-307 1805h227z" />
    <glyph glyph-name="bracketright" unicode="]" horiz-adv-x="647" 
d="M84 -221q-88 18 -205 18h-29l-49 -223h510l398 1860h-510l-49 -224h30q52 0 105 5t81 11l27 5z" />
    <glyph glyph-name="asciicircum" unicode="^" horiz-adv-x="1150" 
d="M891 993q-76 381 -76 385q-5 36 -3 69.5t6 58.5l5 24h-37q-12 -84 -57 -152l-240 -385h-260l463 744h293l141 -744h-235z" />
    <glyph glyph-name="underscore" unicode="_" horiz-adv-x="1294" 
d="M14 -25h1039l-49 -223h-1039z" />
    <glyph glyph-name="grave" unicode="`" horiz-adv-x="569" 
d="M385 1864h244l76 -322h-224z" />
    <glyph glyph-name="a" unicode="a" horiz-adv-x="1251" 
d="M801 510q-23 -13 -91.5 -24.5t-234.5 -34.5q-60 -10 -114.5 -47t-65.5 -91q-10 -52 20 -85.5t84 -43.5q50 -7 97 0t106 33q63 30 107.5 76t60.5 92q1 4 18 68zM1153 248l-53 -250h-197q-63 0 -88 37.5t-12 97.5q7 38 41.5 107t65.5 118l30 50h-37q-5 -10 -15 -28
t-41 -67.5t-63 -92t-78 -90t-90 -73.5q-166 -102 -383 -77q-107 11 -170 90.5t-38 199.5q47 225 299 281q82 18 198.5 30t143.5 17q91 16 116 27q47 22 43 69q-3 50 -53 78.5t-133 28.5q-108 0 -177.5 -47t-84.5 -111h-266q13 56 42 109.5t79 103t114 87t152.5 59.5
t189.5 22q85 0 154.5 -15.5t116.5 -43t82 -64.5t50 -80t20 -90t-7 -94l-74 -342q-4 -20 6.5 -33.5t30.5 -13.5h86z" />
    <glyph glyph-name="b" unicode="b" horiz-adv-x="1239" 
d="M575 225q113 0 206 76.5t120 200.5q26 123 -34.5 198.5t-172.5 75.5q-113 0 -205 -76t-118 -200q-27 -123 32 -199t172 -76zM795 1026q91 0 164 -32.5t117.5 -87t72.5 -127.5t28.5 -153.5t-14.5 -164.5q-20 -96 -65.5 -181t-113 -153.5t-164.5 -109t-210 -40.5
q-241 0 -309 197h-37q1 -9 2 -24.5t2 -61.5t-2 -78l-2 -8h-272l305 1434h272l-75 -363q-14 -61 -36.5 -121.5t-38.5 -90.5l-16 -30h37q32 41 57.5 67.5t69.5 60t101.5 50.5t126.5 17z" />
    <glyph glyph-name="c" unicode="c" horiz-adv-x="1110" 
d="M727 340q-31 -47 -86 -82t-131 -35q-63 0 -105 25.5t-58 65.5t-20 90t9 98q15 65 50 125t99.5 104.5t141.5 44.5q78 0 118.5 -36t51.5 -85h286q-3 69 -32.5 134t-82 118t-136.5 85t-187 32q-100 0 -187.5 -29t-151 -77.5t-113.5 -114.5t-80 -136t-45 -145
q-8 -50 -9.5 -103t12 -106.5t34.5 -103t58 -92t82.5 -74.5t107.5 -50t134 -18q88 0 163.5 21t130 55t101.5 83.5t77.5 98t58.5 107.5h-291z" />
    <glyph glyph-name="d" unicode="d" horiz-adv-x="1239" 
d="M344 498q-27 -123 31.5 -199t169.5 -76q112 0 202 76.5t117 202.5q26 124 -31.5 199t-168.5 75q-112 0 -203 -76t-117 -202zM70 530q21 96 66 182t113.5 157t168 113t215.5 42q238 0 301 -197h37q-15 109 16 246l76 361h272l-305 -1434h-272l2 10q3 36 20.5 76t33.5 62
l17 22h-36q-25 -33 -42 -53.5t-51 -50.5t-68.5 -47.5t-87.5 -30.5t-114 -13q-73 0 -134.5 24t-103.5 65t-74 95.5t-45 116.5t-16.5 127t11.5 127z" />
    <glyph glyph-name="e" unicode="e" horiz-adv-x="1132" 
d="M627 801q-55 0 -103.5 -19t-83.5 -50.5t-59.5 -65t-40.5 -70.5h483q1 35 -8 68.5t-30 65.5t-62 51.5t-96 19.5zM299 436q-3 -28 -0.5 -56.5t15 -62t33.5 -59t60 -42.5t91 -17q156 0 239 137h275q-169 -361 -539 -361q-72 0 -133.5 18.5t-106.5 50t-80 74.5t-55.5 92.5
t-31.5 103t-10 106t12 102.5q16 76 47.5 146.5t82 135.5t114.5 113.5t150.5 77.5t184.5 29q84 0 154 -22t120 -61.5t85 -94t51 -119.5t14.5 -138.5t-20.5 -150.5z" />
    <glyph glyph-name="f" unicode="f" horiz-adv-x="813" 
d="M322 1065q14 58 32.5 105.5t54 98.5t82.5 85.5t121 57t166 22.5h207l-53 -248h-225q-39 0 -68 -24t-37 -60l-22 -103h313l-53 -247h-312l-159 -752h-273l160 752h-180l51 247h180z" />
    <glyph glyph-name="g" unicode="g" horiz-adv-x="1257" 
d="M485 111q-211 0 -320.5 132t-66.5 337q44 206 184.5 325t342.5 119q77 0 142.5 -24.5t111.5 -72t62 -116.5t-7 -158q2 -21 25 -29t48 -8.5t42.5 -12t11.5 -38.5q-41 -205 -200.5 -329.5t-375.5 -124.5zM532 336q112 0 198 65t108 166q23 101 -35.5 166.5t-171.5 65.5
t-198.5 -65.5t-108.5 -168.5q-20 -98 39 -163.5t169 -65.5zM395 -395q135 0 230.5 32t105.5 84q10 50 -71 81.5t-214 31.5q-136 0 -229.5 -32.5t-103.5 -84.5q-10 -50 69 -81t213 -31zM182 -63h-71q-69 0 -100 35t-19 94q10 55 55.5 85.5t114.5 30.5h12l8 39l312 -69
l-11 -41h-221q-57 0 -65 -41q-3 -20 9.5 -28.5t39.5 -8.5h241q254 0 388.5 -101t105.5 -241q-19 -87 -107 -152.5t-222 -99t-294 -33.5q-243 0 -385.5 86t-117.5 205q12 54 48.5 95.5t85.5 63t95 32t90 12.5zM971 653q4 178 20 262q8 35 37 59.5t66 24.5h225l-51 -247h-119
q-20 0 -36 -13.5t-21 -33.5l-31 -140l-211 -35l84 123h37z" />
    <glyph glyph-name="h" unicode="h" 
d="M1126 535q11 53 13.5 106.5t-8.5 113.5t-37.5 109t-79.5 89.5t-127 58.5q-45 9 -93.5 11t-102.5 -14.5t-102.5 -45t-94 -80.5t-78.5 -121h-37q86 143 106 233l93 439h-273l-305 -1434h274l64 313q10 49 37 159t31 130q30 103 107 167.5t189 41.5q104 -19 139 -91.5
t13 -178.5l-113 -541h273z" />
    <glyph glyph-name="i" unicode="i" horiz-adv-x="557" 
d="M532 872q11 56 -18 91.5t-88 35.5h-281l-53 -247h84q24 0 37.5 -18t7.5 -46l-147 -688h272zM485 1231q-65 0 -103.5 46t-25.5 107q10 48 51.5 80.5t88.5 32.5q62 0 98.5 -45.5t23.5 -108.5q-9 -46 -49 -79t-84 -33z" />
    <glyph glyph-name="j" unicode="j" horiz-adv-x="589" 
d="M563 877q12 52 -11.5 87t-76.5 35h-309l-53 -247h92q23 0 37 -17.5t8 -46.5l-199 -934q-16 -76 -90 -76h-209l-78 -247h277q156 0 248 82.5t118 203.5zM502 1231q-65 0 -103.5 46t-25.5 107q9 48 50 80.5t89 32.5q61 0 98.5 -46t24.5 -108q-10 -47 -50 -79.5t-83 -32.5z
" />
    <glyph glyph-name="k" unicode="k" horiz-adv-x="1114" 
d="M578 1434l-183 -859h45l434 424h334l-559 -555l-10 -36l346 -410l-317 2l-275 328h-51l-68 -328h-274l305 1434h273z" />
    <glyph glyph-name="l" unicode="l" horiz-adv-x="499" 
d="M309 1434h273l-303 -1434h-273z" />
    <glyph glyph-name="m" unicode="m" horiz-adv-x="1941" 
d="M1845 535q11 53 14 106t-8.5 112.5t-37.5 109t-79 90t-128 59.5q-45 10 -94 12t-104 -14.5t-105.5 -45.5t-100 -81t-86.5 -121h-37q5 8 1.5 27.5t-8.5 43t-20.5 51t-36 51.5t-54 45t-74.5 32q-46 10 -95 12.5t-102.5 -14.5t-102 -46t-94 -81.5t-77.5 -120.5h-37
q82 119 100 209l6 28h-272l-213 -999h274l64 313q28 133 68 289q14 48 38.5 88.5t60 72.5t85.5 45.5t108 2.5q56 -10 93.5 -38.5t51.5 -65t18 -80.5t-7 -86l-113 -541h252l66 313q19 100 65 289q14 48 38.5 89t60.5 73t87 45.5t109 1.5q56 -11 93 -37t52 -62t18 -80t-9 -91
l-113 -541h273z" />
    <glyph glyph-name="n" unicode="n" 
d="M1126 535q11 53 13.5 106.5t-8.5 113.5t-37.5 109t-79.5 89.5t-127 58.5q-45 9 -93.5 11t-102.5 -14.5t-102.5 -45t-94 -80.5t-78.5 -121h-37q73 121 100 209l6 28h-272l-213 -999h274l64 313q26 123 68 289q30 103 107 167.5t189 41.5q55 -10 91.5 -36.5t50.5 -63
t17.5 -81t-7.5 -89.5l-113 -541h273z" />
    <glyph glyph-name="o" unicode="o" horiz-adv-x="1150" 
d="M481 178q75 0 139.5 30.5t108.5 81t73 109t44 121.5q9 44 10 85t-8.5 81t-30.5 69.5t-59.5 47.5t-91.5 18q-75 0 -139.5 -30.5t-109 -81t-74 -109t-44.5 -121.5q-14 -52 -9.5 -105.5t21.5 -97t61 -71t109 -27.5zM662 1024q91 0 164.5 -22.5t121 -63t80 -92.5t45 -114
t12.5 -125t-14 -128q-15 -72 -45.5 -141t-81 -136t-115 -116.5t-153.5 -80t-191 -30.5q-92 0 -165.5 22.5t-121.5 63t-80 92.5t-45 114t-12 125t15 128q19 92 63 177.5t114 160.5t176 120.5t233 45.5z" />
    <glyph glyph-name="p" unicode="p" horiz-adv-x="1236" 
d="M899 502q27 124 -31.5 199t-173.5 75q-113 0 -205 -76.5t-118 -201.5q-26 -123 33.5 -199t170.5 -76q115 0 206.5 77t117.5 202zM1163 469q-16 -76 -47.5 -146.5t-80.5 -134.5t-111 -111t-145 -74.5t-177 -27.5q-238 0 -301 197h-37q15 -109 -16 -246l-105 -495h-272
l334 1568h272l-2 -10q-2 -36 -20 -76t-35 -62l-17 -22h37q30 41 54 67.5t67.5 60t104 50.5t135.5 17q87 0 158 -34t114 -90t71.5 -128.5t30 -149.5t-11.5 -153z" />
    <glyph glyph-name="q" unicode="q" horiz-adv-x="1239" 
d="M659 776q-115 0 -206.5 -76.5t-118.5 -201.5q-26 -125 33 -200t174 -75q113 0 204 77t117 202q27 123 -32 198.5t-171 75.5zM442 -25q-71 0 -133 23t-106 62.5t-78 94t-48.5 117t-18 131.5t13.5 138q20 95 65.5 179.5t113 153.5t164.5 109.5t210 40.5q241 0 309 -197h37
q-1 9 -2 24.5t-2 61.5t2 78v8h274l-334 -1568h-274l106 497q14 61 36.5 121.5t38.5 90.5l15 30h-36q-30 -40 -56 -67.5t-69 -60t-101 -50t-127 -17.5z" />
    <glyph glyph-name="r" unicode="r" horiz-adv-x="931" 
d="M995 999q-88 0 -169.5 -31.5t-145 -82.5t-119 -120t-93.5 -139.5t-65 -144.5h-53q153 347 176 449q7 36 -12.5 52.5t-64.5 16.5h-304l-53 -247h109q17 0 29.5 -15.5t9.5 -34.5l-152 -702h274l48 211q11 54 29.5 108.5t47.5 118t70.5 117.5t93 99.5t121 71.5t148.5 26z
" />
    <glyph glyph-name="s" unicode="s" horiz-adv-x="1015" 
d="M920 307q13 69 1.5 116.5t-42 81.5t-73.5 54t-93 33.5t-100 20t-96 14t-80 16t-52 24.5t-12 40q10 45 65 69.5t127 24.5q84 0 130 -26.5t36 -74.5q-1 -3 -2 -7t-2 -7h250q0 3 4 19q13 61 -6.5 117.5t-68.5 102t-134 72.5t-194 27q-211 0 -326.5 -86.5t-142.5 -220.5
q-14 -68 2.5 -118.5t54.5 -78.5t89.5 -47.5t108 -28t110.5 -19t95.5 -21t64 -33t15.5 -56.5q-11 -57 -73 -86.5t-136 -29.5q-103 0 -150 31t-34 92h-250q-14 -66 3.5 -127t64 -110.5t132.5 -79.5t200 -30q118 0 213 28t155.5 75.5t96.5 105t49 123.5z" />
    <glyph glyph-name="t" unicode="t" horiz-adv-x="831" 
d="M180 389q-11 -59 -9 -115t26.5 -106t62 -87.5t98.5 -59t136 -21.5h186l53 248h-227q-39 0 -57 24.5t-9 63.5l88 416h314l53 247h-315l92 435h-273l-92 -435h-180l-51 -247h180z" />
    <glyph glyph-name="u" unicode="u" 
d="M92 465q-11 -53 -13.5 -106.5t9 -113.5t38 -109t79.5 -89.5t127 -58.5q45 -9 93.5 -11t102.5 14.5t102.5 45t94 80.5t78.5 121h37q-76 -121 -103 -209l-6 -29h275l211 999h-273l-65 -313q-35 -167 -66 -289q-13 -47 -38 -88t-61.5 -73t-88.5 -45.5t-111 -2.5
q-55 10 -91 37.5t-50 63.5t-17 80.5t9 89.5l110 540h-270z" />
    <glyph glyph-name="v" unicode="v" horiz-adv-x="1101" 
d="M567 408q-20 -35 -37 -75t-24 -63l-8 -22h-37q8 84 -2 162l-74 589h-268l116 -999h416l545 999h-301z" />
    <glyph glyph-name="w" unicode="w" horiz-adv-x="1935" 
d="M1403 383l-62 -135h-36q-1 59 -5 135l-49 616h-385q-309 -608 -313 -614l-64 -137h-36q-2 65 -4 137l-56 614h-266l86 -999h416l315 616q16 33 30.5 67t20.5 51l6 18h37q-2 -62 0 -136l49 -616h418l512 999h-299z" />
    <glyph glyph-name="x" unicode="x" horiz-adv-x="1077" 
d="M1165 999l-407 -522l198 -477h-260l-151 379h-35l-287 -379h-295l412 555l-219 444h270l178 -370l293 370h303z" />
    <glyph glyph-name="y" unicode="y" horiz-adv-x="1116" 
d="M578 395q-26 -43 -44 -79.5t-23 -51.5l-5 -16h-37q12 53 -6 149l-86 602h-260l137 -999h108l-149 -266q-16 -31 -45 -51.5t-64 -20.5h-245l-49 -231h268q73 0 137.5 19.5t112 54t82.5 73.5t59 84l739 1337h-293z" />
    <glyph glyph-name="z" unicode="z" horiz-adv-x="1030" 
d="M633 739q-82 -20 -176 -104q-32 -27 -143.5 -129.5t-206.5 -191.5l-95 -89l-49 -225h879l47 223h-533l6 37q14 3 29 10.5t33 21.5t30 24t36 30.5t36 30.5l457 397l49 225h-821l-49 -223h477z" />
    <glyph glyph-name="braceleft" unicode="{" horiz-adv-x="720" 
d="M266 522q118 0 197 77t102 179l43 199q8 42 27.5 80t49.5 69.5t76 48t101 11.5l56 248q-104 9 -194.5 -15.5t-156.5 -73t-117.5 -118.5t-83 -148t-47.5 -164l-36 -170q-14 -63 -61.5 -110t-119.5 -47l-36 -166q72 0 99.5 -48t14.5 -112l-37 -172q-14 -54 -10 -111.5
t17.5 -112.5t46.5 -105.5t76.5 -89.5t107.5 -65t139 -32l51 242q-104 10 -143 79.5t-22 159.5l36 170q7 36 7.5 72.5t-12.5 70.5t-34 60t-58.5 41.5t-86.5 15.5z" />
    <glyph glyph-name="bar" unicode="|" horiz-adv-x="706" 
d="M436 1434h230l-398 -1860h-229z" />
    <glyph glyph-name="braceright" unicode="}" horiz-adv-x="722" 
d="M453 485q-62 0 -114.5 -23t-88 -61t-58.5 -82t-34 -92l-41 -192q-20 -91 -90 -158.5t-174 -60.5l-52 -242q111 -8 204 16.5t156.5 70t112 111.5t76 135.5t41.5 147.5l45 207q14 63 62 110.5t120 47.5l35 166q-73 0 -100 47.5t-12 111.5l34 173q13 51 10 107t-15 111
t-43.5 106.5t-74 91.5t-108 67t-145.5 33l-56 -248q55 -4 93 -28.5t54.5 -59.5t22 -76.5t-5.5 -81.5l-33 -160q-22 -99 25 -178.5t160 -79.5z" />
    <glyph glyph-name="asciitilde" unicode="~" horiz-adv-x="1236" 
d="M940 891q-7 -31 -11.5 -49t-12.5 -40t-18 -33.5t-25 -19.5t-35 -8q-38 0 -106 36t-143 72t-132 36q-46 0 -85 -14t-66.5 -34t-52 -56t-39 -66t-29.5 -78.5t-22 -79t-18 -80.5h226q7 33 11 49.5t12.5 39.5t18 34t25 19t35.5 8q38 0 106 -36t143.5 -72t131.5 -36
q46 0 84.5 14t66 34.5t51.5 56t39 66t29.5 78t22 78.5t18.5 81h-225z" />
    <glyph glyph-name="sterling" unicode="&#xa3;" horiz-adv-x="1288" 
d="M942 307q-6 -28 -26 -43.5t-48 -15.5h-307q-52 0 -149 -9t-168 -19l-72 -9l8 37q161 27 247 162.5t71 316.5h473l33 160h-496q-6 74 31.5 147.5t115 124.5t172.5 51q60 0 103 -19.5t62.5 -49t27 -54.5t6.5 -45h258q4 54 -6 108.5t-41 111t-80 99.5t-130.5 70t-184.5 27
q-122 0 -225.5 -37.5t-172.5 -98t-117.5 -136.5t-69.5 -152.5t-19 -146.5h-101l-35 -160h138q14 -112 -10 -214t-85.5 -174.5t-148.5 -90.5l-53 -248h962q205 24 244 213l43 197h-229z" />
    <glyph glyph-name="yen" unicode="&#xa5;" horiz-adv-x="1347" 
d="M799 940q-18 -22 -33 -46t-21 -37l-6 -13h-37q0 49 -18 98l-188 492h-258l319 -838l-125 -596h270l127 594l674 840h-309zM317 717l-32 -158h815l33 158h-816zM256 430l-33 -160h815l33 160h-815z" />
    <glyph glyph-name="section" unicode="&#xa7;" horiz-adv-x="1067" 
d="M557 621q80 0 145.5 25.5t71.5 76.5q4 35 -26 59t-73.5 33.5t-94.5 9.5q-80 0 -146 -25.5t-72 -76.5q-4 -35 27 -59t74.5 -33.5t93.5 -9.5zM635 1049q126 0 223 -29.5t151 -94t38 -153.5q-10 -57 -47 -101.5t-81 -68t-95.5 -38.5t-83.5 -19t-52 -4l-6 -37q40 0 84.5 -16
t85 -46t62 -80.5t10.5 -111.5q-19 -123 -140.5 -199t-322.5 -76q-102 0 -182.5 27t-127.5 72t-67.5 101t-11.5 116q1 3 2 9t2 9h266q-1 -3 -2 -8t-2 -8q-3 -40 40 -67t114 -27q70 0 114 26.5t49 67.5q5 43 -34 68.5t-111 25.5q-86 0 -164 19t-139.5 54.5t-93 93.5t-19.5 130
q10 57 46.5 100t80 65.5t95 36.5t83 17.5t52.5 3.5l8 37q-28 1 -62.5 13t-69.5 34t-63 50t-42 66.5t-7 78.5q20 122 141 197t330 75q105 0 187 -25.5t130 -68.5t68.5 -97.5t11.5 -113.5q-1 -4 -3 -12.5t-3 -12.5h-266q1 2 2 13q5 41 -39.5 67.5t-120.5 26.5
q-74 0 -120.5 -26t-51.5 -68q-5 -40 37.5 -66t116.5 -26z" />
    <glyph glyph-name="dieresis" unicode="&#xa8;" horiz-adv-x="892" 
d="M496 1597q-64 0 -102 46t-25 108q9 47 50 80t89 33q61 0 98.5 -46t24.5 -110q-9 -45 -49.5 -78t-85.5 -33zM907 1597q-65 0 -102.5 45.5t-24.5 108.5q9 47 49.5 80t90.5 33q61 0 98 -46.5t22 -109.5q-9 -45 -48.5 -78t-84.5 -33z" />
    <glyph glyph-name="copyright" unicode="&#xa9;" horiz-adv-x="1662" 
d="M627 705q11 49 35 95.5t60 87t89 65t113 24.5q120 0 145 -109h193q-3 30 -11.5 60t-32 71t-58.5 71t-97 51.5t-141 21.5q-104 0 -191.5 -37t-145 -98t-94 -130.5t-51.5 -144.5q-11 -52 -11 -103t10.5 -101t36.5 -92t65 -74.5t98.5 -51t134.5 -18.5q77 0 145 20.5
t111 48.5t80.5 67t54.5 65t31 53h-227q-30 -35 -83 -61.5t-114 -26.5q-54 0 -90 22.5t-49 57.5t-15.5 79t9.5 87zM694 133q164 0 321 80.5t268.5 220t146.5 303.5q32 154 -15.5 283.5t-161 204.5t-266.5 75q-123 0 -245.5 -48t-221.5 -128.5t-171 -192.5t-99 -235
q-32 -154 15.5 -283.5t161 -204.5t267.5 -75zM975 1458q104 0 198.5 -27.5t168 -77t130.5 -119t88 -154t40 -182t-15 -202.5q-42 -196 -174.5 -362t-320 -262.5t-385.5 -96.5q-104 0 -198.5 27.5t-168 77t-131 119t-88 154t-39 182t15.5 202.5q41 196 173 362t320 262.5
t386 96.5z" />
    <glyph glyph-name="guillemotleft" unicode="&#xab;" horiz-adv-x="1415" 
d="M702 0q-256 399 -260 401q-34 40 -65.5 60t-44.5 20v35q9 0 35 8t67.5 29t73.5 49l430 397h-317l-541 -499l326 -500h296zM1190 0q-258 399 -260 401q-29 40 -63.5 60t-49.5 20v35q9 0 34 7t67 27t75 48l430 401h-317l-541 -499l328 -500h297z" />
    <glyph glyph-name="registered" unicode="&#xae;" horiz-adv-x="954" 
d="M506 762q80 0 148 28t113.5 73.5t75 98.5t40.5 109q7 42 8 85t-16 82.5t-44.5 70t-77.5 49t-114 18.5q-80 0 -148 -27.5t-113.5 -73.5t-74.5 -99t-41 -109q-7 -42 -7.5 -85t16.5 -82.5t44.5 -70t77 -49t113.5 -18.5zM653 1458q70 0 125.5 -16t92 -45t61.5 -66.5t35 -81.5
t10 -89.5t-10 -92.5q-15 -71 -51 -136.5t-92.5 -123t-142.5 -92.5t-189 -35q-70 0 -125.5 16t-92 45t-61.5 66.5t-35 81.5t-10 89.5t10 92.5q15 70 50.5 136t92 123.5t143 92.5t189.5 35zM612 1114q22 0 38.5 12t19.5 29q3 19 -8 31t-33 12h-99l-16 -84h98zM657 1069
q29 0 44.5 -20.5t9.5 -49.5l-29 -139l-78 2q21 94 29 137q3 15 -5.5 26t-25.5 11h-108l-37 -174h-84l88 414h190q60 0 87.5 -32t19.5 -79q-15 -63 -96 -86z" />
    <glyph glyph-name="plusminus" unicode="&#xb1;" horiz-adv-x="1128" 
d="M84 195h825l-41 -195h-825zM803 1094l-60 -277h299l-47 -223h-301l-57 -277h-227l57 277h-297l47 223h297l59 277h230z" />
    <glyph glyph-name="acute" unicode="&#xb4;" horiz-adv-x="585" 
d="M774 1864l-233 -322h-238l213 322h258z" />
    <glyph glyph-name="periodcentered" unicode="&#xb7;" horiz-adv-x="575" 
d="M276 338q-79 0 -125.5 55t-29.5 129q12 61 65.5 103.5t116.5 42.5q73 0 119 -56t29 -131q-12 -59 -64 -101t-111 -42z" />
    <glyph glyph-name="guillemotright" unicode="&#xbb;" horiz-adv-x="1400" 
d="M463 0h315l539 500l-326 499h-299q258 -393 260 -397q28 -40 61 -63t46 -23v-35q-9 0 -32 -6.5t-62 -26t-72 -47.5zM-27 0h318l540 500l-327 499h-299q260 -397 262 -401q30 -40 61.5 -61t44.5 -21v-35q-9 0 -32.5 -6.5t-64 -26t-73.5 -47.5z" />
    <glyph glyph-name="Aacute" unicode="&#xc1;" horiz-adv-x="1400" 
d="M1063 1434l209 -1434h-236l-41 299h-661l-166 -299h-256l815 1434h336zM461 522h502l-91 664h-36zM1268 1860l-234 -322h-237l213 322h258z" />
    <glyph glyph-name="Acircumflex" unicode="&#xc2;" horiz-adv-x="1400" 
d="M1063 1434l209 -1434h-236l-41 299h-661l-166 -299h-256l815 1434h336zM461 522h502l-91 664h-36zM1135 1860l131 -273h-224l-71 146h-13l-133 -146h-245l243 273h312z" />
    <glyph glyph-name="Adieresis" unicode="&#xc4;" horiz-adv-x="1400" 
d="M1063 1434l209 -1434h-236l-41 299h-661l-166 -299h-256l815 1434h336zM461 522h502l-91 664h-36zM748 1597q-64 0 -102 46t-25 108q9 47 50 80t89 33q61 0 98.5 -46t24.5 -110q-9 -45 -49.5 -78t-85.5 -33zM1159 1597q-65 0 -102.5 45.5t-24.5 108.5q9 47 49.5 80
t89.5 33q61 0 98.5 -46.5t22.5 -109.5q-9 -45 -48.5 -78t-84.5 -33z" />
    <glyph glyph-name="Aring" unicode="&#xc5;" horiz-adv-x="1400" 
d="M1063 1434l209 -1434h-236l-41 299h-661l-166 -299h-256l815 1434h336zM461 522h502l-91 664h-36zM958 1747q55 0 90.5 33.5t43.5 77.5q10 44 -7.5 75t-70.5 31q-54 0 -88.5 -32.5t-44.5 -76.5q-9 -46 8 -77t69 -31zM1026 2130q55 0 100.5 -18t74 -47.5t47.5 -67.5
t21.5 -78.5t-3.5 -79.5q-11 -52 -33.5 -95.5t-59.5 -81.5t-96 -59.5t-133 -21.5q-88 0 -148.5 47t-81.5 113t-7 133q23 109 101 182.5t218 73.5z" />
    <glyph glyph-name="Eacute" unicode="&#xc9;" horiz-adv-x="1165" 
d="M1257 1434l-51 -248h-645l-69 -334h575l-51 -242h-578l-78 -362h646l-52 -248h-917l305 1434h915zM1149 1864l-234 -322h-237l213 322h258z" />
    <glyph glyph-name="Ecircumflex" unicode="&#xca;" horiz-adv-x="1165" 
d="M1257 1434l-51 -248h-645l-69 -334h575l-51 -242h-578l-78 -362h646l-52 -248h-917l305 1434h915zM1038 1864l131 -273h-223l-72 146h-12l-133 -146h-246l244 273h311z" />
    <glyph glyph-name="Edieresis" unicode="&#xcb;" horiz-adv-x="1165" 
d="M1257 1434l-51 -248h-645l-69 -334h575l-51 -242h-578l-78 -362h646l-52 -248h-917l305 1434h915zM647 1597q-64 0 -102 46t-25 108q9 47 50 80t89 33q61 0 98.5 -46t24.5 -110q-9 -45 -49.5 -78t-85.5 -33zM1059 1597q-65 0 -102.5 45.5t-24.5 108.5q9 47 49.5 80
t89.5 33q61 0 98.5 -46.5t22.5 -109.5q-9 -45 -48.5 -78t-84.5 -33z" />
    <glyph glyph-name="Igrave" unicode="&#xcc;" horiz-adv-x="595" 
d="M362 1434h273l-303 -1434h-273zM295 1860h244l75 -322h-223z" />
    <glyph glyph-name="Iacute" unicode="&#xcd;" horiz-adv-x="585" 
d="M352 1434h273l-303 -1434h-273zM860 1860l-233 -322h-238l213 322h258z" />
    <glyph glyph-name="Icircumflex" unicode="&#xce;" horiz-adv-x="593" 
d="M342 1434h272l-303 -1434h-272zM737 1860l131 -273h-223l-72 146h-12l-133 -146h-246l244 273h311z" />
    <glyph glyph-name="Idieresis" unicode="&#xcf;" horiz-adv-x="583" 
d="M342 1434h272l-303 -1434h-272zM340 1593q-64 0 -102 46t-25 108q9 47 50 80t89 33q61 0 98.5 -46t24.5 -110q-9 -45 -49.5 -78t-85.5 -33zM752 1593q-65 0 -102.5 45.5t-24.5 108.5q9 47 49.5 80t89.5 33q61 0 98.5 -46.5t22.5 -109.5q-9 -45 -48.5 -78t-84.5 -33z" />
    <glyph glyph-name="Oacute" unicode="&#xd3;" horiz-adv-x="1544" 
d="M686 223q112 0 210 46.5t166 122.5t113.5 164.5t65.5 182.5q15 67 15.5 132t-17.5 127t-53 108.5t-97 75t-145 28.5q-90 0 -171.5 -30.5t-143 -81.5t-111 -118.5t-80.5 -139t-47 -144.5q-15 -68 -15.5 -133t17 -127t52 -109t96.5 -75.5t145 -28.5zM952 1458
q122 0 221 -32t164 -88t109 -129.5t62 -159.5t17 -175.5t-20 -179.5q-22 -103 -66 -202t-116 -193.5t-163 -165.5t-215 -114.5t-263 -43.5q-122 0 -221 32t-164 87.5t-109.5 129t-63 159t-18.5 174.5t19 178q22 104 66.5 204t117 195t164 166t215.5 114.5t264 43.5z
M1335 1864l-233 -322h-238l213 322h258z" />
    <glyph glyph-name="Ocircumflex" unicode="&#xd4;" horiz-adv-x="1544" 
d="M686 223q112 0 210 46.5t166 122.5t113.5 164.5t65.5 182.5q15 67 15.5 132t-17.5 127t-53 108.5t-97 75t-145 28.5q-90 0 -171.5 -30.5t-143 -81.5t-111 -118.5t-80.5 -139t-47 -144.5q-15 -68 -15.5 -133t17 -127t52 -109t96.5 -75.5t145 -28.5zM952 1458
q122 0 221 -32t164 -88t109 -129.5t62 -159.5t17 -175.5t-20 -179.5q-22 -103 -66 -202t-116 -193.5t-163 -165.5t-215 -114.5t-263 -43.5q-122 0 -221 32t-164 87.5t-109.5 129t-63 159t-18.5 174.5t19 178q22 104 66.5 204t117 195t164 166t215.5 114.5t264 43.5z
M1219 1864l131 -273h-224l-71 146h-13l-133 -146h-245l243 273h312z" />
    <glyph glyph-name="Odieresis" unicode="&#xd6;" horiz-adv-x="1544" 
d="M686 223q112 0 210 46.5t166 122.5t113.5 164.5t65.5 182.5q15 67 15.5 132t-17.5 127t-53 108.5t-97 75t-145 28.5q-90 0 -171.5 -30.5t-143 -81.5t-111 -118.5t-80.5 -139t-47 -144.5q-15 -68 -15.5 -133t17 -127t52 -109t96.5 -75.5t145 -28.5zM952 1458
q122 0 221 -32t164 -88t109 -129.5t62 -159.5t17 -175.5t-20 -179.5q-22 -103 -66 -202t-116 -193.5t-163 -165.5t-215 -114.5t-263 -43.5q-122 0 -221 32t-164 87.5t-109.5 129t-63 159t-18.5 174.5t19 178q22 104 66.5 204t117 195t164 166t215.5 114.5t264 43.5z
M821 1597q-64 0 -102 46t-25 108q9 47 50.5 80t89.5 33q61 0 98 -46t24 -110q-9 -45 -49.5 -78t-85.5 -33zM1233 1597q-65 0 -102.5 45.5t-24.5 108.5q9 47 49.5 80t89.5 33q61 0 98.5 -46.5t22.5 -109.5q-9 -45 -48.5 -78t-84.5 -33z" />
    <glyph glyph-name="multiply" unicode="&#xd7;" horiz-adv-x="1089" 
d="M993 895l-266 -215l184 -221l-170 -146l-172 207l-270 -225l-139 176l264 219l-172 207l170 141l160 -190l252 207z" />
    <glyph glyph-name="Oslash" unicode="&#xd8;" horiz-adv-x="1556" 
d="M713 223q112 0 210 46.5t166 122.5t113.5 164.5t65.5 182.5q15 67 15.5 132t-17.5 127t-53 108.5t-97 75t-145 28.5q-90 0 -171.5 -30.5t-143 -81.5t-111 -118.5t-80.5 -139t-47 -144.5q-15 -68 -15.5 -133t17 -127t52 -109t96.5 -75.5t145 -28.5zM979 1458
q122 0 221 -32t164 -88t109 -129.5t62 -159.5t17 -175.5t-20 -179.5q-22 -103 -66 -202t-116 -193.5t-163 -165.5t-215 -114.5t-263 -43.5q-122 0 -221 32t-164 87.5t-109.5 129t-63 159t-18.5 174.5t19 178q22 104 66.5 204t117 195t164 166t215.5 114.5t264 43.5z
M1679 1454l-1421 -1474h-311l1423 1474h309z" />
    <glyph glyph-name="Uacute" unicode="&#xda;" horiz-adv-x="1464" 
d="M1079 618q-12 -56 -36 -111t-62.5 -106.5t-85.5 -91t-109.5 -63t-130.5 -23.5q-66 0 -114.5 22t-75 58t-39.5 84.5t-12 98t12 102.5l180 846h-274l-172 -813q-15 -74 -15 -148.5t15.5 -147.5t53 -135.5t93 -111t141 -76t191.5 -27.5q122 0 229.5 37.5t185.5 99
t139.5 142.5t98 164t54.5 168l180 848h-275zM1300 1864l-233 -322h-238l213 322h258z" />
    <glyph glyph-name="Udieresis" unicode="&#xdc;" horiz-adv-x="1464" 
d="M1079 618q-12 -56 -36 -111t-62.5 -106.5t-85.5 -91t-109.5 -63t-130.5 -23.5q-66 0 -114.5 22t-75 58t-39.5 84.5t-12 98t12 102.5l180 846h-274l-172 -813q-15 -74 -15 -148.5t15.5 -147.5t53 -135.5t93 -111t141 -76t191.5 -27.5q122 0 229.5 37.5t185.5 99
t139.5 142.5t98 164t54.5 168l180 848h-275zM803 1597q-64 0 -102 46t-25 108q9 47 50 80t89 33q61 0 98.5 -46t24.5 -110q-9 -45 -49.5 -78t-85.5 -33zM1214 1597q-65 0 -102.5 45.5t-24.5 108.5q9 47 49.5 80t90.5 33q61 0 98.5 -46.5t22.5 -109.5q-9 -45 -49 -78t-85 -33
z" />
    <glyph glyph-name="Yacute" unicode="&#xdd;" horiz-adv-x="1306" 
d="M778 940q-18 -22 -33 -46t-21 -37l-5 -13h-37q0 49 -18 98l-189 492h-258l320 -838l-125 -596h270l127 594l674 840h-309zM1184 1864l-234 -322h-237l213 322h258z" />
    <glyph glyph-name="aacute" unicode="&#xe1;" horiz-adv-x="1251" 
d="M801 510q-23 -13 -91.5 -24.5t-234.5 -34.5q-60 -10 -114.5 -47t-65.5 -91q-10 -52 20 -85.5t84 -43.5q50 -7 97 0t106 33q63 30 107.5 76t60.5 92q1 4 18 68zM1153 248l-53 -250h-197q-63 0 -88 37.5t-12 97.5q7 38 41.5 107t65.5 118l30 50h-37q-5 -10 -15 -28
t-41 -67.5t-63 -92t-78 -90t-90 -73.5q-166 -102 -383 -77q-107 11 -170 90.5t-38 199.5q47 225 299 281q82 18 198.5 30t143.5 17q91 16 116 27q47 22 43 69q-3 50 -53 78.5t-133 28.5q-108 0 -177.5 -47t-84.5 -111h-266q13 56 42 109.5t79 103t114 87t152.5 59.5
t189.5 22q85 0 154.5 -15.5t116.5 -43t82 -64.5t50 -80t20 -90t-7 -94l-74 -342q-4 -20 6.5 -33.5t30.5 -13.5h86zM1108 1499l-234 -321h-237l213 321h258z" />
    <glyph glyph-name="acircumflex" unicode="&#xe2;" horiz-adv-x="1251" 
d="M801 510q-23 -13 -91.5 -24.5t-234.5 -34.5q-60 -10 -114.5 -47t-65.5 -91q-10 -52 20 -85.5t84 -43.5q50 -7 97 0t106 33q63 30 107.5 76t60.5 92q1 4 18 68zM1153 248l-53 -250h-197q-63 0 -88 37.5t-12 97.5q7 38 41.5 107t65.5 118l30 50h-37q-5 -10 -15 -28
t-41 -67.5t-63 -92t-78 -90t-90 -73.5q-166 -102 -383 -77q-107 11 -170 90.5t-38 199.5q47 225 299 281q82 18 198.5 30t143.5 17q91 16 116 27q47 22 43 69q-3 50 -53 78.5t-133 28.5q-108 0 -177.5 -47t-84.5 -111h-266q13 56 42 109.5t79 103t114 87t152.5 59.5
t189.5 22q85 0 154.5 -15.5t116.5 -43t82 -64.5t50 -80t20 -90t-7 -94l-74 -342q-4 -20 6.5 -33.5t30.5 -13.5h86zM1020 1499l131 -272h-223l-72 145h-12l-133 -145h-246l244 272h311z" />
    <glyph glyph-name="adieresis" unicode="&#xe4;" horiz-adv-x="1251" 
d="M801 510q-23 -13 -91.5 -24.5t-234.5 -34.5q-60 -10 -114.5 -47t-65.5 -91q-10 -52 20 -85.5t84 -43.5q50 -7 97 0t106 33q63 30 107.5 76t60.5 92q1 4 18 68zM1153 248l-53 -250h-197q-63 0 -88 37.5t-12 97.5q7 38 41.5 107t65.5 118l30 50h-37q-5 -10 -15 -28
t-41 -67.5t-63 -92t-78 -90t-90 -73.5q-166 -102 -383 -77q-107 11 -170 90.5t-38 199.5q47 225 299 281q82 18 198.5 30t143.5 17q91 16 116 27q47 22 43 69q-3 50 -53 78.5t-133 28.5q-108 0 -177.5 -47t-84.5 -111h-266q13 56 42 109.5t79 103t114 87t152.5 59.5
t189.5 22q85 0 154.5 -15.5t116.5 -43t82 -64.5t50 -80t20 -90t-7 -94l-74 -342q-4 -20 6.5 -33.5t30.5 -13.5h86zM631 1233q-64 0 -102 45.5t-25 107.5q9 47 50 80t89 33q61 0 98.5 -46t24.5 -110q-9 -45 -49.5 -77.5t-85.5 -32.5zM1042 1233q-65 0 -102.5 45t-24.5 108
q9 47 49.5 80t90.5 33q61 0 98.5 -46.5t22.5 -109.5q-9 -45 -49 -77.5t-85 -32.5z" />
    <glyph glyph-name="aring" unicode="&#xe5;" horiz-adv-x="1251" 
d="M801 510q-23 -13 -91.5 -24.5t-234.5 -34.5q-60 -10 -114.5 -47t-65.5 -91q-10 -52 20 -85.5t84 -43.5q50 -7 97 0t106 33q63 30 107.5 76t60.5 92q1 4 18 68zM1153 248l-53 -250h-197q-63 0 -88 37.5t-12 97.5q7 38 41.5 107t65.5 118l30 50h-37q-5 -10 -15 -28
t-41 -67.5t-63 -92t-78 -90t-90 -73.5q-166 -102 -383 -77q-107 11 -170 90.5t-38 199.5q47 225 299 281q82 18 198.5 30t143.5 17q91 16 116 27q47 22 43 69q-3 50 -53 78.5t-133 28.5q-108 0 -177.5 -47t-84.5 -111h-266q13 56 42 109.5t79 103t114 87t152.5 59.5
t189.5 22q85 0 154.5 -15.5t116.5 -43t82 -64.5t50 -80t20 -90t-7 -94l-74 -342q-4 -20 6.5 -33.5t30.5 -13.5h86zM805 1386q54 0 89.5 33.5t43.5 77.5q10 44 -7.5 75.5t-70.5 31.5q-54 0 -88.5 -32.5t-44.5 -76.5q-9 -46 8.5 -77.5t69.5 -31.5zM872 1769q55 0 100.5 -18
t74 -47t47.5 -67t21.5 -78.5t-3.5 -79.5q-11 -52 -33 -95.5t-59 -81.5t-96 -59.5t-133 -21.5q-67 0 -119.5 27.5t-79.5 70t-39.5 94.5t0.5 100q23 109 101 182.5t218 73.5z" />
    <glyph glyph-name="eacute" unicode="&#xe9;" horiz-adv-x="1132" 
d="M627 801q-55 0 -103.5 -19t-83.5 -50.5t-59.5 -65t-40.5 -70.5h483q1 35 -8 68.5t-30 65.5t-62 51.5t-96 19.5zM299 436q-3 -28 -0.5 -56.5t15 -62t33.5 -59t60 -42.5t91 -17q156 0 239 137h275q-169 -361 -539 -361q-72 0 -133.5 18.5t-106.5 50t-80 74.5t-55.5 92.5
t-31.5 103t-10 106t12 102.5q16 76 47.5 146.5t82 135.5t114.5 113.5t150.5 77.5t184.5 29q84 0 154 -22t120 -61.5t85 -94t51 -119.5t14.5 -138.5t-20.5 -150.5zM1073 1499l-233 -321h-238l213 321h258z" />
    <glyph glyph-name="ecircumflex" unicode="&#xea;" horiz-adv-x="1132" 
d="M627 801q-55 0 -103.5 -19t-83.5 -50.5t-59.5 -65t-40.5 -70.5h483q1 35 -8 68.5t-30 65.5t-62 51.5t-96 19.5zM299 436q-3 -28 -0.5 -56.5t15 -62t33.5 -59t60 -42.5t91 -17q156 0 239 137h275q-169 -361 -539 -361q-72 0 -133.5 18.5t-106.5 50t-80 74.5t-55.5 92.5
t-31.5 103t-10 106t12 102.5q16 76 47.5 146.5t82 135.5t114.5 113.5t150.5 77.5t184.5 29q84 0 154 -22t120 -61.5t85 -94t51 -119.5t14.5 -138.5t-20.5 -150.5zM977 1499l131 -272h-223l-72 145h-12l-133 -145h-246l244 272h311z" />
    <glyph glyph-name="edieresis" unicode="&#xeb;" horiz-adv-x="1132" 
d="M627 801q-55 0 -103.5 -19t-83.5 -50.5t-59.5 -65t-40.5 -70.5h483q1 35 -8 68.5t-30 65.5t-62 51.5t-96 19.5zM299 436q-3 -28 -0.5 -56.5t15 -62t33.5 -59t60 -42.5t91 -17q156 0 239 137h275q-169 -361 -539 -361q-72 0 -133.5 18.5t-106.5 50t-80 74.5t-55.5 92.5
t-31.5 103t-10 106t12 102.5q16 76 47.5 146.5t82 135.5t114.5 113.5t150.5 77.5t184.5 29q84 0 154 -22t120 -61.5t85 -94t51 -119.5t14.5 -138.5t-20.5 -150.5zM580 1235q-64 0 -102 46t-25 108q9 47 50 79.5t89 32.5q61 0 98.5 -46t24.5 -109q-9 -45 -49.5 -78t-85.5 -33
zM991 1235q-65 0 -102.5 45.5t-24.5 108.5q9 47 49.5 79.5t90.5 32.5q61 0 98 -46t22 -109q-9 -45 -48.5 -78t-84.5 -33z" />
    <glyph glyph-name="iacute" unicode="&#xed;" horiz-adv-x="608" 
d="M817 1499l-233 -321h-238l213 321h258zM530 872q11 56 -18 91.5t-88 35.5h-279l-53 -247h82q24 0 38.5 -18t8.5 -46l-149 -688h274z" />
    <glyph glyph-name="icircumflex" unicode="&#xee;" horiz-adv-x="575" 
d="M635 1499l131 -272h-223l-72 145h-12l-133 -145h-246l244 272h311zM545 872q11 56 -18.5 91.5t-88.5 35.5h-280l-54 -247h84q24 0 38 -18t7 -46l-147 -688h272z" />
    <glyph glyph-name="idieresis" unicode="&#xef;" horiz-adv-x="563" 
d="M250 1233q-64 0 -102 45.5t-25 107.5q9 47 50 80t89 33q61 0 98.5 -46t24.5 -110q-9 -45 -49.5 -77.5t-85.5 -32.5zM662 1233q-65 0 -102.5 45t-24.5 108q9 47 49.5 80t89.5 33q61 0 98.5 -46.5t22.5 -109.5q-9 -45 -48.5 -77.5t-84.5 -32.5zM549 872q11 56 -18.5 91.5
t-88.5 35.5h-280l-53 -247h84q24 0 38 -18t7 -46l-148 -688h272z" />
    <glyph glyph-name="oacute" unicode="&#xf3;" horiz-adv-x="1150" 
d="M481 178q75 0 139.5 30.5t108.5 81t73 109t44 121.5q9 44 10 85t-8.5 81t-30.5 69.5t-59.5 47.5t-91.5 18q-75 0 -139.5 -30.5t-109 -81t-74 -109t-44.5 -121.5q-14 -52 -9.5 -105.5t21.5 -97t61 -71t109 -27.5zM662 1024q91 0 164.5 -22.5t121 -63t80 -92.5t45 -114
t12.5 -125t-14 -128q-15 -72 -45.5 -141t-81 -136t-115 -116.5t-153.5 -80t-191 -30.5q-92 0 -165.5 22.5t-121.5 63t-80 92.5t-45 114t-12 125t15 128q19 92 63 177.5t114 160.5t176 120.5t233 45.5zM1075 1499l-233 -321h-238l213 321h258z" />
    <glyph glyph-name="ocircumflex" unicode="&#xf4;" horiz-adv-x="1150" 
d="M481 178q75 0 139.5 30.5t108.5 81t73 109t44 121.5q9 44 10 85t-8.5 81t-30.5 69.5t-59.5 47.5t-91.5 18q-75 0 -139.5 -30.5t-109 -81t-74 -109t-44.5 -121.5q-14 -52 -9.5 -105.5t21.5 -97t61 -71t109 -27.5zM662 1024q91 0 164.5 -22.5t121 -63t80 -92.5t45 -114
t12.5 -125t-14 -128q-15 -72 -45.5 -141t-81 -136t-115 -116.5t-153.5 -80t-191 -30.5q-92 0 -165.5 22.5t-121.5 63t-80 92.5t-45 114t-12 125t15 128q19 92 63 177.5t114 160.5t176 120.5t233 45.5zM979 1499l131 -272h-223l-72 145h-12l-133 -145h-246l244 272h311z" />
    <glyph glyph-name="odieresis" unicode="&#xf6;" horiz-adv-x="1150" 
d="M481 178q75 0 139.5 30.5t108.5 81t73 109t44 121.5q9 44 10 85t-8.5 81t-30.5 69.5t-59.5 47.5t-91.5 18q-75 0 -139.5 -30.5t-109 -81t-74 -109t-44.5 -121.5q-14 -52 -9.5 -105.5t21.5 -97t61 -71t109 -27.5zM662 1024q91 0 164.5 -22.5t121 -63t80 -92.5t45 -114
t12.5 -125t-14 -128q-15 -72 -45.5 -141t-81 -136t-115 -116.5t-153.5 -80t-191 -30.5q-92 0 -165.5 22.5t-121.5 63t-80 92.5t-45 114t-12 125t15 128q19 92 63 177.5t114 160.5t176 120.5t233 45.5zM612 1233q-64 0 -102 45.5t-25 107.5q9 47 50.5 80t89.5 33
q61 0 98.5 -46t24.5 -110q-9 -45 -50 -77.5t-86 -32.5zM1024 1233q-65 0 -102.5 45t-24.5 108q9 47 49.5 80t89.5 33q61 0 98.5 -46.5t22.5 -109.5q-9 -45 -48.5 -77.5t-84.5 -32.5z" />
    <glyph glyph-name="divide" unicode="&#xf7;" horiz-adv-x="1128" 
d="M197 723h825l-47 -223h-825zM506 121q-68 0 -108 46.5t-27 111.5q10 50 52.5 83t94.5 33q64 0 102 -46.5t25 -112.5q-10 -49 -51 -82t-88 -33zM657 827q-69 0 -109 46.5t-28 111.5q10 50 53.5 83.5t96.5 33.5q63 0 101.5 -46.5t23.5 -111.5q-10 -49 -51.5 -83t-86.5 -34z
" />
    <glyph glyph-name="oslash" unicode="&#xf8;" horiz-adv-x="1101" 
d="M457 178q75 0 139 30.5t108 81t73 109t44 121.5q9 44 10 85t-8.5 81t-30.5 69.5t-59.5 47.5t-91.5 18q-75 0 -139.5 -30.5t-109 -81t-74 -109t-44.5 -121.5q-14 -52 -9.5 -105.5t21.5 -97t61.5 -71t109.5 -27.5zM637 1024q91 0 164.5 -22.5t121.5 -63t80 -92.5t45 -114
t13 -125t-14 -128q-15 -72 -45.5 -141t-81 -136t-115 -116.5t-153.5 -80t-191 -30.5q-92 0 -165.5 22.5t-121.5 63t-80.5 92.5t-45 114t-12 125t14.5 128q19 92 63 177.5t114 160.5t176 120.5t233 45.5zM1128 1020l-960 -1040h-217l962 1040h215z" />
    <glyph glyph-name="uacute" unicode="&#xfa;" 
d="M92 465q-11 -53 -13.5 -106.5t9 -113.5t38 -109t79.5 -89.5t127 -58.5q45 -9 93.5 -11t102.5 14.5t102.5 45t94 80.5t78.5 121h37q-76 -121 -103 -209l-6 -29h275l211 999h-273l-65 -313q-35 -167 -66 -289q-13 -47 -38 -88t-61.5 -73t-88.5 -45.5t-111 -2.5
q-55 10 -91 37.5t-50 63.5t-17 80.5t9 89.5l110 540h-270zM1141 1499l-234 -321h-237l213 321h258z" />
    <glyph glyph-name="ucircumflex" unicode="&#xfb;" 
d="M92 465q-11 -53 -13.5 -106.5t9 -113.5t38 -109t79.5 -89.5t127 -58.5q45 -9 93.5 -11t102.5 14.5t102.5 45t94 80.5t78.5 121h37q-76 -121 -103 -209l-6 -29h275l211 999h-273l-65 -313q-35 -167 -66 -289q-13 -47 -38 -88t-61.5 -73t-88.5 -45.5t-111 -2.5
q-55 10 -91 37.5t-50 63.5t-17 80.5t9 89.5l110 540h-270zM1012 1497l131 -272h-223l-72 145h-12l-134 -145h-245l243 272h312z" />
    <glyph glyph-name="udieresis" unicode="&#xfc;" 
d="M92 465q-11 -53 -13.5 -106.5t9 -113.5t38 -109t79.5 -89.5t127 -58.5q45 -9 93.5 -11t102.5 14.5t102.5 45t94 80.5t78.5 121h37q-76 -121 -103 -209l-6 -29h275l211 999h-273l-65 -313q-35 -167 -66 -289q-13 -47 -38 -88t-61.5 -73t-88.5 -45.5t-111 -2.5
q-55 10 -91 37.5t-50 63.5t-17 80.5t9 89.5l110 540h-270zM631 1233q-64 0 -102 45.5t-25 107.5q9 47 50 80t89 33q61 0 98.5 -46t24.5 -110q-9 -45 -49.5 -77.5t-85.5 -32.5zM1042 1233q-65 0 -102.5 45t-24.5 108q9 47 49.5 80t90.5 33q61 0 98.5 -46.5t22.5 -109.5
q-9 -45 -49 -77.5t-85 -32.5z" />
    <glyph glyph-name="yacute" unicode="&#xfd;" horiz-adv-x="1116" 
d="M578 395q-26 -43 -44 -79.5t-23 -51.5l-5 -16h-37q12 53 -6 149l-86 602h-260l137 -999h108l-149 -266q-16 -31 -45 -51.5t-64 -20.5h-245l-49 -231h268q73 0 137.5 19.5t112 54t82.5 73.5t59 84l739 1337h-293zM1034 1499l-233 -321h-238l213 321h258z" />
    <glyph glyph-name="ydieresis" unicode="&#xff;" horiz-adv-x="1116" 
d="M578 395q-26 -43 -44 -79.5t-23 -51.5l-5 -16h-37q12 53 -6 149l-86 602h-260l137 -999h108l-149 -266q-16 -31 -45 -51.5t-64 -20.5h-245l-49 -231h268q73 0 137.5 19.5t112 54t82.5 73.5t59 84l739 1337h-293zM551 1233q-64 0 -102 45.5t-25 107.5q9 47 50 80t89 33
q61 0 98.5 -46t24.5 -110q-9 -45 -49.5 -77.5t-85.5 -32.5zM963 1233q-65 0 -102.5 45t-24.5 108q9 47 49.5 80t89.5 33q61 0 98.5 -46.5t22.5 -109.5q-9 -45 -48.5 -77.5t-84.5 -32.5z" />
    <glyph glyph-name="Ccaron" unicode="&#x10c;" horiz-adv-x="1492" 
d="M1092 436q-151 -213 -381 -213q-74 0 -132 20.5t-96 57t-63 84t-34.5 104t-8 114.5t13.5 118q19 87 63.5 171t109.5 156.5t158.5 117t197.5 44.5q74 0 132.5 -20t94 -54.5t55.5 -68.5t31 -72h291q-3 29 -12 63.5t-29.5 80t-49.5 88.5t-75 86t-102.5 74.5t-136 51
t-171.5 19.5q-141 0 -264.5 -40.5t-214 -108t-161.5 -159.5t-114.5 -191.5t-66.5 -208.5q-16 -75 -16.5 -153t15 -154t46 -145t79.5 -128t111 -102.5t146 -68t180 -24.5q95 0 182.5 20t152.5 50t124.5 74.5t99 84.5t75.5 89t54 79.5t35 63.5h-319zM856 1591l-133 273h225
l70 -148h12l133 148h246l-244 -273h-309z" />
    <glyph glyph-name="ccaron" unicode="&#x10d;" horiz-adv-x="1110" 
d="M727 340q-31 -47 -86 -82t-131 -35q-63 0 -105 25.5t-58 65.5t-20 90t9 98q15 65 50 125t99.5 104.5t141.5 44.5q78 0 118.5 -36t51.5 -85h286q-3 69 -32.5 134t-82 118t-136.5 85t-187 32q-100 0 -187.5 -29t-151 -77.5t-113.5 -114.5t-80 -136t-45 -145
q-8 -50 -9.5 -103t12 -106.5t34.5 -103t58 -92t82.5 -74.5t107.5 -50t134 -18q88 0 163.5 21t130 55t101.5 83.5t77.5 98t58.5 107.5h-291zM649 1227l-133 272h225l70 -147h12l133 147h246l-244 -272h-309z" />
    <glyph glyph-name="Dcaron" unicode="&#x10e;" horiz-adv-x="1458" 
d="M588 256q217 0 368.5 126.5t196.5 336.5q44 210 -53 338.5t-314 128.5h-225l-199 -930h226zM1421 700q-72 -337 -307 -518.5t-571 -181.5h-506l305 1434h502q159 0 283.5 -50t201.5 -144.5t103 -230.5t-11 -309zM731 1591l-133 273h225l70 -148h12l133 148h246l-244 -273
h-309z" />
    <glyph glyph-name="dcaron" unicode="&#x10f;" horiz-adv-x="1445" 
d="M344 498q-27 -123 31.5 -199t169.5 -76q112 0 202 76.5t117 202.5q26 124 -31.5 199t-168.5 75q-112 0 -203 -76t-117 -202zM70 530q21 96 66 182t113.5 157t168 113t215.5 42q238 0 301 -197h37q-15 109 16 246l76 361h272l-305 -1434h-272l2 10q3 36 20.5 76t33.5 62
l17 22h-36q-25 -33 -42 -53.5t-51 -50.5t-68.5 -47.5t-87.5 -30.5t-114 -13q-73 0 -134.5 24t-103.5 65t-74 95.5t-45 116.5t-16.5 127t11.5 127zM1692 1434l-148 -572h-223l96 572h275z" />
    <glyph glyph-name="Ebreve" unicode="&#x114;" horiz-adv-x="1165" 
d="M1257 1434l-51 -248h-645l-69 -334h575l-51 -242h-578l-78 -362h646l-52 -248h-917l305 1434h915zM1167 1864q-8 -54 -32.5 -104t-66 -95t-110 -69t-153.5 -17q-115 10 -176 95t-45 190h184q-16 -99 57 -109q58 -8 102 26.5t54 82.5h186z" />
    <glyph glyph-name="Ecaron" unicode="&#x11a;" horiz-adv-x="1165" 
d="M1257 1434l-51 -248h-645l-69 -334h575l-51 -242h-578l-78 -362h646l-52 -248h-917l305 1434h915zM668 1591l-133 273h225l69 -148h13l133 148h246l-244 -273h-309z" />
    <glyph glyph-name="ecaron" unicode="&#x11b;" horiz-adv-x="1132" 
d="M627 801q-55 0 -103.5 -19t-83.5 -50.5t-59.5 -65t-40.5 -70.5h483q1 35 -8 68.5t-30 65.5t-62 51.5t-96 19.5zM299 436q-3 -28 -0.5 -56.5t15 -62t33.5 -59t60 -42.5t91 -17q156 0 239 137h275q-169 -361 -539 -361q-72 0 -133.5 18.5t-106.5 50t-80 74.5t-55.5 92.5
t-31.5 103t-10 106t12 102.5q16 76 47.5 146.5t82 135.5t114.5 113.5t150.5 77.5t184.5 29q84 0 154 -22t120 -61.5t85 -94t51 -119.5t14.5 -138.5t-20.5 -150.5zM610 1227l-133 272h225l70 -147h12l134 147h245l-243 -272h-310z" />
    <glyph glyph-name="Ibreve" unicode="&#x12c;" horiz-adv-x="589" 
d="M340 1434h272l-303 -1434h-272zM870 1860q-8 -54 -32.5 -104t-66 -95t-110 -69t-153.5 -17q-115 10 -176 95t-45 190h184q-16 -99 57 -109q58 -8 102 26.5t54 82.5h186z" />
    <glyph glyph-name="Idotaccent" unicode="&#x130;" horiz-adv-x="587" 
d="M350 1434h273l-304 -1434h-272zM555 1593q-64 0 -102 46t-25 108q9 47 50 80t89 33q61 0 98.5 -46t24.5 -110q-9 -45 -49.5 -78t-85.5 -33z" />
    <glyph glyph-name="Lacute" unicode="&#x139;" horiz-adv-x="1107" 
d="M614 1434l-252 -1186h648l-52 -248h-919l303 1434h272zM866 1860l-233 -322h-238l213 322h258z" />
    <glyph glyph-name="lacute" unicode="&#x13a;" horiz-adv-x="501" 
d="M307 1434h273l-304 -1434h-272zM819 1864l-233 -322h-238l213 322h258z" />
    <glyph glyph-name="Lcaron" unicode="&#x13d;" horiz-adv-x="1107" 
d="M614 1434l-252 -1186h648l-52 -248h-919l303 1434h272zM1065 1434l-147 -572h-224l97 572h274z" />
    <glyph glyph-name="lcaron" unicode="&#x13e;" horiz-adv-x="690" 
d="M307 1434h273l-304 -1434h-272zM944 1434l-147 -572h-224l97 572h274z" />
    <glyph glyph-name="Lslash" unicode="&#x141;" horiz-adv-x="1191" 
d="M698 1434l-252 -1186h648l-52 -248h-919l303 1434h272zM90 647l690 320l-41 -219l-690 -322z" />
    <glyph glyph-name="lslash" unicode="&#x142;" horiz-adv-x="491" 
d="M301 1434h272l-303 -1434h-272zM543 776l-531 -229l45 207l529 229z" />
    <glyph glyph-name="Ncaron" unicode="&#x147;" horiz-adv-x="1619" 
d="M1204 522q-15 -68 -25 -136.5t-13 -103.5l-3 -34h-37l-360 1186h-424l-301 -1434h270l195 922q14 64 24 130t14 100l3 34h37l360 -1186h422l303 1434h-270zM891 1591l-133 273h225l70 -148h12l133 148h246l-244 -273h-309z" />
    <glyph glyph-name="ncaron" unicode="&#x148;" 
d="M1126 535q11 53 13.5 106.5t-8.5 113.5t-37.5 109t-79.5 89.5t-127 58.5q-45 9 -93.5 11t-102.5 -14.5t-102.5 -45t-94 -80.5t-78.5 -121h-37q73 121 100 209l6 28h-272l-213 -999h274l64 313q26 123 68 289q30 103 107 167.5t189 41.5q55 -10 91.5 -36.5t50.5 -63
t17.5 -81t-7.5 -89.5l-113 -541h273zM702 1227l-133 272h226l69 -147h13l133 147h245l-243 -272h-310z" />
    <glyph glyph-name="Ohungarumlaut" unicode="&#x150;" horiz-adv-x="1544" 
d="M686 223q112 0 210 46.5t166 122.5t113.5 164.5t65.5 182.5q15 67 15.5 132t-17.5 127t-53 108.5t-97 75t-145 28.5q-90 0 -171.5 -30.5t-143 -81.5t-111 -118.5t-80.5 -139t-47 -144.5q-15 -68 -15.5 -133t17 -127t52 -109t96.5 -75.5t145 -28.5zM952 1458
q122 0 221 -32t164 -88t109 -129.5t62 -159.5t17 -175.5t-20 -179.5q-22 -103 -66 -202t-116 -193.5t-163 -165.5t-215 -114.5t-263 -43.5q-122 0 -221 32t-164 87.5t-109.5 129t-63 159t-18.5 174.5t19 178q22 104 66.5 204t117 195t164 166t215.5 114.5t264 43.5z
M1507 1864l-233 -322h-238l213 322h258zM1174 1864l-234 -322h-238l213 322h259z" />
    <glyph glyph-name="ohungarumlaut" unicode="&#x151;" horiz-adv-x="1157" 
d="M481 178q75 0 139.5 30.5t108.5 81t73 109t44 121.5q9 44 10 85t-8.5 81t-30.5 69.5t-59.5 47.5t-91.5 18q-75 0 -139.5 -30.5t-109 -81t-74 -109t-44.5 -121.5q-14 -52 -9.5 -105.5t21.5 -97t61 -71t109 -27.5zM662 1024q91 0 164.5 -22.5t121 -63t80 -92.5t45 -114
t12.5 -125t-14 -128q-15 -72 -45.5 -141t-81 -136t-115 -116.5t-153.5 -80t-191 -30.5q-92 0 -165.5 22.5t-121.5 63t-80 92.5t-45 114t-12 125t15 128q19 92 63 177.5t114 160.5t176 120.5t233 45.5zM1257 1499l-233 -321h-238l213 321h258zM924 1499l-234 -321h-237
l213 321h258z" />
    <glyph glyph-name="racute" unicode="&#x155;" horiz-adv-x="931" 
d="M995 999q-88 0 -169.5 -31.5t-145 -82.5t-119 -120t-93.5 -139.5t-65 -144.5h-53q153 347 176 449q7 36 -12.5 52.5t-64.5 16.5h-304l-53 -247h109q17 0 29.5 -15.5t9.5 -34.5l-152 -702h274l48 211q11 54 29.5 108.5t47.5 118t70.5 117.5t93 99.5t121 71.5t148.5 26z
M1047 1499l-234 -321h-238l213 321h259z" />
    <glyph glyph-name="Rcaron" unicode="&#x158;" horiz-adv-x="1355" 
d="M872 852q81 0 145.5 43t82.5 117q17 72 -25 123t-121 51h-385l-71 -334h374zM1018 717q98 -5 158 -80t36 -180l-96 -457h-246q66 323 101 481q11 55 -10 88t-76 33h-443l-131 -602h-272l311 1434h645q85 0 154.5 -22t114 -60.5t74 -90t34.5 -111t-6 -122.5
q-14 -63 -47.5 -113t-71.5 -78.5t-84 -47.5t-77.5 -26t-59.5 -9zM725 1591l-133 273h225l70 -148h12l133 148h246l-244 -273h-309z" />
    <glyph glyph-name="rcaron" unicode="&#x159;" horiz-adv-x="931" 
d="M995 999q-88 0 -169.5 -31.5t-145 -82.5t-119 -120t-93.5 -139.5t-65 -144.5h-53q153 347 176 449q7 36 -12.5 52.5t-64.5 16.5h-304l-53 -247h109q17 0 29.5 -15.5t9.5 -34.5l-152 -702h274l48 211q11 54 29.5 108.5t47.5 118t70.5 117.5t93 99.5t121 71.5t148.5 26z
M539 1227l-133 272h225l69 -147h13l133 147h246l-244 -272h-309z" />
    <glyph glyph-name="Scaron" unicode="&#x160;" horiz-adv-x="1269" 
d="M1157 379q16 64 9 119t-25 98.5t-53.5 79.5t-76.5 63.5t-95 48.5t-109 34.5t-117 23.5q-131 22 -187.5 70.5t-39.5 127.5q15 70 88.5 118t204.5 48q133 -1 199.5 -57t50.5 -127q0 -2 -2 -8h274q3 9 4 10q7 43 5.5 87t-19 86.5t-43.5 80.5t-69.5 70t-96.5 55.5t-123.5 37
t-151.5 13.5q-114 0 -207.5 -23t-157 -62.5t-110 -95t-72 -116t-38.5 -131.5q-15 -78 1 -144t52.5 -111.5t92.5 -81.5t115 -57t126 -34q143 -30 191 -48q125 -48 106 -138q-16 -81 -98.5 -137t-221.5 -56t-195.5 61.5t-39.5 145.5h-275q-17 -81 4 -160t76.5 -145.5
t161.5 -108t246 -41.5q117 0 213.5 22t164 59.5t117.5 90t78.5 110t42.5 122.5zM688 1591l-133 273h225l70 -148h12l133 148h246l-244 -273h-309z" />
    <glyph glyph-name="scaron" unicode="&#x161;" horiz-adv-x="1015" 
d="M920 307q13 69 1.5 116.5t-42 81.5t-73.5 54t-93 33.5t-100 20t-96 14t-80 16t-52 24.5t-12 40q10 45 65 69.5t127 24.5q84 0 130 -26.5t36 -74.5q-1 -3 -2 -7t-2 -7h250q0 3 4 19q13 61 -6.5 117.5t-68.5 102t-134 72.5t-194 27q-211 0 -326.5 -86.5t-142.5 -220.5
q-14 -68 2.5 -118.5t54.5 -78.5t89.5 -47.5t108 -28t110.5 -19t95.5 -21t64 -33t15.5 -56.5q-11 -57 -73 -86.5t-136 -29.5q-103 0 -150 31t-34 92h-250q-14 -66 3.5 -127t64 -110.5t132.5 -79.5t200 -30q118 0 213 28t155.5 75.5t96.5 105t49 123.5zM575 1227l-133 272h226
l69 -147h13l133 147h245l-243 -272h-310z" />
    <glyph glyph-name="Tcaron" unicode="&#x164;" horiz-adv-x="1173" 
d="M1331 1434l-51 -248h-414l-252 -1186h-270l252 1186h-414l51 248h1098zM666 1587l-134 273h226l69 -148h13l133 148h246l-244 -273h-309z" />
    <glyph glyph-name="tcaron" unicode="&#x165;" horiz-adv-x="815" 
d="M180 389q-11 -59 -9 -115t26.5 -106t62 -87.5t98.5 -59t136 -21.5h186l53 248h-227q-39 0 -57 24.5t-9 63.5l88 416h314l53 247h-315l92 435h-273l-92 -435h-180l-51 -247h180zM1110 1864l-147 -572h-224l97 572h274z" />
    <glyph glyph-name="Uring" unicode="&#x16e;" horiz-adv-x="1464" 
d="M1079 618q-12 -56 -36 -111t-62.5 -106.5t-85.5 -91t-109.5 -63t-130.5 -23.5q-66 0 -114.5 22t-75 58t-39.5 84.5t-12 98t12 102.5l180 846h-274l-172 -813q-15 -74 -15 -148.5t15.5 -147.5t53 -135.5t93 -111t141 -76t191.5 -27.5q122 0 229.5 37.5t185.5 99
t139.5 142.5t98 164t54.5 168l180 848h-275zM981 1700q55 0 90 33t43 77q10 44 -7.5 75.5t-70.5 31.5q-54 0 -88.5 -32.5t-44.5 -76.5q-9 -46 8.5 -77t69.5 -31zM1049 2083q90 0 151 -46.5t81.5 -112t6.5 -132.5q-11 -52 -33 -95.5t-59 -81.5t-96 -59.5t-133 -21.5
q-88 0 -149 47t-82 113t-7 133q23 109 101.5 182.5t218.5 73.5z" />
    <glyph glyph-name="uring" unicode="&#x16f;" 
d="M92 465q-11 -53 -13.5 -106.5t9 -113.5t38 -109t79.5 -89.5t127 -58.5q45 -9 93.5 -11t102.5 14.5t102.5 45t94 80.5t78.5 121h37q-76 -121 -103 -209l-6 -29h275l211 999h-273l-65 -313q-35 -167 -66 -289q-13 -47 -38 -88t-61.5 -73t-88.5 -45.5t-111 -2.5
q-55 10 -91 37.5t-50 63.5t-17 80.5t9 89.5l110 540h-270zM836 1454q54 0 89.5 33.5t43.5 77.5q10 44 -7.5 75t-70.5 31q-54 0 -88.5 -32t-44.5 -76q-9 -46 8.5 -77.5t69.5 -31.5zM903 1837q55 0 100.5 -18t74 -47.5t47.5 -67.5t21.5 -78.5t-3.5 -79.5q-11 -52 -33.5 -95.5
t-59.5 -81.5t-96 -59.5t-133 -21.5q-88 0 -148.5 47t-81.5 113t-7 133q23 109 101 182.5t218 73.5z" />
    <glyph glyph-name="Uhungarumlaut" unicode="&#x170;" horiz-adv-x="1464" 
d="M1079 618q-12 -56 -36 -111t-62.5 -106.5t-85.5 -91t-109.5 -63t-130.5 -23.5q-66 0 -114.5 22t-75 58t-39.5 84.5t-12 98t12 102.5l180 846h-274l-172 -813q-15 -74 -15 -148.5t15.5 -147.5t53 -135.5t93 -111t141 -76t191.5 -27.5q122 0 229.5 37.5t185.5 99
t139.5 142.5t98 164t54.5 168l180 848h-275zM1477 1864l-234 -322h-237l213 322h258zM1143 1864l-234 -322h-237l213 322h258z" />
    <glyph glyph-name="uhungarumlaut" unicode="&#x171;" horiz-adv-x="1226" 
d="M92 465q-11 -53 -13.5 -106.5t9 -113.5t38 -109t79.5 -89.5t127 -58.5q45 -9 93.5 -11t102.5 14.5t102.5 45t94 80.5t78.5 121h37q-76 -121 -103 -209l-6 -29h275l211 999h-273l-65 -313q-35 -167 -66 -289q-13 -47 -38 -88t-61.5 -73t-88.5 -45.5t-111 -2.5
q-55 10 -91 37.5t-50 63.5t-17 80.5t9 89.5l110 540h-270zM1294 1499l-233 -321h-238l213 321h258zM961 1499l-234 -321h-238l213 321h259z" />
    <glyph glyph-name="Ydieresis" unicode="&#x178;" horiz-adv-x="1306" 
d="M778 940q-18 -22 -33 -46t-21 -37l-5 -13h-37q0 49 -18 98l-189 492h-258l320 -838l-125 -596h270l127 594l674 840h-309zM694 1597q-64 0 -102 46t-25 108q9 47 50.5 80t89.5 33q61 0 98 -46t24 -110q-9 -45 -49.5 -78t-85.5 -33zM1106 1597q-65 0 -102.5 45.5
t-24.5 108.5q9 47 49.5 80t89.5 33q61 0 98.5 -46.5t22.5 -109.5q-9 -45 -48.5 -78t-84.5 -33z" />
    <glyph glyph-name="Zcaron" unicode="&#x17d;" horiz-adv-x="1277" 
d="M379 279q71 37 180 143l805 811l41 201h-1108l-51 -248h741l-6 -33q-7 -2 -20 -8.5t-55.5 -37.5t-86.5 -75l-825 -831l-41 -201h1149l51 248h-782zM715 1591l-133 273h225l70 -148h12l133 148h246l-244 -273h-309z" />
    <glyph glyph-name="zcaron" unicode="&#x17e;" horiz-adv-x="1030" 
d="M633 739q-82 -20 -176 -104q-32 -27 -143.5 -129.5t-206.5 -191.5l-95 -89l-49 -225h879l47 223h-533l6 37q14 3 29 10.5t33 21.5t30 24t36 30.5t36 30.5l457 397l49 225h-821l-49 -223h477zM547 1227l-133 272h225l70 -147h12l133 147h246l-244 -272h-309z" />
    <glyph glyph-name="Oslashacute" unicode="&#x1fe;" horiz-adv-x="1523" 
d="M696 223q112 0 210 46.5t166 122.5t113.5 164.5t65.5 182.5q15 67 15.5 132t-17.5 127t-53 108.5t-97 75t-145 28.5q-90 0 -171.5 -30.5t-143 -81.5t-111 -118.5t-80.5 -139t-47 -144.5q-15 -68 -15.5 -133t17 -127t52 -109t96.5 -75.5t145 -28.5zM963 1458
q122 0 221 -32t164 -88t109 -129.5t62 -159.5t17 -175.5t-20 -179.5q-22 -102 -66 -201.5t-116.5 -194t-163.5 -165.5t-215 -114.5t-263 -43.5q-122 0 -221 32t-164 87.5t-109.5 129t-63 159t-18.5 174.5t19 178q22 104 66.5 204t117.5 195t164 166t215.5 114.5t264.5 43.5z
M1663 1454l-1421 -1474h-312l1424 1474h309zM1352 1864l-234 -322h-237l213 322h258z" />
    <glyph glyph-name="oslashacute" unicode="&#x1ff;" horiz-adv-x="1101" 
d="M457 178q75 0 139 30.5t108 81t73 109t44 121.5q9 44 10 85t-8.5 81t-30.5 69.5t-59.5 47.5t-91.5 18q-75 0 -139.5 -30.5t-109 -81t-74 -109t-44.5 -121.5q-14 -52 -9.5 -105.5t21.5 -97t61.5 -71t109.5 -27.5zM637 1024q91 0 164.5 -22.5t121.5 -63t80 -92.5t45 -114
t13 -125t-14 -128q-15 -72 -45.5 -141t-81 -136t-115 -116.5t-153.5 -80t-191 -30.5q-92 0 -165.5 22.5t-121.5 63t-80.5 92.5t-45 114t-12 125t14.5 128q19 92 63 177.5t114 160.5t176 120.5t233 45.5zM1128 1020l-960 -1040h-217l962 1040h215zM1063 1499l-234 -321h-237
l213 321h258z" />
    <glyph glyph-name="circumflex" unicode="&#x2c6;" horiz-adv-x="849" 
d="M866 1864l131 -273h-223l-72 146h-12l-133 -146h-246l244 273h311z" />
    <glyph glyph-name="caron" unicode="&#x2c7;" horiz-adv-x="849" 
d="M502 1591l-133 273h225l70 -148h12l133 148h246l-244 -273h-309z" />
    <glyph glyph-name="breve" unicode="&#x2d8;" horiz-adv-x="757" 
d="M956 1864q-8 -54 -32.5 -104t-66 -95t-110 -69t-153.5 -17q-115 10 -176 95t-45 190h184q-16 -99 57 -109q58 -8 102 26.5t54 82.5h186z" />
    <glyph glyph-name="dotaccent" unicode="&#x2d9;" horiz-adv-x="442" 
d="M475 1597q-64 0 -102 46t-25 108q9 47 50 80t89 33q61 0 98.5 -46t24.5 -110q-9 -45 -49.5 -78t-85.5 -33z" />
    <glyph glyph-name="ring" unicode="&#x2da;" horiz-adv-x="729" 
d="M612 1700q55 0 90 33t43 77q10 44 -7 75.5t-70 31.5q-54 0 -88.5 -32.5t-44.5 -76.5q-9 -46 8 -77t69 -31zM680 2083q55 0 100.5 -18t74 -47.5t47.5 -67.5t21.5 -78.5t-3.5 -79.5q-11 -52 -33.5 -95.5t-59.5 -81.5t-96 -59.5t-133 -21.5q-88 0 -149 47t-82 113t-7 133
q23 109 101.5 182.5t218.5 73.5z" />
    <glyph glyph-name="hungarumlaut" unicode="&#x2dd;" horiz-adv-x="919" 
d="M1106 1864l-234 -322h-237l213 322h258zM772 1864l-233 -322h-238l213 322h258z" />
    <glyph glyph-name="endash" unicode="&#x2013;" horiz-adv-x="1296" 
d="M160 668h1042l-47 -224h-1042z" />
    <glyph glyph-name="emdash" unicode="&#x2014;" horiz-adv-x="1990" 
d="M160 668h1736l-47 -224h-1736z" />
    <glyph glyph-name="quoteleft" unicode="&#x2018;" horiz-adv-x="622" 
d="M340 1284q-12 -56 18.5 -94.5t83.5 -38.5q74 0 140.5 51.5t81.5 124.5q12 55 -20 93t-91 38q-69 0 -134.5 -52t-78.5 -122zM502 1450q22 146 164 178l41 88q-163 -15 -284 -149q-94 -105 -116 -225q-20 -115 42 -164q36 -28 93 -27z" />
    <glyph glyph-name="quoteright" unicode="&#x2019;" horiz-adv-x="622" 
d="M702 1718q12 56 -18.5 94.5t-83.5 38.5q-74 0 -140 -51.5t-81 -124.5q-12 -55 19.5 -93t90.5 -38q69 0 134.5 52t78.5 122zM541 1552q-22 -146 -164 -178l-41 -88q163 15 283 149q95 105 116 225q20 115 -42 164q-36 28 -93 27z" />
    <glyph glyph-name="quotedblleft" unicode="&#x201c;" horiz-adv-x="1024" 
d="M741 1284q-12 -56 19 -94.5t84 -38.5q74 0 140 51.5t81 124.5q12 55 -20 93t-91 38q-69 0 -134.5 -52t-78.5 -122zM903 1450q22 146 164 178l41 88q-163 -15 -283 -149q-95 -105 -116 -225q-20 -115 42 -164q36 -28 93 -27zM340 1284q-12 -56 18.5 -94.5t83.5 -38.5
q74 0 140.5 51.5t81.5 124.5q12 55 -20 93t-91 38q-69 0 -134.5 -52t-78.5 -122zM502 1450q22 146 164 178l41 88q-163 -15 -284 -149q-94 -105 -116 -225q-20 -115 42 -164q36 -28 93 -27z" />
    <glyph glyph-name="quotedblright" unicode="&#x201d;" horiz-adv-x="1024" 
d="M1104 1718q12 56 -19 94.5t-84 38.5q-74 0 -140 -51.5t-81 -124.5q-12 -55 20 -93t91 -38q69 0 134.5 52t78.5 122zM942 1552q-22 -146 -164 -178l-41 -88q163 15 283 149q95 105 116 225q20 115 -42 164q-36 28 -93 27zM702 1718q12 56 -18.5 94.5t-83.5 38.5
q-74 0 -140 -51.5t-81 -124.5q-12 -55 19.5 -93t90.5 -38q69 0 134.5 52t78.5 122zM541 1552q-22 -146 -164 -178l-41 -88q163 15 283 149q95 105 116 225q20 115 -42 164q-36 28 -93 27z" />
    <glyph glyph-name="quotedblbase" unicode="&#x201e;" horiz-adv-x="1021" 
d="M770 150q12 56 -18.5 94.5t-83.5 38.5q-74 0 -140.5 -52t-81.5 -125q-12 -55 20 -93t91 -38q69 0 134.5 52t78.5 123zM608 -16q-23 -147 -164 -179l-41 -88q164 15 284 150q95 106 116 227q19 114 -43 163q-35 27 -92 26zM369 150q12 56 -19 94.5t-84 38.5
q-74 0 -140 -52t-81 -125q-12 -55 20 -93t91 -38q69 0 134.5 52t78.5 123zM207 -16q-23 -147 -164 -179l-41 -88q164 15 284 150q95 106 115 227q20 114 -43 163q-35 27 -92 26z" />
    <glyph glyph-name="bullet" unicode="&#x2022;" horiz-adv-x="755" 
d="M350 250q-117 0 -184.5 80t-44.5 192q22 98 107 166t184 68q110 0 176.5 -81.5t42.5 -193.5q-20 -96 -104 -163.5t-177 -67.5z" />
    <glyph glyph-name="guilsinglleft" unicode="&#x2039;" horiz-adv-x="913" 
d="M702 0q-256 399 -260 401q-30 40 -59.5 60t-42.5 20v35q8 0 32 8t63.5 29t72.5 49l428 397h-315l-541 -499l328 -500h294z" />
    <glyph glyph-name="guilsinglright" unicode="&#x203a;" horiz-adv-x="911" 
d="M-27 0h314l540 500l-327 499h-297q256 -393 258 -397q30 -40 63.5 -63t46.5 -23v-35q-9 0 -32.5 -6.5t-64 -26t-73.5 -47.5z" />
    <glyph glyph-name="Euro" unicode="&#x20ac;" horiz-adv-x="1574" 
d="M1153 436q-24 -35 -59.5 -68.5t-86.5 -68t-120 -55.5t-144 -21q-85 0 -148 28t-99 75t-53.5 109.5t-16.5 128.5t16 136q16 70 47 140t81 137.5t111.5 118.5t143.5 82.5t172 31.5q61 0 111 -15t81 -36.5t54.5 -52t34.5 -56t18 -53.5h279q-3 29 -10.5 61.5t-26 79t-45 88.5
t-71 85.5t-100.5 75t-137 51.5t-177 20q-140 0 -265 -43.5t-217 -114.5t-165 -166t-118 -195t-67 -204q-19 -90 -19.5 -179t18 -174.5t63 -158.5t110.5 -129t165 -87.5t222 -31.5q96 0 184 20.5t154.5 51t127.5 75.5t101.5 85.5t77.5 89t55 78.5t35 61h-317zM127 930
l-35 -158h944l35 158h-944zM72 662l-35 -158h944l35 158h-944z" />
    <glyph glyph-name="uni2117" unicode="&#x2117;" horiz-adv-x="952" 
d="M659 1122q23 0 40.5 12t21.5 33t-9 32t-36 11h-105l-18 -88h106zM803 1159q-11 -55 -52.5 -83.5t-95.5 -28.5h-116l-43 -199h-86l94 438h192q50 0 84 -35t23 -92zM526 762q81 0 149.5 28t114 74t74.5 98.5t41 108.5q7 35 7 70t-7.5 70t-26.5 64t-47.5 52t-72.5 36t-99 13
q-81 0 -149 -28t-112.5 -74t-73 -98.5t-39.5 -108.5q-7 -42 -8 -84.5t15.5 -82t43.5 -70.5t76.5 -49.5t113.5 -18.5zM674 1458q71 0 127 -16t92.5 -45t61.5 -66t34.5 -81.5t9.5 -90t-10 -92.5q-15 -71 -51 -136.5t-92.5 -123t-143 -92.5t-190.5 -35q-70 0 -125.5 16
t-91.5 45t-60.5 66t-34 81.5t-9.5 90t10 92.5q15 71 51 136.5t92.5 123t142 92.5t187.5 35z" />
    <glyph glyph-name="trademark" unicode="&#x2122;" horiz-adv-x="1312" 
d="M680 1434l-21 -93h-163l-103 -479h-102l102 479h-166l21 93h432zM1384 1434l-120 -572h-105l88 416l-264 -416h-158l-73 416l-90 -416h-105l123 572h137l86 -480h27l307 480h147z" />
    <glyph glyph-name="minus" unicode="&#x2212;" horiz-adv-x="1191" 
d="M213 801h889l-49 -226h-889z" />
    <glyph glyph-name="approxequal" unicode="&#x2248;" horiz-adv-x="1236" 
d="M983 1092q-7 -31 -11.5 -48.5t-12.5 -40t-18 -33.5t-25 -19.5t-35 -8.5q-31 0 -80.5 22.5t-95 50t-103 50t-102.5 22.5q-46 0 -85 -14t-67 -34t-52 -55.5t-39.5 -66t-30 -78t-22 -79t-18.5 -80.5h228q7 33 11 49t12.5 39t17.5 33.5t24 19t35 8.5q32 0 81.5 -22.5t95 -50
t102.5 -50t102 -22.5q46 0 85 14t67 34.5t52 56t39 66t29.5 78t22 78.5t18.5 81h-225zM883 623q-7 -32 -11 -49.5t-12.5 -40t-18 -33.5t-24.5 -19t-35 -8q-32 0 -82 22.5t-95.5 49t-103 49t-102.5 22.5q-46 0 -84.5 -14t-66 -34t-51.5 -55.5t-39 -66t-29.5 -78t-22 -78.5
t-18.5 -81h225q8 40 14 61t17.5 44.5t28 33.5t41.5 10q32 0 82 -22.5t95.5 -49t102.5 -49t101 -22.5q46 0 85 14t67 34.5t52 56t39 66t29.5 78t22 78.5t18.5 81h-225z" />
    <glyph glyph-name="notequal" unicode="&#x2260;" horiz-adv-x="1155" 
d="M182 586h826l-50 -224h-825zM270 999h826l-49 -223h-826zM913 1145h209l-811 -930h-209z" />
    <glyph glyph-name="lessequal" unicode="&#x2264;" horiz-adv-x="1132" 
d="M918 223h-826l-49 -223h825zM983 526l-51 -229l-762 297l72 332l888 295l-53 -244q-485 -164 -524 -176q-28 -9 -63.5 -18t-57.5 -14l-22 -5v-23q71 -19 122 -39z" />
    <glyph glyph-name="greaterequal" unicode="&#x2265;" horiz-adv-x="1132" 
d="M90 223h823l-47 -223h-823zM158 551q489 166 524 176q27 8 62.5 15.5t57.5 11.5l21 4v22q-70 17 -123 35l-448 176l51 230l762 -295l-70 -332l-889 -297z" />
    <glyph glyph-name="O.ss01" horiz-adv-x="1630" 
d="M723 -25q-124 0 -232.5 39t-186 108.5t-130 165.5t-64 209.5t12.5 241.5q41 195 171.5 360.5t316.5 262t382 96.5q103 0 196 -27.5t165.5 -77t129 -119t87 -154t39.5 -181t-15 -201.5q-42 -197 -173.5 -363.5t-317.5 -263t-381 -96.5zM711 223q98 0 200.5 41t187.5 109.5
t148.5 165t85.5 200.5q43 203 -54 337t-282 134q-131 0 -262 -68.5t-225.5 -187.5t-122.5 -256q-28 -133 3 -241.5t115 -171t206 -62.5z" />
    <glyph glyph-name="Oacute.ss01" horiz-adv-x="1630" 
d="M1389 1864l-234 -322h-237l212 322h259zM723 -25q-124 0 -232.5 39t-186 108.5t-130 165.5t-64 209.5t12.5 241.5q41 195 171.5 360.5t316.5 262t382 96.5q103 0 196 -27.5t165.5 -77t129 -119t87 -154t39.5 -181t-15 -201.5q-42 -197 -173.5 -363.5t-317.5 -263
t-381 -96.5zM711 223q98 0 200.5 41t187.5 109.5t148.5 165t85.5 200.5q43 203 -54 337t-282 134q-131 0 -262 -68.5t-225.5 -187.5t-122.5 -256q-28 -133 3 -241.5t115 -171t206 -62.5z" />
    <glyph glyph-name="Ocircumflex.ss01" horiz-adv-x="1630" 
d="M1247 1864l131 -273h-223l-72 146h-12l-133 -146h-246l244 273h311zM723 -25q-124 0 -232.5 39t-186 108.5t-130 165.5t-64 209.5t12.5 241.5q41 195 171.5 360.5t316.5 262t382 96.5q103 0 196 -27.5t165.5 -77t129 -119t87 -154t39.5 -181t-15 -201.5
q-42 -197 -173.5 -363.5t-317.5 -263t-381 -96.5zM711 223q98 0 200.5 41t187.5 109.5t148.5 165t85.5 200.5q43 203 -54 337t-282 134q-131 0 -262 -68.5t-225.5 -187.5t-122.5 -256q-28 -133 3 -241.5t115 -171t206 -62.5z" />
    <glyph glyph-name="Odieresis.ss01" horiz-adv-x="1630" 
d="M854 1597q-64 0 -102 46t-25 108q9 47 50 80t89 33q61 0 98.5 -46t24.5 -110q-9 -45 -49.5 -78t-85.5 -33zM1266 1597q-65 0 -102.5 45.5t-24.5 108.5q9 47 49.5 80t89.5 33q61 0 98.5 -46.5t22.5 -109.5q-9 -45 -48.5 -78t-84.5 -33zM723 -25q-124 0 -232.5 39
t-186 108.5t-130 165.5t-64 209.5t12.5 241.5q41 195 171.5 360.5t316.5 262t382 96.5q103 0 196 -27.5t165.5 -77t129 -119t87 -154t39.5 -181t-15 -201.5q-42 -197 -173.5 -363.5t-317.5 -263t-381 -96.5zM711 223q98 0 200.5 41t187.5 109.5t148.5 165t85.5 200.5
q43 203 -54 337t-282 134q-131 0 -262 -68.5t-225.5 -187.5t-122.5 -256q-28 -133 3 -241.5t115 -171t206 -62.5z" />
    <glyph glyph-name="Ohungarumlaut.ss01" horiz-adv-x="1630" 
d="M1536 1864l-233 -322h-238l213 322h258zM1202 1864l-233 -322h-238l213 322h258zM723 -25q-124 0 -232.5 39t-186 108.5t-130 165.5t-64 209.5t12.5 241.5q41 195 171.5 360.5t316.5 262t382 96.5q103 0 196 -27.5t165.5 -77t129 -119t87 -154t39.5 -181t-15 -201.5
q-42 -197 -173.5 -363.5t-317.5 -263t-381 -96.5zM711 223q98 0 200.5 41t187.5 109.5t148.5 165t85.5 200.5q43 203 -54 337t-282 134q-131 0 -262 -68.5t-225.5 -187.5t-122.5 -256q-28 -133 3 -241.5t115 -171t206 -62.5z" />
    <glyph glyph-name="Oslash.ss01" horiz-adv-x="1640" 
d="M1769 1454l-1509 -1474h-321l1513 1474h317zM750 -25q-124 0 -232.5 39t-186 108.5t-130 165.5t-64 209.5t12.5 241.5q41 195 171.5 360.5t316.5 262t382 96.5q103 0 196 -27.5t165.5 -77t129 -119t87 -154t39.5 -181t-15 -201.5q-42 -197 -173.5 -363.5t-317.5 -263
t-381 -96.5zM737 223q131 0 264 68.5t231.5 188.5t127.5 259q43 203 -54 337t-282 134q-131 0 -262 -68.5t-225.5 -187.5t-122.5 -256q-43 -203 48 -339t275 -136z" />
    <glyph glyph-name="Oslashacute.ss01" horiz-adv-x="1640" 
d="M1411 1864l-233 -322h-238l213 322h258zM1769 1454l-1509 -1474h-321l1513 1474h317zM750 -25q-124 0 -232.5 39t-186 108.5t-130 165.5t-64 209.5t12.5 241.5q41 195 171.5 360.5t316.5 262t382 96.5q103 0 196 -27.5t165.5 -77t129 -119t87 -154t39.5 -181t-15 -201.5
q-42 -197 -173.5 -363.5t-317.5 -263t-381 -96.5zM737 223q131 0 264 68.5t231.5 188.5t127.5 259q43 203 -54 337t-282 134q-131 0 -262 -68.5t-225.5 -187.5t-122.5 -256q-43 -203 48 -339t275 -136z" />
    <glyph glyph-name="A_A.dlig" horiz-adv-x="2832" 
d="M1063 1434l209 -1434h-236l-41 299h-661l-166 -299h-256l815 1434h336zM461 522h502l-91 664h-36zM2494 1434l209 -1434h-235l-41 299h-662l-166 -299h-256l816 1434h335zM1892 522h502l-90 664h-37zM895 522h1053v-223h-1053v223z" />
    <glyph glyph-name="A_E.dlig" horiz-adv-x="2035" 
d="M1485 1434l-305 -1434h-271l64 299h-547l-233 -299h-281l1132 1434h441zM602 522h418l141 664h-37zM2130 1434l-51 -248h-645l-70 -334h575l-51 -242h-577l-78 -362h645l-51 -248h-918l305 1434h916z" />
    <glyph glyph-name="A_V.dlig" horiz-adv-x="2060" 
d="M1942 1444l294 -10l-776 -1434h-405l-221 1434h266l168 -1074q4 -25 4 -53t-2 -43l-2 -16h49q10 67 33 112zM1063 1434l209 -1434h-217l-45 299h-676l-166 -299h-256l815 1434h336zM461 522h512l-101 664h-36z" />
    <glyph glyph-name="F_F.dlig" horiz-adv-x="2058" 
d="M1180 1186h-619l-69 -334h501l-51 -242h-502l-131 -610h-270l303 1434h889zM2142 1186h-616l-72 -334h502l-51 -242h-502l-129 -610h-273l304 1434h888zM1169 1434h207l-51 -248h-207z" />
    <glyph glyph-name="F_I.dlig" horiz-adv-x="1433" 
d="M1178 1186h-617l-69 -334h499l-51 -242h-502l-129 -610h-270l303 1434h887zM1212 1434h271l-303 -1434h-271z" />
    <glyph glyph-name="F_L.dlig" horiz-adv-x="2050" 
d="M1180 1186h-619l-69 -334h501l-51 -242h-502l-129 -610h-272l303 1434h889zM1554 1434l-251 -1186h649l-51 -248h-922l303 1434h272zM1149 1434h248l-51 -248h-248z" />
    <glyph glyph-name="H_E.dlig" horiz-adv-x="2056" 
d="M1505 1434l-303 -1434h-272l129 608h-621l-129 -608h-270l303 1434h270l-120 -576l618 -2l123 578h272zM2148 1434l-51 -248h-643l-72 -334h576l-51 -242h-576l-78 -362h643l-51 -248h-915l303 1434h915z" />
    <glyph glyph-name="N_T.dlig" horiz-adv-x="2603" 
d="M1403 1434h272l-303 -1434h-426l-360 1186h-51q0 -132 -31 -275l-193 -911h-272l303 1434h424l362 -1186h52q-1 132 32 284zM2761 1434l-51 -248h-414l-252 -1186h-272l251 1186h-413l51 248h1100z" />
    <glyph glyph-name="T_E.dlig" horiz-adv-x="1239" 
d="M1331 1434l-51 -248h-412l-252 -1186h-274l252 1186h-412l51 248h1098zM1331 1434l-39 -195h-413l-86 -401h346l-54 -250h-346l-73 -340h413l-51 -248h-684l303 1434h684z" />
    <glyph glyph-name="T_T.dlig" horiz-adv-x="2271" 
d="M1331 1434l-51 -248h-414l-252 -1186h-270l252 1186h-414l51 248h1098zM2429 1434l-51 -248h-414l-252 -1186h-270l252 1186h-414l51 248h1098z" />
    <glyph glyph-name="U_B.dlig" horiz-adv-x="2252" 
d="M1251 1434h275l-185 -848q-19 -85 -55 -168t-96.5 -164.5t-137.5 -142.5t-184 -98.5t-229 -37.5q-106 0 -191.5 27.5t-141 76t-93 111t-53 135.5t-15.5 147.5t15 148.5l172 813h274l-180 -846q-11 -53 -12 -102.5t12 -98t39.5 -84.5t75 -58t114.5 -22q68 0 130.5 23.5
t109.5 63t85.5 91t62.5 106.5t36 111zM1593 248q260 0 301 188q20 97 -38.5 143t-182.5 46h-321l-82 -377h323zM1720 872q93 0 154 40t78 116q15 76 -28 117t-136 41h-318l-65 -314h315zM2154 365q-21 -99 -82 -172t-150 -114t-188 -60t-210 -19h-576l303 1434h570
q93 0 172.5 -23t138.5 -66t84 -113t6 -157q-57 -271 -389 -305l-8 -37q46 -3 89 -13.5t86 -30t75.5 -48.5t56 -69t28.5 -91t-6 -116z" />
    <glyph glyph-name="U_D.dlig" horiz-adv-x="2367" 
d="M1251 1434h273l-176 -838q-19 -88 -56 -173t-98.5 -167t-139 -143.5t-185 -99.5t-228.5 -38q-106 0 -192 28t-142.5 76t-94.5 111t-54 135.5t-16 145.5t16 145l174 818h274l-178 -836q-12 -55 -13.5 -107t11.5 -101t39 -86t73.5 -59t110.5 -22q87 0 163 36.5t128 95.5
t87 126.5t50 136.5zM1497 256q218 0 369 126.5t196 336.5q44 210 -52 338.5t-312 128.5h-225l-201 -930h225zM2331 700q-47 -225 -172.5 -384t-305.5 -237.5t-401 -78.5h-506l305 1434h502q159 0 283.5 -50t202 -144.5t103.5 -230.5t-11 -309z" />
    <glyph glyph-name="U_L.dlig" horiz-adv-x="2017" 
d="M1251 1434h275l-178 -838q-18 -88 -55 -173t-98.5 -167t-139.5 -143.5t-185.5 -99.5t-228.5 -38q-106 0 -192 28t-142 76t-94 111t-54 135.5t-16 145.5t15 145l174 818h274l-178 -836q-12 -55 -13.5 -107t11.5 -101t39 -86t73.5 -59t110.5 -22q87 0 163 36.5t128.5 95.5
t87 126.5t49.5 136.5zM1526 1434l-252 -1186h647l-53 -248h-922l305 1434h275z" />
    <glyph glyph-name="U_P.dlig" horiz-adv-x="2217" 
d="M1251 1434h275l-176 -838q-19 -88 -56.5 -173t-99 -167t-139.5 -143.5t-185.5 -99.5t-228.5 -38q-106 0 -192 28t-142.5 76t-94.5 111t-54 135.5t-16 145.5t16 145l174 818h274l-178 -836q-12 -55 -13.5 -107t11.5 -101t39 -86t73.5 -59t110.5 -22q87 0 163 36.5
t128 95.5t87 126.5t50 136.5zM1778 852q82 0 145.5 43.5t81.5 118.5q17 71 -24.5 121.5t-120.5 50.5h-385l-72 -334h375zM1901 1434q127 0 221.5 -61.5t133 -161.5t15.5 -214q-37 -166 -169 -280.5t-320 -114.5h-432l-127 -602h-275l303 1434h650z" />
    <glyph glyph-name="U_R.dlig" horiz-adv-x="2256" 
d="M1251 1434h273l-178 -838q-19 -88 -56 -172.5t-98 -167t-138.5 -144t-184.5 -99.5t-228 -38q-106 0 -192 28t-142.5 76t-94.5 111t-54 135.5t-16 145.5t16 145l174 818h274l-178 -836q-12 -55 -13.5 -107t11.5 -101t39 -86t73.5 -59t110.5 -22q87 0 163 36.5t128 95.5
t87 126.5t50 136.5zM1774 852q82 0 145.5 43t81.5 117q17 72 -25 123t-121 51h-385l-71 -334h375zM1919 717q98 -5 158.5 -80t36.5 -180l-95 -457h-247q67 323 100 481q11 55 -9 88t-75 33h-445l-131 -602h-272l311 1434h645q85 0 154.5 -22t114.5 -60.5t74.5 -90t34 -111
t-6.5 -122.5q-13 -63 -46.5 -113t-71.5 -78.5t-84 -47.5t-77.5 -26t-58.5 -9z" />
    <glyph glyph-name="V_A" horiz-adv-x="2025" 
d="M1315 1434h282l-804 -1434h-408l-168 1434h270l125 -1074q3 -27 3.5 -57.5t-0.5 -47.5l-1 -17h41q27 87 64 153zM1690 1434l206 -1434h-235l-39 299h-664l-165 -299h-263l785 1434h375zM1087 522h502l-92 664h-37z" />
    <glyph glyph-name="a.ss01" horiz-adv-x="1228" 
d="M674 776q-72 0 -134 -26t-103.5 -70t-69 -95t-39.5 -106q-12 -45 -7 -91t22 -82.5t60 -59.5t107 -23q93 0 169 46t118.5 111t60.5 140q12 45 6 91t-23.5 82.5t-61 59.5t-105.5 23zM449 -25q-79 0 -144.5 23t-109.5 62.5t-77 93t-46 114t-16 125.5t12 127q14 73 44.5 144
t79.5 136.5t110 115t142.5 79t171.5 29.5q247 0 318 -205h37q-2 10 -5 27.5t-7 63t-1 81.5v8h275l-213 -999h-275l7 20q8 35 26 70.5t32 53.5l13 18h-37q-25 -34 -40 -52.5t-46.5 -48.5t-63 -45.5t-80.5 -28t-107 -12.5z" />
    <glyph glyph-name="aacute.ss01" horiz-adv-x="1228" 
d="M1143 1499l-234 -321h-237l213 321h258zM674 776q-72 0 -134 -26t-103.5 -70t-69 -95t-39.5 -106q-12 -45 -7 -91t22 -82.5t60 -59.5t107 -23q93 0 169 46t118.5 111t60.5 140q12 45 6 91t-23.5 82.5t-61 59.5t-105.5 23zM449 -25q-79 0 -144.5 23t-109.5 62.5t-77 93
t-46 114t-16 125.5t12 127q14 73 44.5 144t79.5 136.5t110 115t142.5 79t171.5 29.5q247 0 318 -205h37q-2 10 -5 27.5t-7 63t-1 81.5v8h275l-213 -999h-275l7 20q8 35 26 70.5t32 53.5l13 18h-37q-25 -34 -40 -52.5t-46.5 -48.5t-63 -45.5t-80.5 -28t-107 -12.5z" />
    <glyph glyph-name="acircumflex.ss01" horiz-adv-x="1228" 
d="M1053 1499l131 -272h-223l-72 145h-12l-134 -145h-245l243 272h312zM674 776q-72 0 -134 -26t-103.5 -70t-69 -95t-39.5 -106q-12 -45 -7 -91t22 -82.5t60 -59.5t107 -23q93 0 169 46t118.5 111t60.5 140q12 45 6 91t-23.5 82.5t-61 59.5t-105.5 23zM449 -25
q-79 0 -144.5 23t-109.5 62.5t-77 93t-46 114t-16 125.5t12 127q14 73 44.5 144t79.5 136.5t110 115t142.5 79t171.5 29.5q247 0 318 -205h37q-2 10 -5 27.5t-7 63t-1 81.5v8h275l-213 -999h-275l7 20q8 35 26 70.5t32 53.5l13 18h-37q-25 -34 -40 -52.5t-46.5 -48.5
t-63 -45.5t-80.5 -28t-107 -12.5z" />
    <glyph glyph-name="adieresis.ss01" horiz-adv-x="1228" 
d="M651 1233q-64 0 -102 45.5t-25 107.5q9 47 50.5 80t89.5 33q61 0 98 -46t24 -110q-9 -45 -49.5 -77.5t-85.5 -32.5zM1063 1233q-65 0 -102.5 45t-24.5 108q9 47 49.5 80t89.5 33q61 0 98.5 -46.5t22.5 -109.5q-9 -45 -48.5 -77.5t-84.5 -32.5zM674 776q-72 0 -134 -26
t-103.5 -70t-69 -95t-39.5 -106q-12 -45 -7 -91t22 -82.5t60 -59.5t107 -23q93 0 169 46t118.5 111t60.5 140q12 45 6 91t-23.5 82.5t-61 59.5t-105.5 23zM449 -25q-79 0 -144.5 23t-109.5 62.5t-77 93t-46 114t-16 125.5t12 127q14 73 44.5 144t79.5 136.5t110 115
t142.5 79t171.5 29.5q247 0 318 -205h37q-2 10 -5 27.5t-7 63t-1 81.5v8h275l-213 -999h-275l7 20q8 35 26 70.5t32 53.5l13 18h-37q-25 -34 -40 -52.5t-46.5 -48.5t-63 -45.5t-80.5 -28t-107 -12.5z" />
    <glyph glyph-name="aring.ss01" horiz-adv-x="1228" 
d="M842 1386q54 0 89.5 33.5t43.5 77.5q10 44 -7.5 75.5t-70.5 31.5q-54 0 -88.5 -32.5t-44.5 -76.5q-9 -46 8.5 -77.5t69.5 -31.5zM909 1769q55 0 100.5 -18t74 -47t47.5 -67t21.5 -78.5t-3.5 -79.5q-11 -52 -33.5 -95.5t-59.5 -81.5t-96 -59.5t-133 -21.5
q-88 0 -148.5 46.5t-81.5 112.5t-7 133q23 109 101 182.5t218 73.5zM674 776q-72 0 -134 -26t-103.5 -70t-69 -95t-39.5 -106q-12 -45 -7 -91t22 -82.5t60 -59.5t107 -23q93 0 169 46t118.5 111t60.5 140q12 45 6 91t-23.5 82.5t-61 59.5t-105.5 23zM449 -25
q-79 0 -144.5 23t-109.5 62.5t-77 93t-46 114t-16 125.5t12 127q14 73 44.5 144t79.5 136.5t110 115t142.5 79t171.5 29.5q247 0 318 -205h37q-2 10 -5 27.5t-7 63t-1 81.5v8h275l-213 -999h-275l7 20q8 35 26 70.5t32 53.5l13 18h-37q-25 -34 -40 -52.5t-46.5 -48.5
t-63 -45.5t-80.5 -28t-107 -12.5z" />
    <glyph glyph-name="f.ss01" horiz-adv-x="813" 
d="M76 752h180l-160 -752h275l159 752h310l51 247h-764zM621 999q-48 0 -77.5 24.5t-19.5 76.5q7 42 42 64t79 22h287l51 248h-391q-74 0 -140 -19.5t-124.5 -73.5t-75.5 -137q-22 -101 50 -171l3 -3l-8 -33z" />
    <glyph glyph-name="g.ss01" horiz-adv-x="1226" 
d="M479 111q-139 0 -241 60.5t-145.5 168t-16.5 240.5q43 205 186.5 324.5t345.5 119.5q103 0 182.5 -51t113 -138t5.5 -186q3 -20 25 -27.5t46.5 -7t41 -11t10.5 -38.5q-43 -207 -191.5 -330.5t-361.5 -123.5zM500 319q111 0 198.5 70t110.5 178q23 110 -34.5 180
t-168.5 70q-114 0 -201 -70.5t-112 -181.5q-23 -109 35.5 -177.5t171.5 -68.5zM946 649q-1 187 17 269q8 34 37 57.5t65 23.5h225l-53 -247h-119q-20 0 -35 -13t-20 -32l-31 -142h-180l57 84h37zM1042 600q-73 -342 -122 -569q-15 -74 -42.5 -139.5t-73 -126t-104.5 -103.5
t-142.5 -68.5t-182.5 -25.5q-74 0 -136.5 18t-107 49.5t-78 75t-49 94t-20.5 106t8 112.5h221q-23 -104 21 -175t155 -71q122 0 202.5 74t102.5 180l123 569h225z" />
    <glyph glyph-name="k.ss01" horiz-adv-x="1230" 
d="M575 317l222 -317h313l-322 451l11 36q134 9 234.5 81.5t125.5 193.5q24 106 -56 184t-231 78q-81 0 -152.5 -18.5t-118 -44t-84 -58.5t-55.5 -57t-28 -45h-37q72 120 97 231l84 402h-273l-303 -1434h272l68 317h233zM383 543q28 129 121 210t221 81q55 0 92 -14
t51 -35.5t19.5 -47.5t-2.5 -51q-13 -67 -87.5 -105t-179.5 -38h-235z" />
    <glyph glyph-name="o.ss01" horiz-adv-x="1193" 
d="M514 -25q-149 0 -261.5 73t-160.5 198.5t-16 273.5q43 211 216 357.5t382 146.5q149 0 261.5 -73t160.5 -198.5t16 -273.5q-43 -211 -216 -357.5t-382 -146.5zM512 223q115 0 213.5 87t124.5 210q22 108 -28 182t-146 74q-115 0 -213.5 -87t-124.5 -210q-22 -108 28 -182
t146 -74z" />
    <glyph glyph-name="oacute.ss01" horiz-adv-x="1193" 
d="M1120 1499l-233 -321h-238l213 321h258zM514 -25q-149 0 -261.5 73t-160.5 198.5t-16 273.5q43 211 216 357.5t382 146.5q149 0 261.5 -73t160.5 -198.5t16 -273.5q-43 -211 -216 -357.5t-382 -146.5zM512 223q115 0 213.5 87t124.5 210q22 108 -28 182t-146 74
q-115 0 -213.5 -87t-124.5 -210q-22 -108 28 -182t146 -74z" />
    <glyph glyph-name="ocircumflex.ss01" horiz-adv-x="1193" 
d="M1024 1499l131 -272h-223l-72 145h-12l-133 -145h-246l244 272h311zM514 -25q-149 0 -261.5 73t-160.5 198.5t-16 273.5q43 211 216 357.5t382 146.5q149 0 261.5 -73t160.5 -198.5t16 -273.5q-43 -211 -216 -357.5t-382 -146.5zM512 223q115 0 213.5 87t124.5 210
q22 108 -28 182t-146 74q-115 0 -213.5 -87t-124.5 -210q-22 -108 28 -182t146 -74z" />
    <glyph glyph-name="odieresis.ss01" horiz-adv-x="1193" 
d="M623 1233q-64 0 -102 45.5t-25 107.5q9 47 50 80t89 33q61 0 98.5 -46t24.5 -110q-9 -45 -49.5 -77.5t-85.5 -32.5zM1034 1233q-65 0 -102.5 45t-24.5 108q9 47 49.5 80t90.5 33q61 0 98 -46.5t22 -109.5q-9 -45 -48.5 -77.5t-84.5 -32.5zM514 -25q-149 0 -261.5 73
t-160.5 198.5t-16 273.5q43 211 216 357.5t382 146.5q149 0 261.5 -73t160.5 -198.5t16 -273.5q-43 -211 -216 -357.5t-382 -146.5zM512 223q115 0 213.5 87t124.5 210q22 108 -28 182t-146 74q-115 0 -213.5 -87t-124.5 -210q-22 -108 28 -182t146 -74z" />
    <glyph glyph-name="ohungarumlaut.ss01" horiz-adv-x="1193" 
d="M1278 1499l-234 -321h-237l213 321h258zM944 1499l-233 -321h-238l213 321h258zM514 -25q-149 0 -261.5 73t-160.5 198.5t-16 273.5q43 211 216 357.5t382 146.5q149 0 261.5 -73t160.5 -198.5t16 -273.5q-43 -211 -216 -357.5t-382 -146.5zM512 223q115 0 213.5 87
t124.5 210q22 108 -28 182t-146 74q-115 0 -213.5 -87t-124.5 -210q-22 -108 28 -182t146 -74z" />
    <glyph glyph-name="oslash.ss01" horiz-adv-x="1200" 
d="M1253 1020l-1083 -1040h-227l1083 1040h227zM528 -25q-149 0 -261.5 73t-160.5 198.5t-16 273.5q43 211 216 357.5t382 146.5q149 0 261.5 -73t160.5 -198.5t16 -273.5q-43 -211 -216 -357.5t-382 -146.5zM526 223q115 0 213.5 87t124.5 210q22 108 -28 182t-146 74
q-115 0 -213.5 -87t-124.5 -210q-22 -108 28 -182t146 -74z" />
    <glyph glyph-name="oslashacute.ss01" horiz-adv-x="1200" 
d="M1141 1499l-234 -321h-237l213 321h258zM1270 1020l-1084 -1040h-227l1083 1040h228zM545 -25q-149 0 -262 73t-161 198.5t-16 273.5q43 211 216.5 357.5t382.5 146.5q149 0 261.5 -73t160.5 -198.5t16 -273.5q-43 -211 -216 -357.5t-382 -146.5zM543 223q115 0 213.5 87
t124.5 210q22 108 -28 182t-146 74q-115 0 -213.5 -87t-124.5 -210q-22 -108 28 -182t146 -74z" />
    <glyph glyph-name="t.ss01" horiz-adv-x="815" 
d="M127 999l-51 -247h180l-78 -363q-40 -187 38 -291.5t276 -97.5h188l49 223h-225q-45 0 -63.5 26t-8.5 64l98 439h312l53 247h-768zM408 1229q-11 -54 -27.5 -91.5t-47 -71t-82 -50.5t-124.5 -17q-5 0 58 -6.5t129.5 -13t72.5 -6.5l10 71q129 0 203.5 71.5t93.5 182.5
l29 136h-272z" />
    <glyph glyph-name="tcaron.ss01" horiz-adv-x="937" 
d="M1163 1864l-147 -572h-223l96 572h274zM127 999l-51 -247h180l-78 -363q-40 -187 38 -291.5t276 -97.5h188l49 223h-225q-45 0 -63.5 26t-8.5 64l98 439h312l53 247h-768zM408 1229q-11 -54 -27.5 -91.5t-47 -71t-82 -50.5t-124.5 -17q-5 0 58 -6.5t129.5 -13t72.5 -6.5
l10 71q129 0 203.5 71.5t93.5 182.5l29 136h-272z" />
    <glyph glyph-name="a_e.dlig" horiz-adv-x="1867" 
d="M801 510q-23 -13 -91.5 -24.5t-234.5 -34.5q-60 -10 -114.5 -47t-65.5 -91q-10 -52 20 -85.5t84 -43.5q50 -7 97 0t106 33q63 30 107.5 76t60.5 92q1 4 18 68zM786 244q-6 -13 -17 -35t-55 -72t-98 -80q-178 -100 -383 -77q-107 11 -170 90.5t-38 199.5q50 226 299 281
q82 18 198.5 30t143.5 17q91 16 116 27q47 22 43 69q-3 50 -53 78.5t-133 28.5q-108 0 -177.5 -47t-84.5 -111h-266q16 72 57 137t107.5 121t169 89.5t227.5 33.5q85 0 154 -15.5t115 -43t79.5 -64.5t47 -80t18 -90t-8.5 -94q-10 -50 -40 -108.5t-65.5 -107t-69.5 -90
t-56 -64.5l-23 -23h-37zM1362 801q-55 0 -103.5 -19t-83.5 -50.5t-59.5 -65t-40.5 -70.5h484q1 35 -8.5 68.5t-30.5 65.5t-61.5 51.5t-96.5 19.5zM1034 436q-3 -28 -0.5 -56.5t15 -62t33.5 -59t60 -42.5t91 -17q157 0 240 137h274q-169 -361 -539 -361q-72 0 -133.5 18.5
t-106.5 50t-80 74.5t-55.5 92.5t-31.5 103t-10 106t12 102.5q16 76 47.5 146.5t82 135.5t114.5 113.5t150.5 77.5t184.5 29q84 0 154 -22t120 -61.5t85 -94t51 -119.5t14.5 -138.5t-20.5 -150.5z" />
    <glyph glyph-name="f_f.dlig" horiz-adv-x="1513" 
d="M322 1065q14 58 32.5 105.5t54 98.5t82.5 85.5t121 57t166 22.5h207l-53 -248h-225q-39 0 -68 -24t-37 -60l-22 -103h313l-53 -247h-312l-159 -752h-273l160 752h-180l51 247h180zM1022 1065q14 59 32.5 106t53.5 98.5t82.5 85.5t121.5 56.5t167 22.5h207l-54 -248h-227
q-38 0 -67 -24t-38 -60l-20 -103h313l-53 -247h-311l-160 -752h-274l159 752h-178l51 247h179z" />
    <glyph glyph-name="f_f_i.dlig" horiz-adv-x="1947" 
d="M322 1063q16 70 48 133t83 118t129.5 87.5t173.5 32.5h229l-51 -248h-217q-48 0 -79.5 -30t-39.5 -75l-18 -82h311l-51 -247h-312l-159 -752h-273l160 752h-180l51 247h180zM1012 1063q16 70 48 133t83 118t129.5 87.5t173.5 32.5h229l-51 -248h-217q-47 0 -78 -29.5
t-41 -75.5l-18 -82h311l-51 -247h-311l-160 -752h-273l160 752h-180l51 247h180zM1931 905l-190 -905h-275l150 715q5 21 -1 29t-26 8h-104l51 247h322q34 0 56.5 -29.5t16.5 -64.5z" />
    <glyph glyph-name="f_f_j.dlig" horiz-adv-x="1955" 
d="M319 1063q16 70 48 133t83.5 118t130 87.5t173.5 32.5h231l-53 -248h-217q-93 0 -119 -105l-16 -82h311l-53 -247h-314l-159 -752h-271l160 752h-180l53 247h178zM1010 1063q16 71 48.5 133t83.5 117.5t129 88t173 32.5h231l-53 -248h-217q-48 0 -77.5 -29.5t-39.5 -75.5
l-18 -82h311l-53 -247h-314l-159 -752h-271l160 752h-180l53 247h180zM1688 -283q-26 -121 -118.5 -203.5t-248.5 -82.5h-277l78 247h209q74 0 90 76l199 934q6 29 -8 46.5t-37 17.5h-92l53 247h309q53 0 76.5 -35t11.5 -87z" />
    <glyph glyph-name="f_f_r.dlig" horiz-adv-x="2326" 
d="M322 1063q16 71 48.5 133t83.5 117.5t129.5 88t174.5 32.5h227l-51 -248h-217q-47 0 -77.5 -29.5t-41.5 -75.5l-16 -82h309l-51 -247h-310l-159 -752h-273l160 752h-182l51 247h180zM1012 1063q16 70 48.5 132.5t84 118t130 88t173.5 32.5h227l-51 -248h-217
q-95 0 -117 -105l-18 -82h309l-51 -247h-309l-160 -752h-273l160 752h-182l51 247h180zM2312 752q-79 0 -148.5 -26t-121 -71.5t-93 -99.5t-70.5 -117.5t-47.5 -118t-29.5 -108.5l-45 -211h-274l151 702q2 19 -10.5 34.5t-30.5 15.5h-106l53 247h303q46 0 65.5 -16.5
t10.5 -52.5q-9 -45 -52.5 -157.5t-82.5 -202.5l-39 -89h53q33 94 86.5 181.5t126.5 165t172 124.5t207 47z" />
    <glyph glyph-name="f_f_t.dlig" horiz-adv-x="2228" 
d="M1653 752h-434l-160 -752h-271l160 752h-422l-159 -752h-271l160 752h-180l51 247h180l15 64q16 71 48.5 133t83.5 117.5t129.5 88t174.5 32.5h227l-51 -248h-217q-47 0 -78 -29.5t-41 -75.5l-16 -82h417l15 64q16 70 48.5 132.5t84 118t130 88t173.5 32.5h227l-51 -248
h-217q-50 0 -79.5 -29.5t-37.5 -75.5l-18 -82h430l92 435h270l-92 -435h316l-52 -247h-313l-92 -426q-7 -37 8.5 -57.5t50.5 -20.5h238l-51 -248h-246q-110 0 -178.5 53t-88 129t-1.5 160z" />
    <glyph glyph-name="f_i.dlig" horiz-adv-x="1253" 
d="M322 1063q16 71 48.5 133t83.5 117.5t129.5 88t174.5 32.5h227l-51 -248h-217q-48 0 -78 -28.5t-41 -76.5l-16 -82h309l-51 -247h-314l-159 -752h-271l160 752h-180l51 247h180zM1237 905l-190 -905h-273l152 715q4 20 -2 28.5t-25 8.5h-104l51 247h317q35 0 58 -29.5
t16 -64.5z" />
    <glyph glyph-name="f_j.dlig" horiz-adv-x="1255" 
d="M322 1063q16 70 48 133t83 118t129.5 87.5t173.5 32.5h229l-53 -248h-215q-94 0 -119 -105l-16 -82h309l-53 -247h-314l-159 -752h-271l160 752h-180l53 247h180zM987 -283q-26 -121 -118 -203.5t-248 -82.5h-277l78 247h209q36 0 60 20t32 56l197 934q6 30 -8 47t-38 17
h-92l54 247h309q53 0 77 -34.5t13 -87.5z" />
    <glyph glyph-name="f_r.dlig" horiz-adv-x="1622" 
d="M322 1063q16 71 48.5 133t83.5 117.5t129.5 88t174.5 32.5h227l-51 -248h-217q-97 0 -119 -105l-16 -82h309l-51 -247h-314l-159 -752h-271l160 752h-180l51 247h180zM1608 752q-79 0 -148.5 -26t-121 -71.5t-93 -99.5t-70.5 -117.5t-47.5 -118t-29.5 -108.5l-45 -211
h-275l152 702q2 19 -10.5 34.5t-30.5 15.5h-107l54 247h303q45 0 64.5 -16.5t10.5 -52.5q-9 -45 -52.5 -157.5t-82.5 -202.5l-39 -89h54q33 94 86.5 181.5t126.5 165t172 124.5t207 47z" />
    <glyph glyph-name="f_t.dlig" horiz-adv-x="1546" 
d="M322 1063q16 71 48.5 133t83.5 117.5t129.5 88t174.5 32.5h227l-51 -248h-217q-50 0 -79.5 -29.5t-39.5 -75.5l-16 -82h440l92 435h270l-92 -435h316l-52 -247h-313l-92 -426q-7 -37 8.5 -57.5t50.5 -20.5h238l-51 -248h-246q-110 0 -178.5 53t-88 129t-1.5 160l88 410
h-445l-159 -752h-271l160 752h-180l51 247h180z" />
    <glyph glyph-name="g_i.dlig" horiz-adv-x="1703" 
d="M485 111q-211 0 -320.5 132t-66.5 337q44 206 184.5 325t342.5 119q77 0 142.5 -24.5t111.5 -72t62 -116.5t-7 -158q2 -21 25 -29t48 -8.5t42.5 -12t11.5 -38.5q-41 -205 -200.5 -329.5t-375.5 -124.5zM532 336q112 0 198 65t108 166q23 101 -35.5 166.5t-171.5 65.5
t-198.5 -65.5t-108.5 -168.5q-20 -98 39 -163.5t169 -65.5zM395 -395q135 0 230.5 32t105.5 84q10 50 -71 81.5t-214 31.5q-136 0 -229.5 -32.5t-103.5 -84.5q-10 -50 69 -81t213 -31zM182 -63h-71q-69 0 -100 35t-19 94q10 55 55.5 85.5t114.5 30.5h12l8 39l312 -69
l-11 -41h-221q-57 0 -65 -41q-3 -20 9.5 -28.5t39.5 -8.5h241q254 0 388.5 -101t105.5 -241q-19 -87 -107 -152.5t-222 -99t-294 -33.5q-243 0 -385.5 86t-117.5 205q12 54 48.5 95.5t85.5 63t95 32t90 12.5zM971 653q4 178 20 262q8 35 37 59.5t66 24.5h225l-51 -247h-119
q-20 0 -36 -13.5t-21 -33.5l-31 -140l-211 -35l84 123h37zM1679 872l-186 -872h-272l147 688q6 28 -7.5 46t-37.5 18h-84l53 247h281q59 0 88 -35.5t18 -91.5zM1632 1231q-65 0 -103.5 46t-25.5 107q10 48 51 80.5t88 32.5q62 0 99 -46t24 -108q-9 -46 -49 -79t-84 -33z" />
    <glyph glyph-name="g_r.dlig" horiz-adv-x="2070" 
d="M485 111q-211 0 -320.5 132t-66.5 337q44 206 184.5 325t342.5 119q77 0 142.5 -24.5t111.5 -72t62 -116.5t-7 -158q2 -21 25 -29t48 -8.5t42.5 -12t11.5 -38.5q-41 -205 -200.5 -329.5t-375.5 -124.5zM532 336q112 0 198 65t108 166q23 101 -35.5 166.5t-171.5 65.5
t-198.5 -65.5t-108.5 -168.5q-20 -98 39 -163.5t169 -65.5zM395 -395q135 0 230.5 32t105.5 84q10 50 -71 81.5t-214 31.5q-136 0 -229.5 -32.5t-103.5 -84.5q-10 -50 69 -81t213 -31zM182 -63h-71q-69 0 -100 35t-19 94q10 55 55.5 85.5t114.5 30.5h12l8 39l312 -69
l-11 -41h-221q-57 0 -65 -41q-3 -20 9.5 -28.5t39.5 -8.5h241q254 0 388.5 -101t105.5 -241q-19 -87 -107 -152.5t-222 -99t-294 -33.5q-243 0 -385.5 86t-117.5 205q12 54 48.5 95.5t85.5 63t95 32t90 12.5zM971 653q4 178 20 262q8 35 37 59.5t66 24.5h225l-51 -247h-119
q-20 0 -36 -13.5t-21 -33.5l-31 -140l-211 -35l84 123h37zM2058 752q-79 0 -148.5 -26t-121 -71.5t-93 -99.5t-70.5 -117.5t-47.5 -118t-29.5 -108.5l-47 -211h-274l151 702q3 19 -9.5 34.5t-29.5 15.5h-108l53 247h303q45 0 65 -16.5t13 -52.5q-10 -45 -54 -157.5
t-83 -202.5l-39 -89h53q27 74 65 144.5t93.5 139.5t119 120t145 82.5t169.5 31.5z" />
    <glyph glyph-name="r_i.dlig" horiz-adv-x="1357" 
d="M995 999q-88 0 -169.5 -31.5t-145 -82.5t-119 -120t-93.5 -139.5t-65 -144.5h-53q153 347 176 449q7 36 -12.5 52.5t-64.5 16.5h-304l-53 -247h109q17 0 29.5 -15.5t9.5 -34.5l-152 -702h274l48 211q11 54 29.5 108.5t47.5 118t70.5 117.5t93 99.5t121 71.5t148.5 26z
M1331 872q11 56 -18 91.5t-88 35.5h-230l-102 -247h82q24 0 38.5 -18t8.5 -46l-150 -688h275zM1286 1231q-64 0 -102.5 45.5t-26.5 107.5q10 48 51 80.5t88 32.5q62 0 99.5 -45.5t25.5 -108.5q-9 -46 -50 -79t-85 -33z" />
    <glyph glyph-name="r_j.dlig" horiz-adv-x="1357" 
d="M995 999q-88 0 -169.5 -31.5t-145 -82.5t-119 -120t-93.5 -139.5t-65 -144.5h-53q153 347 176 449q7 36 -12.5 52.5t-64.5 16.5h-304l-53 -247h109q17 0 29.5 -15.5t9.5 -34.5l-152 -702h274l48 211q11 54 29.5 108.5t47.5 118t70.5 117.5t93 99.5t121 71.5t148.5 26z
M1333 877q11 53 -12.5 87.5t-75.5 34.5h-250l-112 -247h92q23 0 36.5 -17.5t6.5 -46.5l-197 -934q-16 -76 -90 -76h-211l-76 -247h277q154 0 246 82t120 204zM1272 1231q-66 0 -104.5 45.5t-24.5 107.5q9 48 50 80.5t89 32.5q61 0 98.5 -46t24.5 -108q-10 -47 -50 -79.5
t-83 -32.5z" />
    <glyph glyph-name="t_i.dlig" horiz-adv-x="1280" 
d="M254 752h-180l53 247h180l92 435h271l-92 -435h573q58 0 86.5 -35t17.5 -90l-186 -874h-272l149 690q6 27 -7.5 44.5t-37.5 17.5h-377l-90 -426q-8 -37 7.5 -57.5t52.5 -20.5h239l-53 -248h-244q-110 0 -179 53t-89 129t-2 160zM1081 1384q9 48 50.5 80.5t89.5 32.5
q61 0 98 -45.5t24 -108.5q-9 -45 -50 -78.5t-85 -33.5q-65 0 -102.5 46t-24.5 107z" />
    <glyph glyph-name="t_r.dlig" horiz-adv-x="1673" 
d="M256 752h-180l51 247h180l92 435h271l-92 -435h307l-51 -247h-306l-92 -426q-7 -36 10.5 -57t53.5 -21h221l-29 -248h-243q-71 0 -126.5 20t-88 54t-53 78.5t-21 92.5t7.5 97zM1659 752q-79 0 -148.5 -26t-121 -71.5t-93 -99.5t-70.5 -117.5t-47.5 -118t-29.5 -108.5
l-45 -211h-275l150 702q3 19 -9 34.5t-30 15.5h-106l51 247h305q44 0 64.5 -16.5t11.5 -52.5q-9 -45 -53 -157.5t-83 -202.5l-40 -89h53q34 94 87.5 181.5t127 165t172.5 124.5t207 47z" />
    <glyph glyph-name="t_t" horiz-adv-x="1519" 
d="M944 752h-178l51 247h178l92 435h273l-92 -435h313l-51 -247h-311l-91 -412q-9 -42 9.5 -67t62.5 -25h221l-51 -248h-244q-110 0 -178.5 53t-88 129t-1.5 160zM256 752h-180l51 247h180l92 435h271l-92 -435h315l-51 -247h-314l-92 -426q-7 -36 8.5 -57t47.5 -21h229
l-29 -248h-243q-71 0 -126.5 20t-88 54t-53 78.5t-21 92.5t7.5 97z" />
    </font>
</defs>
</svg>
