<?xml version="1.0" standalone="no"?>
<!DOCTYPE svg PUBLIC "-//W3C//DTD SVG 1.1//EN" "http://www.w3.org/Graphics/SVG/1.1/DTD/svg11.dtd" >
<svg xmlns="http://www.w3.org/2000/svg" xmlns:xlink="http://www.w3.org/1999/xlink" version="1.1">
<metadata>
Created by FontForge 20201107 at Fri Feb 16 19:17:23 2024
 By 
copyright missing
</metadata>
<defs>
<font id="NeueRegrade-Bold" horiz-adv-x="1228" >
  <font-face 
    font-family="Neue Regrade"
    font-weight="700"
    font-stretch="normal"
    units-per-em="2048"
    panose-1="0 0 0 0 0 0 0 0 0 0"
    ascent="1638"
    descent="-410"
    x-height="999"
    cap-height="1434"
    bbox="-88 -594 2816 2130"
    underline-thickness="102"
    underline-position="-255"
    unicode-range="U+0020-2265"
  />
<missing-glyph horiz-adv-x="1167" 
d="M956 1741v-2335h-739v2335h739zM778 150h-389v-265h389v265zM700 72v-111h-233v111h233zM778 553h-233v-131h78v53h77v-108h-233v186h-78v-264h389v264zM778 838h-78v-154h-311v-80h389v234zM778 977h-389v-76h156v-88h-156v-76h234v164h155v76zM545 1204v-84h-78v84h78z
M623 1284h-234v-244h389v80h-155v164zM778 1585h-385v-78h152v-86h-156v-78h389v78h-155v86h155v78zM778 -170h-389v-76h164l-164 -110v-76h389v76h-239l163 110h76v76z" />
    <glyph glyph-name=".notdef" horiz-adv-x="1167" 
d="M956 1741v-2335h-739v2335h739zM778 150h-389v-265h389v265zM700 72v-111h-233v111h233zM778 553h-233v-131h78v53h77v-108h-233v186h-78v-264h389v264zM778 838h-78v-154h-311v-80h389v234zM778 977h-389v-76h156v-88h-156v-76h234v164h155v76zM545 1204v-84h-78v84h78z
M623 1284h-234v-244h389v80h-155v164zM778 1585h-385v-78h152v-86h-156v-78h389v78h-155v86h155v78zM778 -170h-389v-76h164l-164 -110v-76h389v76h-239l163 110h76v76z" />
    <glyph glyph-name=".null" horiz-adv-x="0" 
 />
    <glyph glyph-name="nonmarkingreturn" horiz-adv-x="682" 
 />
    <glyph glyph-name="space" unicode=" " horiz-adv-x="548" 
 />
    <glyph glyph-name="space" unicode="&#xa0;" horiz-adv-x="548" 
 />
    <glyph glyph-name="exclam" unicode="!" horiz-adv-x="626" 
d="M178 1434h275l-25 -1047h-225zM317 -25q-66 0 -113.5 45t-47.5 109t47.5 109t113.5 45q61 0 107.5 -45.5t46.5 -108.5t-46.5 -108.5t-107.5 -45.5z" />
    <glyph glyph-name="quotedbl" unicode="&#x22;" horiz-adv-x="931" 
d="M397 1434l-26 -572h-221l-27 572h274zM809 1434l-27 -572h-221l-26 572h274z" />
    <glyph glyph-name="numbersign" unicode="#" horiz-adv-x="1423" 
d="M963 1434h256l-277 -1434h-254zM483 1434h254l-276 -1434h-254zM84 600h1190v-223h-1190v223zM150 1053h1189v-224h-1189v224z" />
    <glyph glyph-name="dollar" unicode="$" 
d="M496 1636v-1837h225v1837h-225zM1151 426q0 64 -17.5 118t-46 93t-73 71t-89.5 53t-105 38.5t-110 27.5t-114 19q-134 21 -200 63.5t-66 118.5q0 71 68.5 126.5t201.5 55.5q136 0 204 -55.5t68 -126.5v-10h275v10q0 62 -19 121.5t-62 116t-105 99t-155 68t-206 25.5
t-206 -25.5t-154.5 -68t-104 -99t-61.5 -116t-19 -121.5q0 -64 16.5 -118.5t43 -93.5t67 -72t81 -54.5t93 -39.5t94.5 -28t93 -20l38.5 -7t43.5 -8t44 -9t45.5 -11t41.5 -13.5t39.5 -16.5t32.5 -20t26.5 -25t16 -30t6.5 -36q0 -80 -70 -141.5t-207 -61.5t-207.5 63
t-70.5 144h-275q0 -64 19.5 -127t62.5 -122.5t105.5 -105t156.5 -73t207 -27.5q141 0 251 41t174 107.5t96 144t32 158.5z" />
    <glyph glyph-name="percent" unicode="%" horiz-adv-x="1714" 
d="M459 0h-283l1079 1434h283zM416 977q69 0 104 41.5t35 95.5q0 53 -35 95t-104 42q-70 0 -106 -42t-36 -95q0 -54 35.5 -95.5t106.5 -41.5zM416 1458q74 0 134.5 -20.5t100 -54.5t67 -79t39 -92.5t11.5 -97.5t-11.5 -97.5t-39 -92.5t-67 -79t-100 -54.5t-134.5 -20.5
q-75 0 -136 20.5t-101 54.5t-67 79t-39 92.5t-12 97.5t12 97.5t39 92.5t67 79t101 54.5t136 20.5zM1298 184q71 0 107.5 41.5t36.5 93.5q0 54 -36.5 96t-107.5 42q-70 0 -105.5 -42t-35.5 -96q0 -53 35.5 -94t105.5 -41zM1298 664q92 0 163.5 -31t111.5 -82t60 -110t20 -122
q0 -62 -20 -120.5t-60 -110t-111.5 -82.5t-163.5 -31t-162.5 31t-110.5 82.5t-59.5 110t-19.5 120.5q0 63 19.5 122t59.5 110t110.5 82t162.5 31z" />
    <glyph glyph-name="ampersand" unicode="&#x26;" horiz-adv-x="1570" 
d="M797 348l67 92l-63 76q-108 121 -217 119q-87 -2 -153 -58.5t-66 -164.5q0 -106 65.5 -158.5t153.5 -52.5q36 0 66.5 11.5t59 38t44 44t43.5 53.5zM1501 639q-117 0 -180.5 -19.5t-110.5 -78.5l-61 -86l393 -455h-299l-237 274l-76 -104q-46 -58 -88 -96.5t-113 -68.5
t-156 -30q-99 0 -184.5 27t-153 80t-106.5 140.5t-39 199.5q0 84 32 155.5t82 117t109 71t115 25.5q21 0 39.5 -2t33.5 -6.5t27 -9t23 -11t17 -10t14.5 -10t9.5 -7.5l29 29q-104 57 -172 123q-55 55 -87 112.5t-32 135.5q0 137 105.5 230t285.5 93q187 0 293 -93t106 -232
h-274q0 45 -33 73.5t-88 28.5q-54 0 -87.5 -29t-33.5 -73q0 -52 90 -156l307 -350l74 94q69 80 174 111.5t252 31.5v-225z" />
    <glyph glyph-name="quotesingle" unicode="'" horiz-adv-x="536" 
d="M406 1434l-27 -572h-221l-27 572h275z" />
    <glyph glyph-name="parenleft" unicode="(" horiz-adv-x="634" 
d="M635 -426q-133 187 -201.5 432.5t-68.5 497.5q0 253 68 498.5t202 431.5h-252q-140 -195 -216.5 -441t-76.5 -489t76.5 -489t216.5 -441h252z" />
    <glyph glyph-name="parenright" unicode=")" horiz-adv-x="634" 
d="M0 -426q133 187 201.5 432.5t68.5 497.5q0 253 -68 498.5t-202 431.5h252q140 -195 216.5 -441t76.5 -489t-76.5 -489t-216.5 -441h-252z" />
    <glyph glyph-name="asterisk" unicode="*" horiz-adv-x="770" 
d="M457 1434v-217l215 79l53 -133l-229 -88l135 -225l-119 -76l-127 203l-123 -203l-123 76l137 225l-231 88l51 133l217 -79v217h144z" />
    <glyph glyph-name="plus" unicode="+" horiz-adv-x="1128" 
d="M676 1100v-301h301v-226h-301v-299h-225v299h-299v226h299v301h225z" />
    <glyph glyph-name="comma" unicode="," horiz-adv-x="598" 
d="M438 129q0 64 -46 109t-107 45q-66 0 -114 -45t-48 -109t48 -109t114 -45q61 0 107 45t46 109zM328 -18q5 -59 -36.5 -109t-117.5 -68v-88q156 14 241 140q69 102 58 224q-10 116 -88 170q-43 30 -100 32z" />
    <glyph glyph-name="hyphen" unicode="-" horiz-adv-x="1011" 
d="M127 668h758v-224h-758v224z" />
    <glyph glyph-name="period" unicode="." horiz-adv-x="561" 
d="M285 -25q-66 0 -114 45t-48 109t48 109t114 45q61 0 107 -45t46 -109t-46 -109t-107 -45z" />
    <glyph glyph-name="slash" unicode="/" horiz-adv-x="933" 
d="M934 1434l-692 -1805h-242l692 1805h242z" />
    <glyph glyph-name="zero" unicode="0" horiz-adv-x="1400" 
d="M700 223q73 0 132.5 29.5t98.5 78t66 113.5t38.5 133.5t11.5 139.5q0 90 -19.5 174t-59 157.5t-109 117.5t-159.5 44t-159.5 -44t-108.5 -117.5t-58.5 -157.5t-19.5 -174q0 -71 11.5 -139.5t38 -133.5t65.5 -113.5t98.5 -78t132.5 -29.5zM700 1458q130 0 237 -44.5
t177 -117.5t118 -170.5t68.5 -199.5t20.5 -209t-20.5 -209t-68.5 -199.5t-118 -171t-177 -118t-237 -44.5t-237 44.5t-176.5 118t-117.5 171t-68.5 199.5t-20.5 209t20.5 209t68.5 199.5t117.5 170.5t176.5 117.5t237 44.5z" />
    <glyph glyph-name="one" unicode="1" horiz-adv-x="800" 
d="M412 1434q0 -77 -19.5 -142t-60.5 -118.5t-110.5 -85t-162.5 -33.5v-258q70 1 131.5 28t105 72.5t73 98.5t43.5 110h34q-34 -109 -34 -246v-860h274v1434h-274z" />
    <glyph glyph-name="two" unicode="2" horiz-adv-x="1302" 
d="M774 248q-59 0 -119.5 -9t-91.5 -19l-31 -9v37q335 291 429 375q231 210 231 393q0 63 -19 124.5t-61.5 119.5t-104.5 101.5t-154.5 70t-203.5 26.5q-113 0 -206.5 -26.5t-156 -70t-105.5 -101.5t-62 -119t-19 -125v-47h275v47q0 77 68 135.5t202 58.5q135 0 204 -57.5
t69 -134.5q0 -35 -25 -79t-73 -94.5t-84 -83.5t-91 -81l-528 -463v-217h1093v248h-436z" />
    <glyph glyph-name="three" unicode="3" horiz-adv-x="1239" 
d="M1155 440q0 80 -24.5 147t-62 109.5t-87.5 74t-95 46.5t-89 21q-36 4 -75.5 -0.5t-61.5 -11.5l-21 -7v37l463 379v199h-948v-248h518l-346 -281v-211h297q113 0 185.5 -58t72.5 -163q0 -120 -69.5 -185t-197.5 -65q-121 0 -194.5 56t-73.5 133v18h-274v-18q0 -82 35 -159
t101 -139.5t171.5 -100.5t234.5 -38q130 0 235 38t170.5 103t100.5 148t35 176z" />
    <glyph glyph-name="four" unicode="4" horiz-adv-x="1437" 
d="M932 1186h-33l-577 -707h376q56 0 114.5 -9.5t89.5 -18.5l30 -9v744zM1378 479v-223h-172v-256h-274v256h-875v301l727 877h422v-955h172z" />
    <glyph glyph-name="five" unicode="5" horiz-adv-x="1331" 
d="M1257 498q0 102 -32.5 194.5t-95.5 167.5t-167 119.5t-235 44.5q-137 0 -214.5 -38t-115.5 -109h-37q7 10 17 27.5t30.5 74.5t26.5 115l10 92h703v248h-924l-114 -723h325q86 112 244 112q78 0 138.5 -27t96 -72t53 -97t17.5 -107q0 -54 -17.5 -104.5t-53 -95t-96 -71
t-138.5 -26.5q-75 0 -133 24t-92 63.5t-52.5 83t-23.5 89.5h-279q2 -73 23 -143.5t67 -137t112 -116.5t164 -80.5t216 -30.5q119 0 217 31.5t163.5 83.5t111 120.5t65.5 141t20 146.5z" />
    <glyph glyph-name="six" unicode="6" horiz-adv-x="1404" 
d="M705 223q87 0 155.5 25t107.5 66t59 87.5t20 94.5q0 51 -20 98t-59 88t-107 65.5t-156 24.5t-156.5 -24.5t-108.5 -65.5t-60 -88.5t-20 -97.5q0 -48 20.5 -95t60 -87.5t108.5 -65.5t156 -25zM752 1024q114 0 209.5 -29.5t161 -79.5t111 -117.5t66.5 -142.5t21 -155
q0 -101 -36.5 -193t-106 -167t-183.5 -120t-256 -45q-148 0 -270 49t-209.5 141.5t-135.5 233.5t-48 318q0 105 21 207t69.5 199.5t119 171t179 118.5t240.5 45q120 0 224.5 -37.5t176.5 -99.5t119 -135.5t65 -151.5h-262q-27 76 -116.5 126t-229.5 50q-77 0 -148 -32
t-128 -92.5t-90 -159t-29 -221.5h37q3 44 32.5 97t80 103.5t134 84.5t181.5 34z" />
    <glyph glyph-name="seven" unicode="7" horiz-adv-x="1157" 
d="M45 1434v-248h463q58 0 124.5 9t103.5 19l38 9v-37q-97 -78 -173 -199t-120.5 -246.5t-74 -267t-40 -255.5t-10.5 -218h275q0 90 3 164t14.5 177.5t31.5 189.5t57 187t87 185t126 167.5t170 148.5v215h-1075z" />
    <glyph glyph-name="eight" unicode="8" horiz-adv-x="1335" 
d="M670 223q54 0 107.5 12.5t101 37.5t77 69t29.5 100q0 57 -29.5 101.5t-77 69t-101 37t-107.5 12.5q-55 0 -109 -12.5t-102.5 -37t-78.5 -69t-30 -101.5q0 -56 30 -100t78.5 -69t102.5 -37.5t109 -12.5zM408 1049q0 -54 41 -92t97.5 -53t121.5 -15t121 15t96.5 53t40.5 92
q0 55 -40.5 93t-96.5 53t-121 15t-121.5 -15t-97.5 -53t-41 -93zM905 756q92 -20 171 -70.5t131.5 -132t52.5 -174.5q0 -80 -38 -151.5t-110 -128.5t-186.5 -90.5t-257.5 -33.5t-257.5 33.5t-186.5 90.5t-110 128.5t-38 151.5q0 93 52 174.5t131 132t171 70.5v37
q-120 32 -205.5 115.5t-85.5 199.5q0 68 34 130t98.5 111.5t167 79t229.5 29.5t229.5 -29.5t166.5 -79t98 -111.5t34 -130q0 -116 -85.5 -199.5t-205.5 -115.5v-37z" />
    <glyph glyph-name="nine" unicode="9" horiz-adv-x="1404" 
d="M700 1210q-88 0 -156.5 -25t-107.5 -65.5t-58.5 -86.5t-19.5 -95q0 -51 19.5 -98t58.5 -88t107.5 -65.5t156.5 -24.5t156 24.5t108 65.5t60 88.5t20 97.5q0 48 -20 94.5t-59.5 87t-108.5 65.5t-156 25zM651 410q-114 0 -209.5 29.5t-160.5 79.5t-110 117.5t-66 142.5
t-21 155t22.5 155t69.5 142.5t114.5 117.5t164.5 79.5t211 29.5q302 0 482.5 -194t180.5 -547q0 -105 -21 -207t-69.5 -200t-119 -171.5t-179 -118.5t-240.5 -45q-120 0 -225 37.5t-177 99.5t-119 135.5t-64 151.5h260q28 -76 117.5 -126t230.5 -50q76 0 147 32t128 92.5
t90 159.5t30 222h-37q-3 -44 -32.5 -97t-81 -103.5t-135 -84.5t-181.5 -34z" />
    <glyph glyph-name="colon" unicode=":" horiz-adv-x="602" 
d="M305 -25q-66 0 -114 45t-48 109t48 109t114 45q61 0 107.5 -45.5t46.5 -108.5t-46.5 -108.5t-107.5 -45.5zM305 717q-67 0 -114.5 44.5t-47.5 108.5t48 109t114 45q61 0 107.5 -45.5t46.5 -108.5t-46.5 -108t-107.5 -45z" />
    <glyph glyph-name="semicolon" unicode=";" horiz-adv-x="638" 
d="M305 717q-67 0 -114.5 44.5t-47.5 108.5t48 109t114 45q61 0 107.5 -45.5t46.5 -108.5t-46.5 -108t-107.5 -45zM459 129q0 63 -46.5 108.5t-107.5 45.5q-66 0 -114 -45t-48 -109t48 -109t114 -45q61 0 107.5 45.5t46.5 108.5zM348 -18q5 -59 -36 -109t-117 -68v-88
q156 14 241 140q68 102 58 224q-11 116 -89 170q-43 30 -100 32z" />
    <glyph glyph-name="less" unicode="&#x3c;" horiz-adv-x="1128" 
d="M977 379v-238l-825 295v332l825 297v-240q-459 -166 -488 -176q-24 -9 -57 -18t-54 -14l-20 -5v-22q74 -15 131 -33z" />
    <glyph glyph-name="equal" unicode="=" horiz-adv-x="1128" 
d="M152 586h825v-224h-825v224zM152 999h825v-223h-825v223z" />
    <glyph glyph-name="greater" unicode="&#x3e;" horiz-adv-x="1128" 
d="M152 379q448 164 487 178q25 8 58 16.5t53 12.5l20 4v22q-76 17 -131 37l-487 176v240l825 -297v-332l-825 -295v238z" />
    <glyph glyph-name="question" unicode="?" horiz-adv-x="1146" 
d="M1085 1077q0 75 -33 143t-95 121.5t-161.5 85t-222.5 31.5t-222 -31.5t-161.5 -85t-95.5 -121.5t-33 -143q0 -7 5 -47h270v19q0 161 237 161q113 0 175.5 -41.5t62.5 -119.5q0 -44 -25 -76t-64.5 -54t-88 -45.5t-96.5 -60t-87.5 -87t-64.5 -137.5t-25 -202h451v223h-29
q-52 0 -102 -8.5t-74 -17.5l-24 -9q-2 37 25 68.5t71.5 56t98 49t108 54t99.5 65.5t73 89.5t28 119.5zM580 -25q-65 0 -112.5 45t-47.5 109t47.5 109t112.5 45q62 0 108.5 -45t46.5 -109t-46.5 -109t-108.5 -45z" />
    <glyph glyph-name="at" unicode="@" horiz-adv-x="1972" 
d="M868 221q62 0 112 22t83 58.5t55.5 84.5t32.5 98t10 102q0 67 -16.5 129.5t-49.5 117.5t-92 88t-135 33t-135 -33t-92 -88t-49.5 -117.5t-16.5 -129.5q0 -52 10 -102t32.5 -98t55.5 -84.5t83 -58.5t112 -22zM987 1458q180 0 344.5 -70.5t283 -189t189 -283t70.5 -344.5
q0 -200 -83 -321t-237 -121q-109 0 -191.5 61.5t-82.5 174.5h-37q-101 -304 -389 -304q-92 0 -167.5 31.5t-125 83.5t-83 121t-48 141.5t-14.5 147.5q0 76 14.5 148.5t48 142t83 121t125 83t167.5 31.5q287 0 389 -303h37q-20 118 -20 233v45h159v-557q0 -114 35.5 -177.5
t106.5 -63.5q74 0 113.5 76.5t39.5 205.5q0 198 -97.5 366t-265 265.5t-364.5 97.5q-148 0 -283 -57.5t-233 -155.5t-155.5 -233t-57.5 -283q0 -196 97.5 -364t265.5 -266.5t366 -98.5q217 0 412 129h237q-42 -41 -76 -70t-99.5 -73.5t-129.5 -72.5t-155.5 -49t-188.5 -21
q-180 0 -344.5 70t-284 189t-190 283t-70.5 344t70.5 344.5t190 283t284 189t344.5 70.5z" />
    <glyph glyph-name="A" unicode="A" horiz-adv-x="1400" 
d="M868 1434l512 -1434h-245l-103 299h-661l-105 -299h-246l512 1434h336zM451 522h501l-233 664h-37z" />
    <glyph glyph-name="B" unicode="B" horiz-adv-x="1355" 
d="M754 248q258 0 258 188q0 96 -68 142.5t-190 46.5h-324v-377h324zM745 872q94 0 146.5 39.5t52.5 116.5q0 76 -53 117t-146 41h-315v-314h315zM1288 367q0 -80 -31 -143.5t-83 -104.5t-124 -68.5t-150 -39t-165 -11.5h-579v1434h573q93 0 176 -22.5t149 -65.5t105 -112.5
t39 -156.5q0 -75 -27 -133t-74 -93.5t-100.5 -55t-115.5 -25.5v-37q56 -4 110.5 -18t109 -42.5t95.5 -69t66.5 -101.5t25.5 -135z" />
    <glyph glyph-name="C" unicode="C" horiz-adv-x="1492" 
d="M1128 436q-18 -36 -45 -69.5t-69 -68t-105 -55t-137 -20.5q-87 0 -159 29.5t-120 79t-81 114.5t-47.5 133.5t-14.5 139.5q0 70 14.5 137.5t47.5 132t81 113.5t120.5 78.5t160.5 29.5q73 0 135.5 -20.5t104.5 -54.5t69.5 -68t44.5 -70h299q-10 30 -23.5 62.5t-41.5 79.5
t-62 89t-86.5 85t-114 74t-146 51t-179.5 20q-144 0 -262.5 -44.5t-198 -117.5t-134 -170.5t-79 -200t-24.5 -208.5t24.5 -208.5t79 -200t134 -171t198.5 -118t262 -44.5q95 0 179.5 20t146 51t114 74t86.5 85t62 89t41.5 79.5t23.5 62.5h-299z" />
    <glyph glyph-name="D" unicode="D" horiz-adv-x="1470" 
d="M655 256q217 0 341 125.5t124 335.5q0 211 -124.5 340t-340.5 129h-225v-930h225zM1395 717q0 -170 -53 -305.5t-149.5 -225.5t-231.5 -138t-299 -48h-506v1434h506q215 0 379 -82t259 -246t95 -389z" />
    <glyph glyph-name="E" unicode="E" horiz-adv-x="1175" 
d="M1073 1434v-248h-643v-334h576v-242h-576v-362h643v-248h-917v1434h917z" />
    <glyph glyph-name="F" unicode="F" horiz-adv-x="1105" 
d="M1047 1186h-617v-334h502v-242h-502v-610h-274v1434h891v-248z" />
    <glyph glyph-name="G" unicode="G" horiz-adv-x="1538" 
d="M1436 715q0 58 -39.5 97.5t-98.5 39.5h-546v-248h344q20 0 34.5 -14.5t14.5 -34.5q0 -58 -27 -116.5t-73.5 -106.5t-118 -78t-152.5 -31q-88 1 -160 30.5t-120.5 78.5t-81.5 114t-47.5 133.5t-14.5 139.5q0 70 15 137.5t48 132t81.5 113.5t121 78.5t160.5 29.5
q78 0 144.5 -23t109 -59.5t68 -68.5t39.5 -62h295q-10 29 -22.5 59t-40 78t-61 89.5t-86.5 86t-114.5 76t-147 52t-182.5 20.5q-147 0 -267.5 -43t-200 -114t-133.5 -168t-77.5 -201.5t-23.5 -216.5q0 -133 27 -245.5t73.5 -191.5t106 -139t128.5 -95t136 -52t133 -17
q93 0 172.5 22.5t135 57t101 82.5t73 93.5t48 95.5t29 82.5t12.5 60.5h37q-102 -286 -102 -414v-55h250v715z" />
    <glyph glyph-name="H" unicode="H" horiz-adv-x="1480" 
d="M1325 1434v-1434h-274v608h-621v-608h-274v1434h274v-576l621 -2v578h274z" />
    <glyph glyph-name="I" unicode="I" horiz-adv-x="585" 
d="M156 1434h274v-1434h-274v1434z" />
    <glyph glyph-name="J" unicode="J" horiz-adv-x="817" 
d="M125 1434v-248h268v-760q0 -74 -51 -126t-123 -52h-194v-248h196q122 0 225 61.5t162.5 167t59.5 230.5v975h-543z" />
    <glyph glyph-name="K" unicode="K" horiz-adv-x="1429" 
d="M1405 1434l-662 -709v-37l646 -688h-373l-543 584h-43v-584h-274v1434h274v-603h43l559 603h373z" />
    <glyph glyph-name="L" unicode="L" horiz-adv-x="1118" 
d="M430 1434v-1186h647v-248h-921v1434h274z" />
    <glyph glyph-name="M" unicode="M" horiz-adv-x="2013" 
d="M1403 1434l-379 -1186h-37l-377 1186h-454v-1434h274v952q0 52 -4.5 110.5t-9.5 91.5l-4 32h37l378 -1186h359l379 1186h37q-19 -117 -19 -234v-952h275v1434h-455z" />
    <glyph glyph-name="N" unicode="N" horiz-adv-x="1642" 
d="M1212 522q0 -67 4 -135.5t8 -103.5l5 -35h-35l-614 1186h-424v-1434h274v920q0 64 -4 130.5t-8 101.5l-4 34h37l612 -1186h424v1434h-275v-912z" />
    <glyph glyph-name="O" unicode="O" horiz-adv-x="1542" 
d="M770 223q87 0 158.5 29.5t119.5 79t81 114.5t48 133.5t15 139.5q0 88 -24.5 172t-73.5 157t-133 117.5t-191 44.5q-86 0 -158 -29.5t-119.5 -78.5t-80.5 -113.5t-47.5 -132t-14.5 -137.5q0 -71 14.5 -139.5t47.5 -133.5t80.5 -114.5t119 -79t158.5 -29.5zM772 1458
q143 0 261.5 -44.5t197 -118t133 -170.5t78.5 -200t24 -210q0 -105 -24 -207.5t-78.5 -199.5t-133 -170.5t-197 -118t-261.5 -44.5t-261.5 44.5t-197.5 118t-133.5 170.5t-79 199.5t-24.5 207.5q0 106 24.5 209.5t79 200.5t133.5 170.5t197.5 118t261.5 44.5z" />
    <glyph glyph-name="P" unicode="P" horiz-adv-x="1316" 
d="M817 852q78 0 126 47.5t48 118.5q0 72 -48 120t-126 48h-387v-334h387zM850 1434q95 0 175 -34t132 -92t80.5 -132.5t28.5 -157.5t-28.5 -157.5t-80.5 -132.5t-132 -92t-175 -34h-420v-602h-274v1434h694z" />
    <glyph glyph-name="Q" unicode="Q" horiz-adv-x="1556" 
d="M346 731q0 -70 14 -137t46.5 -130.5t79 -111.5t117 -77t155.5 -29q83 0 152.5 29t116.5 77t80.5 111t48.5 131t15 137t-14.5 135t-46.5 129.5t-79 111t-117.5 76.5t-155.5 29q-106 0 -188 -43.5t-129.5 -115t-71 -153.5t-23.5 -169zM1071 195q144 53 275 53h92v-248h-678
q-140 0 -256.5 43.5t-194.5 116t-131.5 167.5t-77.5 196t-24 204q0 105 24 206t77.5 197t131.5 168t194.5 116t256.5 44t256.5 -44t194 -116t130.5 -168t77 -197t24 -206q0 -92 -21.5 -169t-57 -130t-84.5 -93.5t-99.5 -64t-108.5 -37.5v-38z" />
    <glyph glyph-name="R" unicode="R" horiz-adv-x="1366" 
d="M817 852q78 0 126 47.5t48 118.5q0 72 -48 120t-126 48h-387v-334h387zM991 717q97 0 168.5 -71t71.5 -169v-477h-250v465q0 57 -40.5 97t-96.5 40h-418v-602h-270v1434h694q106 0 187 -27.5t130.5 -76.5t74 -112t24.5 -139q0 -66 -25.5 -123t-60.5 -92t-76.5 -60.5
t-69.5 -36.5t-43 -13v-37z" />
    <glyph glyph-name="S" unicode="S" horiz-adv-x="1259" 
d="M1176 426q0 64 -17.5 118t-46 93t-73 71t-89.5 53t-105 38.5t-110 27.5t-114 19q-134 21 -200.5 63.5t-66.5 118.5q0 71 69 126.5t202 55.5q136 0 204 -55.5t68 -126.5v-10h274v10q0 62 -19 121.5t-61.5 116t-104.5 99t-155 68t-206 25.5t-206 -25.5t-154.5 -68t-104 -99
t-61.5 -116t-19 -121.5q0 -64 16.5 -118.5t43 -93.5t67 -72t80.5 -54.5t92.5 -39.5t94.5 -28t93 -20l38.5 -7t43.5 -8t44 -9t45.5 -11t41.5 -13.5t39.5 -16.5t32.5 -20t26.5 -25t16 -30t6.5 -36q0 -80 -70 -141.5t-206 -61.5q-71 0 -127 19t-88 49.5t-48 66t-16 72.5h-274
q0 -64 19.5 -127t62.5 -122.5t105.5 -105t156.5 -73t207 -27.5q141 0 251 41t174 107.5t96 144t32 158.5z" />
    <glyph glyph-name="T" unicode="T" horiz-adv-x="1171" 
d="M1135 1434v-248h-412v-1186h-274v1186h-412v248h1098z" />
    <glyph glyph-name="U" unicode="U" horiz-adv-x="1468" 
d="M1057 608q0 -55 -11 -108t-36.5 -103.5t-62 -89t-91.5 -61.5t-121 -23q-82 0 -146.5 35t-101.5 92t-56 123t-19 135v826h-275v-828q0 -88 20.5 -174t67 -169.5t114 -146.5t170 -102t226.5 -39t226.5 39t169.5 102t113.5 146.5t66.5 169.5t20 174v828h-274v-826z" />
    <glyph glyph-name="V" unicode="V" horiz-adv-x="1417" 
d="M1108 1434q-340 -1024 -354 -1063q-8 -27 -15 -58t-9 -48l-3 -17h-37q-8 62 -26 123l-355 1063h-289l474 -1434h430l473 1434h-289z" />
    <glyph glyph-name="W" unicode="W" horiz-adv-x="2310" 
d="M2009 1434q-293 -1045 -303 -1082l-23 -104h-36q-13 59 -25 104l-293 1082h-352l-291 -1080l-22 -106h-37q-11 59 -23 106l-303 1080h-270l364 -1434h430l287 1065q6 23 12 53t8 49l3 19h36q11 -68 25 -121l287 -1065h432l364 1434h-270z" />
    <glyph glyph-name="X" unicode="X" horiz-adv-x="1585" 
d="M1552 1434l-505 -711l509 -723h-335l-412 586h-35l-412 -586h-333l506 723l-504 711h336l424 -600l426 600h335z" />
    <glyph glyph-name="Y" unicode="Y" horiz-adv-x="1298" 
d="M707 940q-13 -22 -22.5 -46t-12.5 -37l-4 -13h-37q-12 47 -41 96l-289 494h-281l492 -838v-596h274v594l492 840h-281z" />
    <glyph glyph-name="Z" unicode="Z" horiz-adv-x="1275" 
d="M406 279q7 4 20.5 12.5t53 45.5t77.5 85l629 811v201h-1086v-248h742v-33q-6 -2 -17.5 -8.5t-46.5 -37.5t-71 -75l-648 -831v-201h1149v248h-802v31z" />
    <glyph glyph-name="bracketleft" unicode="[" horiz-adv-x="647" 
d="M410 1231q91 -21 208 -21h29v224h-512v-1860h512v223h-29q-52 0 -104 -4.5t-78 -8.5l-26 -5v1452z" />
    <glyph glyph-name="backslash" unicode="\" horiz-adv-x="933" 
d="M242 1434l692 -1805h-242l-692 1805h242z" />
    <glyph glyph-name="bracketright" unicode="]" horiz-adv-x="647" 
d="M238 -221q-92 18 -209 18h-29v-223h512v1860h-512v-224h29q52 0 104 5t79 11l26 5v-1452z" />
    <glyph glyph-name="asciicircum" unicode="^" horiz-adv-x="1150" 
d="M782 993q-155 381 -157 385q-13 30 -20.5 68t-8.5 61l-2 23h-37q-2 -84 -29 -152l-159 -385h-242l303 744h293l301 -744h-242z" />
    <glyph glyph-name="underscore" unicode="_" horiz-adv-x="1292" 
d="M127 -25h1038v-223h-1038v223z" />
    <glyph glyph-name="grave" unicode="`" horiz-adv-x="577" 
d="M98 1864h252l144 -322h-230z" />
    <glyph glyph-name="a" unicode="a" horiz-adv-x="1249" 
d="M801 510q-38 -20 -314 -59q-58 -10 -103.5 -47t-45.5 -91q0 -50 38 -84.5t93 -44.5q51 -8 97 -1.5t100 34.5q55 30 90 76t41 92q4 25 4 68v57zM1208 248v-250h-196q-64 0 -97.5 37.5t-33.5 97.5q0 38 9.5 76t18.5 57l9 19h-37q-2 -6 -6 -16.5t-18.5 -40.5t-32.5 -57.5
t-48.5 -59.5t-64.5 -54q-157 -100 -365 -77q-110 11 -190 90t-80 198q0 123 66.5 190.5t172.5 92.5q78 18 192 30t140 17q7 1 25 4t26 5t23.5 5.5t22.5 6.5t18 8t15.5 11.5t9 14.5t4 18.5t-4.5 22.5q-13 49 -70.5 78t-137.5 29q-110 0 -169 -47t-59 -111h-266q0 71 30 137
t88 121.5t156.5 89t223.5 33.5q100 0 183.5 -22.5t140 -59.5t95.5 -87.5t56.5 -105t17.5 -112.5v-342q0 -20 13.5 -33.5t35.5 -13.5h84z" />
    <glyph glyph-name="b" unicode="b" horiz-adv-x="1245" 
d="M641 223q113 0 188.5 76.5t75.5 200.5q0 123 -76 199.5t-188 76.5t-188 -76.5t-76 -199.5q0 -124 75.5 -200.5t188.5 -76.5zM719 1024q116 0 207 -46.5t145 -123t81.5 -167t27.5 -187.5q0 -76 -16.5 -150t-53 -142t-88.5 -119.5t-128 -82.5t-167 -31q-246 0 -350 195h-37
q37 -82 37 -160v-10h-275v1434h275v-363q0 -61 -9.5 -122t-18.5 -91l-9 -31h37q106 197 342 197z" />
    <glyph glyph-name="c" unicode="c" horiz-adv-x="1112" 
d="M764 340q-22 -47 -69.5 -82t-123.5 -35q-60 0 -106.5 25t-72.5 66.5t-39 88.5t-13 97t13 97t39 88t72.5 66t106.5 25q76 0 124.5 -36t70.5 -83h291q-15 56 -40 106.5t-66 99t-93.5 83.5t-126.5 56.5t-160 21.5q-107 0 -194 -31.5t-143.5 -83t-95.5 -120.5t-55.5 -141
t-16.5 -148t16.5 -148t55.5 -141t95.5 -121t143.5 -83.5t194 -31.5q86 0 160 21t126.5 55.5t93.5 82.5t66 98.5t40 107.5h-293z" />
    <glyph glyph-name="d" unicode="d" horiz-adv-x="1236" 
d="M340 500q0 -125 74.5 -201t185.5 -76q113 0 186.5 76t73.5 201t-74.5 200.5t-185.5 75.5t-185.5 -75.5t-74.5 -200.5zM66 500q0 77 15.5 150t51 141.5t87 119.5t128.5 82t170 31q236 0 342 -197h37q-37 107 -37 244v363h275v-1434h-275v10q0 35 9 75t19 63l9 22h-37
q-104 -195 -350 -195q-91 0 -166 31t-125.5 82.5t-85.5 120t-51 141.5t-16 150z" />
    <glyph glyph-name="e" unicode="e" horiz-adv-x="1140" 
d="M571 801q-55 0 -99.5 -19t-72.5 -50t-45 -64.5t-24 -69.5l483 -2q-7 35 -23.5 69t-44.5 65.5t-73 51t-101 19.5zM322 438q3 -28 11 -57.5t27 -63t46 -59t69.5 -42.5t95.5 -17q157 0 217 137h267q-10 -40 -27 -81.5t-55 -94t-88.5 -91.5t-132.5 -66.5t-181 -27.5
q-106 0 -193 31.5t-144 83.5t-95.5 121t-55.5 141.5t-17 147.5q0 76 16.5 148t55.5 141t95.5 120.5t143.5 83t194 31.5q133 0 235 -48t162 -129.5t87 -186t18 -222.5h-751z" />
    <glyph glyph-name="f" unicode="f" horiz-adv-x="813" 
d="M203 1053q0 55 12 107.5t40.5 102.5t69.5 87.5t104 60.5t140 23h219v-248h-227q-39 0 -61.5 -28t-22.5 -66v-93h309v-247h-309v-752h-274v752h-180v247h180v54z" />
    <glyph glyph-name="g" unicode="g" horiz-adv-x="1253" 
d="M567 111q-212 0 -347.5 125.5t-135.5 328.5q0 206 126.5 332.5t328.5 126.5q148 0 248.5 -85t113.5 -196q6 -20 31 -42.5t50.5 -39.5t46 -43t20.5 -53q0 -204 -133 -329t-349 -125zM567 336q113 0 184.5 64t71.5 165q0 103 -72 168.5t-184 65.5q-114 0 -186 -65.5
t-72 -168.5q0 -101 72 -165t186 -64zM588 -395q133 0 221 32t88 82q0 51 -88.5 83t-220.5 32q-136 0 -222.5 -31.5t-86.5 -83.5q0 -51 86.5 -82.5t222.5 -31.5zM301 -63h-72q-70 0 -107.5 33.5t-37.5 92.5q0 57 37.5 88t107.5 31h15v39l323 -69l-2 -41h-219q-57 0 -57 -39
t57 -39h242q241 0 400 -90t159 -224q0 -88 -72 -159.5t-200 -112.5t-285 -41q-245 0 -403 78t-158 197q0 55 27.5 98t70.5 67.5t87 38t87 15.5v37zM938 743q-35 90 -35 172q0 35 24.5 59.5t59.5 24.5h225v-247h-118q-19 0 -32 -13t-13 -32v-142l-177 35l29 143h37z" />
    <glyph glyph-name="h" unicode="h" 
d="M1128 571q0 63 -18.5 129.5t-54.5 130.5t-99.5 113.5t-144.5 69.5q-39 9 -82 10t-88 -6.5t-87.5 -27.5t-79 -49.5t-65.5 -75.5t-44 -103h-37q57 143 57 233v439h-274v-1434h274v311q0 142 4 252q4 51 19 93t43.5 78t77 54.5t112.5 14.5q109 -6 161 -76t52 -170v-557h274
v571z" />
    <glyph glyph-name="i" unicode="i" horiz-adv-x="557" 
d="M455 915q0 35 -24.5 59.5t-59.5 24.5h-330v-247h92q20 0 33.5 -13.5t13.5 -33.5v-705h275v915zM309 1231q-56 0 -97.5 39.5t-41.5 93.5q0 56 41.5 94.5t97.5 38.5q54 0 93.5 -38.5t39.5 -94.5q0 -54 -40 -93.5t-93 -39.5z" />
    <glyph glyph-name="j" unicode="j" horiz-adv-x="583" 
d="M481 913q0 35 -24.5 60.5t-59.5 25.5h-340v-247h103q20 0 33.5 -13.5t13.5 -33.5v-938q0 -37 -25.5 -63t-60.5 -26h-209v-247h272q74 0 132.5 26.5t93.5 70.5t53 96.5t18 107.5v1181zM322 1231q-57 0 -98.5 39.5t-41.5 93.5q0 56 41 94.5t99 38.5q54 0 93.5 -38.5
t39.5 -94.5q0 -54 -40 -93.5t-93 -39.5z" />
    <glyph glyph-name="k" unicode="k" horiz-adv-x="1132" 
d="M385 1434v-859h45l379 424h299l-465 -522v-37l465 -442l-330 2l-344 328h-49v-328h-274v1434h274z" />
    <glyph glyph-name="l" unicode="l" horiz-adv-x="495" 
d="M111 1434h274v-1434h-274v1434z" />
    <glyph glyph-name="m" unicode="m" horiz-adv-x="1945" 
d="M1845 578q0 61 -18.5 126t-55 128.5t-100 112.5t-143.5 69q-38 9 -80.5 10t-87.5 -6.5t-88.5 -27.5t-82 -49.5t-70.5 -75.5t-52 -103h-37q1 18 -8 49.5t-30.5 72.5t-69.5 77.5t-113 52.5q-38 9 -80.5 10t-86.5 -6.5t-86.5 -27.5t-79 -49.5t-66 -75.5t-45.5 -103h-37
q57 119 57 209v28h-274v-999h274v324q0 131 4 237q4 49 18.5 90t42 77.5t76.5 55.5t115 15q109 -6 161 -74.5t52 -159.5v-565h250v324q0 182 4 237q4 49 18.5 90t42 78.5t76.5 56.5t115 15q107 -6 159 -75.5t52 -160.5v-565h274v578z" />
    <glyph glyph-name="n" unicode="n" 
d="M1128 571q0 63 -18.5 129.5t-54.5 130.5t-99.5 113.5t-144.5 69.5q-39 9 -82 10t-88 -6.5t-87.5 -27.5t-79 -49.5t-65.5 -75.5t-44 -103h-37q57 119 57 209v28h-274v-999h274v311q0 142 4 252q4 51 19 93t43.5 78t77 54.5t112.5 14.5q109 -6 161 -76t52 -170v-557h274
v571z" />
    <glyph glyph-name="o" unicode="o" horiz-adv-x="1136" 
d="M569 178q57 0 103 19t76 51t50.5 74t29 86.5t8.5 91.5q0 59 -14.5 113.5t-44.5 102.5t-83.5 76.5t-124.5 28.5t-124.5 -28.5t-84 -76t-45 -102.5t-14.5 -114t14.5 -114t45 -103t84 -76.5t124.5 -28.5zM569 1024q106 0 192 -31.5t142.5 -83t95.5 -120.5t55.5 -141.5
t16.5 -147.5t-16.5 -147.5t-55.5 -141.5t-95.5 -121t-142.5 -83.5t-192 -31.5t-192.5 31.5t-143.5 83.5t-95.5 121t-55 141.5t-16.5 147.5t16.5 147.5t55 141.5t95.5 120.5t143.5 83t192.5 31.5z" />
    <glyph glyph-name="p" unicode="p" horiz-adv-x="1245" 
d="M905 500q0 125 -75.5 200.5t-188.5 75.5t-188.5 -75.5t-75.5 -200.5t75.5 -201t188.5 -76t188.5 76t75.5 201zM1180 500q0 -76 -16.5 -149.5t-53.5 -142t-89.5 -120t-130.5 -82.5t-171 -31q-236 0 -342 197h-37q37 -107 37 -244v-497h-275v1568h275v-10q0 -34 -9.5 -74
t-18.5 -63l-9 -23h37q104 195 350 195q113 0 202 -46.5t142.5 -123t81 -167.5t27.5 -187z" />
    <glyph glyph-name="q" unicode="q" horiz-adv-x="1245" 
d="M604 776q-113 0 -188.5 -75.5t-75.5 -200.5t75.5 -201t188.5 -76t188.5 76t75.5 201t-75.5 200.5t-188.5 75.5zM526 -25q-93 0 -171 31t-130.5 82.5t-89 120t-53 142t-16.5 149.5t16.5 149t53 141.5t88 120t127.5 82.5t167 31q246 0 350 -195h37q-37 84 -37 160v10h275
v-1568h-275v497q0 61 9 122t19 92l9 30h-37q-106 -197 -342 -197z" />
    <glyph glyph-name="r" unicode="r" horiz-adv-x="921" 
d="M881 999q-167 -1 -282 -99t-161 -263h-37q37 184 37 274q0 42 -29 65t-73 23h-295v-247h119q37 0 37 -37v-715h274v332q0 61 13.5 119t45 113t77.5 96.5t117 66.5t157 25v247z" />
    <glyph glyph-name="s" unicode="s" horiz-adv-x="1009" 
d="M958 322q0 84 -34.5 143t-89.5 88t-122 46t-134 23.5t-122 13.5t-89.5 24t-34.5 47q0 44 50 69t122 25q83 0 134.5 -26.5t51.5 -72.5v-16h250v16q0 62 -27 118.5t-78.5 103t-137.5 73.5t-195 27q-110 0 -196.5 -27.5t-138.5 -73.5t-79 -102.5t-27 -118.5q0 -72 27 -124
t71.5 -79t101 -45t115 -23.5t115 -13.5t101 -16t71.5 -30.5t27 -57.5q0 -57 -55 -85.5t-131 -28.5q-99 0 -154 31.5t-55 91.5h-250q0 -66 28 -127t82 -111t144.5 -79.5t204.5 -29.5q91 0 167 19.5t128.5 53t88.5 78t53 94t17 102.5z" />
    <glyph glyph-name="t" unicode="t" horiz-adv-x="829" 
d="M203 332q0 -62 19.5 -119.5t58 -106t103.5 -77.5t148 -29h256v248h-227q-35 0 -59.5 25.5t-24.5 62.5v416h311v247h-311v435h-274v-435h-180v-247h180v-420z" />
    <glyph glyph-name="u" unicode="u" 
d="M100 428q0 -63 18.5 -129.5t55 -130.5t100 -113t144.5 -69q39 -9 82 -10t88 6.5t87 27.5t78.5 49.5t65 75.5t43.5 103h37q-55 -119 -55 -209v-29h274v999h-274v-311q0 -87 -6 -252q-3 -51 -18 -93t-43 -77.5t-77 -54t-114 -14.5q-109 6 -160 75.5t-51 169.5v557h-275
v-571z" />
    <glyph glyph-name="v" unicode="v" horiz-adv-x="1075" 
d="M590 410q-12 -36 -21 -76.5t-11 -63.5l-3 -22h-35q-10 82 -37 162l-200 589h-271l330 -999h389l332 999h-270z" />
    <glyph glyph-name="w" unicode="w" horiz-adv-x="1902" 
d="M1409 383q-10 -34 -18.5 -67.5t-11.5 -50.5l-3 -17h-37q-12 59 -32 135l-181 616h-344q-180 -606 -182 -614l-35 -137h-35q-14 65 -34 137l-187 614h-286l301 -999h397l184 616q9 32 16 66t10 52l3 18h37q12 -64 28 -136l181 -616h401l299 999h-287z" />
    <glyph glyph-name="x" unicode="x" horiz-adv-x="1107" 
d="M1090 999l-310 -481l316 -518h-291l-232 379h-36l-234 -379h-291l316 518l-312 481h295l244 -370l246 370h289z" />
    <glyph glyph-name="y" unicode="y" horiz-adv-x="1091" 
d="M602 395q-17 -43 -27 -79.5t-11 -51.5l-1 -16h-35q0 51 -39 147l-213 604h-264l348 -999h109l-94 -266q-9 -30 -32.5 -51t-61.5 -21h-248v-231h235q138 0 225.5 67t120.5 164l465 1337h-264z" />
    <glyph glyph-name="z" unicode="z" horiz-adv-x="1026" 
d="M582 739q-79 -22 -152 -104q-26 -27 -115.5 -129.5t-166.5 -191.5l-76 -89v-225h876v223h-542v37q9 3 18 7t19.5 12t18 14.5t20.5 19t19.5 19t22 22.5t21.5 23l370 397v225h-811v-223h478v-37z" />
    <glyph glyph-name="braceleft" unicode="{" horiz-adv-x="720" 
d="M266 522q118 0 180 77t62 179v178q0 91 54 160.5t159 69.5v248q-100 0 -183 -31t-138.5 -82.5t-94 -119.5t-55.5 -140t-17 -146v-170q0 -63 -37.5 -110t-109.5 -47v-166q72 0 109.5 -48t37.5 -112v-172q0 -93 28.5 -181.5t85 -165t153.5 -123t221 -46.5v248
q-72 0 -122 36t-70.5 86.5t-20.5 108.5v178q0 63 -24 119t-81 95.5t-137 39.5v37z" />
    <glyph glyph-name="bar" unicode="|" horiz-adv-x="700" 
d="M238 1434h225v-1860h-225v1860z" />
    <glyph glyph-name="braceright" unicode="}" horiz-adv-x="722" 
d="M457 485q-118 0 -180 -77t-62 -179v-178q0 -91 -54 -160t-159 -69v-248q100 0 183 31t138.5 82t93.5 119t55 140t17 146v170q0 63 38 110.5t110 47.5v166q-73 0 -110.5 47.5t-37.5 111.5v173q0 74 -17 145.5t-55 139t-93.5 118.5t-138.5 82t-183 31v-248q55 0 97 -20.5
t66.5 -55t37 -74t12.5 -82.5v-178q0 -63 24 -119t81 -95.5t137 -39.5v-37z" />
    <glyph glyph-name="asciitilde" unicode="~" horiz-adv-x="1234" 
d="M858 891q0 -29 -0.5 -41.5t-2 -35t-5.5 -32t-11.5 -21t-19 -16t-28.5 -4.5q-39 0 -115 36t-159.5 72t-139.5 36q-36 0 -66 -8.5t-51.5 -21.5t-39 -36t-28.5 -44t-19 -53.5t-12 -57.5t-6 -63t-2.5 -62t-0.5 -62h225q0 29 0.5 41.5t2 34.5t6 32t11.5 21.5t19.5 16t29.5 4.5
q38 0 113.5 -36t159 -72t139.5 -36q36 0 66 8.5t51.5 21.5t39 36t28.5 44t19 53.5t12 57.5t6 63t2.5 62t0.5 62h-225z" />
    <glyph glyph-name="sterling" unicode="&#xa3;" horiz-adv-x="1306" 
d="M1006 307q0 -27 -17 -43t-45 -16h-323q-52 0 -147 -9t-164 -19l-70 -9v37q102 24 164.5 93.5t75 167.5t-20.5 218h469v160h-490q-11 44 -11 89t19 87t49 75t79 52.5t108 19.5t105.5 -19.5t72 -50t38 -54t17.5 -44.5h267q-4 41 -20 89.5t-54 108t-91 106.5t-140.5 79.5
t-194.5 32.5q-74 0 -141.5 -15t-119.5 -42t-97 -63.5t-75.5 -79.5t-54 -90.5t-32 -95.5t-10.5 -95t10 -90h-103v-160h138q36 -115 34.5 -214.5t-48 -172.5t-128.5 -92v-248h977q199 24 199 213v197h-225v-103z" />
    <glyph glyph-name="yen" unicode="&#xa5;" horiz-adv-x="1339" 
d="M727 940q-13 -22 -22.5 -46t-12.5 -37l-4 -13h-37q-12 47 -41 96l-288 494h-281l491 -838v-596h275v594l491 840h-280zM268 717v-158h815v158h-815zM268 430v-160h815v160h-815z" />
    <glyph glyph-name="section" unicode="&#xa7;" horiz-adv-x="1081" 
d="M541 621q50 0 94 9.5t77 33.5t33 59t-33 59t-77 33.5t-94 9.5t-94.5 -9.5t-77.5 -33.5t-33 -59t33 -59t77.5 -33.5t94.5 -9.5zM549 1049q133 0 236.5 -30t167 -93.5t63.5 -153.5q0 -48 -21 -87.5t-54.5 -63t-71 -41t-77 -25t-64.5 -11t-40 -3.5v-37q33 0 67.5 -5.5
t73.5 -20.5t69 -37.5t49.5 -61.5t19.5 -88q0 -127 -114 -221.5t-310 -94.5q-102 0 -185 27t-135 72t-80 101t-28 116v18h270v-16q0 -41 42.5 -67.5t113.5 -26.5t113 26.5t42 67.5q0 43 -41.5 68.5t-113.5 25.5q-124 0 -229.5 31.5t-175.5 101t-70 164.5q0 57 30 100t71 65.5
t91.5 36.5t82 17.5t52.5 3.5v37q-37 2 -82 15t-90 37.5t-75.5 65.5t-30.5 91q0 126 114.5 215.5t319.5 89.5t319.5 -89.5t114.5 -215.5v-25h-270v13q0 42 -44.5 68t-119.5 26t-119.5 -26t-44.5 -68q0 -41 44.5 -66.5t119.5 -25.5z" />
    <glyph glyph-name="dieresis" unicode="&#xa8;" horiz-adv-x="894" 
d="M246 1597q-57 0 -98.5 39.5t-41.5 94.5t41.5 94t98.5 39q52 0 92.5 -39.5t40.5 -93.5q0 -55 -40.5 -94.5t-92.5 -39.5zM655 1597q-56 0 -96.5 39.5t-40.5 94.5t40.5 94t96.5 39q53 0 93 -39t40 -94t-40 -94.5t-93 -39.5z" />
    <glyph glyph-name="copyright" unicode="&#xa9;" horiz-adv-x="1662" 
d="M627 719q0 62 19.5 116.5t68 94t119.5 39.5q114 0 163 -92h211q-8 26 -21 55t-43 68.5t-69 69.5t-102.5 51.5t-138.5 21.5q-102 0 -182 -38.5t-126.5 -101.5t-70 -136.5t-23.5 -151.5q0 -76 23.5 -149t70 -135.5t126.5 -101t182 -38.5q75 0 138.5 21.5t102.5 51.5
t69 69.5t43 67.5t21 54h-211q-20 -37 -62.5 -63.5t-100.5 -26.5q-43 0 -78.5 15t-59 40t-39.5 58.5t-23 68.5t-7 72zM831 133q159 0 294 78t213.5 212.5t78.5 293.5t-78.5 293.5t-213 212t-294.5 77.5q-119 0 -227.5 -46t-187 -124t-124.5 -186t-46 -227q0 -159 78 -293.5
t213 -212.5t294 -78zM831 1458q153 0 291.5 -58.5t239 -157.5t160 -236.5t59.5 -288.5t-59.5 -288.5t-160 -237t-239 -158t-291.5 -58.5t-291.5 58.5t-238.5 158t-159.5 237t-59.5 288.5t59.5 288.5t159.5 236.5t238.5 157.5t291.5 58.5z" />
    <glyph glyph-name="guillemotleft" unicode="&#xab;" horiz-adv-x="1380" 
d="M813 0q-342 399 -346 401q-26 28 -54 47.5t-44.5 26t-24.5 6.5v35q13 0 49 23t74 63l346 397h-299l-432 -499l432 -500h299zM1298 0q-344 399 -346 401q-26 28 -54 47.5t-44.5 26t-24.5 6.5v35q8 0 24.5 7t44.5 27t54 48l346 401h-297l-434 -499l434 -500h297z" />
    <glyph glyph-name="registered" unicode="&#xae;" horiz-adv-x="954" 
d="M477 762q80 0 142 27.5t97.5 73.5t53.5 98.5t18 107.5t-18 107.5t-53.5 98.5t-97.5 73.5t-142 27.5q-64 0 -117.5 -18.5t-88 -49t-58.5 -71t-34.5 -82.5t-10.5 -86t10.5 -86t34.5 -82.5t58.5 -71t88 -49t117.5 -18.5zM477 1458q103 0 182 -35t124 -92.5t67 -124
t22 -137.5t-22 -137.5t-67 -124t-124 -92.5t-182 -35t-182 35t-124 92.5t-67 124t-22 137.5t22 137.5t67 124t124 92.5t182 35zM512 1114q21 0 32 11.5t11 29.5q0 43 -43 43h-104v-84h104zM563 1069q29 0 48.5 -20t19.5 -48v-139h-78v137q0 15 -11 26t-28 11h-108v-174h-84
v414h200q59 0 90 -28t31 -74q0 -23 -10 -41.5t-26 -29.5t-25.5 -16t-18.5 -8v-10z" />
    <glyph glyph-name="plusminus" unicode="&#xb1;" horiz-adv-x="1112" 
d="M143 195h826v-195h-826v195zM668 1094v-277h301v-223h-301v-277h-226v277h-299v223h299v277h226z" />
    <glyph glyph-name="acute" unicode="&#xb4;" horiz-adv-x="577" 
d="M479 1864l-166 -322h-229l145 322h250z" />
    <glyph glyph-name="periodcentered" unicode="&#xb7;" horiz-adv-x="575" 
d="M291 338q-71 0 -121.5 48.5t-50.5 115.5q0 69 50.5 117.5t121.5 48.5q67 0 116.5 -49t49.5 -117q0 -67 -49.5 -115.5t-116.5 -48.5z" />
    <glyph glyph-name="guillemotright" unicode="&#xbb;" horiz-adv-x="1380" 
d="M567 0h299l432 500l-432 499h-299q342 -393 346 -397q38 -40 74 -63t49 -23v-35q-8 0 -24.5 -6.5t-44.5 -26t-54 -47.5zM82 0h297l434 500l-434 499h-297q344 -397 346 -401q27 -28 55 -48t44.5 -27t23.5 -7v-35q-8 0 -24.5 -6.5t-44.5 -26t-54 -47.5z" />
    <glyph glyph-name="Aacute" unicode="&#xc1;" horiz-adv-x="1400" 
d="M868 1434l512 -1434h-245l-103 299h-661l-105 -299h-246l512 1434h336zM451 522h501l-233 664h-37zM989 1860l-166 -322h-229l145 322h250z" />
    <glyph glyph-name="Acircumflex" unicode="&#xc2;" horiz-adv-x="1400" 
d="M868 1434l512 -1434h-245l-103 299h-661l-105 -299h-246l512 1434h336zM451 522h501l-233 664h-37zM850 1860l188 -273h-231l-102 146h-11l-102 -146h-232l189 273h301z" />
    <glyph glyph-name="Adieresis" unicode="&#xc4;" horiz-adv-x="1400" 
d="M868 1434l512 -1434h-245l-103 299h-661l-105 -299h-246l512 1434h336zM451 522h501l-233 664h-37zM498 1597q-57 0 -98.5 39.5t-41.5 94.5t41.5 94t98.5 39q52 0 92.5 -39.5t40.5 -93.5q0 -55 -40.5 -94.5t-92.5 -39.5zM907 1597q-56 0 -96.5 39.5t-40.5 94.5t40.5 94
t96.5 39q53 0 93 -39t40 -94t-40 -94.5t-93 -39.5z" />
    <glyph glyph-name="Aring" unicode="&#xc5;" horiz-adv-x="1400" 
d="M868 1434l512 -1434h-245l-103 299h-661l-105 -299h-246l512 1434h336zM451 522h501l-233 664h-37zM709 1747q54 0 80 32t26 76t-26 76.5t-80 32.5q-53 0 -79 -32.5t-26 -76.5t26 -76t79 -32zM709 2130q74 0 130.5 -24.5t88.5 -65t47.5 -87.5t15.5 -98t-15.5 -97.5
t-47.5 -87.5t-88.5 -65t-130.5 -24t-130 24.5t-88 65t-47.5 87t-15.5 97.5t15.5 98t47.5 87.5t88 65t130 24.5z" />
    <glyph glyph-name="Eacute" unicode="&#xc9;" horiz-adv-x="1175" 
d="M1073 1434v-248h-643v-334h576v-242h-576v-362h643v-248h-917v1434h917zM881 1864l-166 -322h-230l146 322h250z" />
    <glyph glyph-name="Ecircumflex" unicode="&#xca;" horiz-adv-x="1175" 
d="M1073 1434v-248h-643v-334h576v-242h-576v-362h643v-248h-917v1434h917zM766 1864l188 -273h-231l-102 146h-11l-102 -146h-232l189 273h301z" />
    <glyph glyph-name="Edieresis" unicode="&#xcb;" horiz-adv-x="1175" 
d="M1073 1434v-248h-643v-334h576v-242h-576v-362h643v-248h-917v1434h917zM426 1597q-57 0 -98 39.5t-41 94.5t41 94t98 39q52 0 92.5 -39.5t40.5 -93.5q0 -55 -40.5 -94.5t-92.5 -39.5zM836 1597q-56 0 -97 39.5t-41 94.5t41 94t97 39q53 0 93 -39t40 -94t-40 -94.5
t-93 -39.5z" />
    <glyph glyph-name="Igrave" unicode="&#xcc;" horiz-adv-x="585" 
d="M156 1434h274v-1434h-274v1434zM10 1860h252l144 -322h-230z" />
    <glyph glyph-name="Iacute" unicode="&#xcd;" horiz-adv-x="585" 
d="M156 1434h274v-1434h-274v1434zM573 1860l-165 -322h-230l146 322h249z" />
    <glyph glyph-name="Icircumflex" unicode="&#xce;" horiz-adv-x="585" 
d="M156 1434h274v-1434h-274v1434zM442 1860l189 -273h-232l-102 146h-10l-103 -146h-231l188 273h301z" />
    <glyph glyph-name="Idieresis" unicode="&#xcf;" horiz-adv-x="585" 
d="M156 1434h274v-1434h-274v1434zM90 1593q-57 0 -98 39t-41 94t41 94.5t98 39.5q52 0 92.5 -39.5t40.5 -94.5q0 -54 -40.5 -93.5t-92.5 -39.5zM500 1593q-56 0 -97 39t-41 94t41 94.5t97 39.5q53 0 93 -39.5t40 -94.5t-40 -94t-93 -39z" />
    <glyph glyph-name="Oacute" unicode="&#xd3;" horiz-adv-x="1542" 
d="M770 223q87 0 158.5 29.5t119.5 79t81 114.5t48 133.5t15 139.5q0 88 -24.5 172t-73.5 157t-133 117.5t-191 44.5q-86 0 -158 -29.5t-119.5 -78.5t-80.5 -113.5t-47.5 -132t-14.5 -137.5q0 -71 14.5 -139.5t47.5 -133.5t80.5 -114.5t119 -79t158.5 -29.5zM772 1458
q143 0 261.5 -44.5t197 -118t133 -170.5t78.5 -200t24 -210q0 -105 -24 -207.5t-78.5 -199.5t-133 -170.5t-197 -118t-261.5 -44.5t-261.5 44.5t-197.5 118t-133.5 170.5t-79 199.5t-24.5 207.5q0 106 24.5 209.5t79 200.5t133.5 170.5t197.5 118t261.5 44.5zM1047 1864
l-166 -322h-230l146 322h250z" />
    <glyph glyph-name="Ocircumflex" unicode="&#xd4;" horiz-adv-x="1542" 
d="M770 223q87 0 158.5 29.5t119.5 79t81 114.5t48 133.5t15 139.5q0 88 -24.5 172t-73.5 157t-133 117.5t-191 44.5q-86 0 -158 -29.5t-119.5 -78.5t-80.5 -113.5t-47.5 -132t-14.5 -137.5q0 -71 14.5 -139.5t47.5 -133.5t80.5 -114.5t119 -79t158.5 -29.5zM772 1458
q143 0 261.5 -44.5t197 -118t133 -170.5t78.5 -200t24 -210q0 -105 -24 -207.5t-78.5 -199.5t-133 -170.5t-197 -118t-261.5 -44.5t-261.5 44.5t-197.5 118t-133.5 170.5t-79 199.5t-24.5 207.5q0 106 24.5 209.5t79 200.5t133.5 170.5t197.5 118t261.5 44.5zM924 1864
l188 -273h-231l-103 146h-10l-102 -146h-232l189 273h301z" />
    <glyph glyph-name="Odieresis" unicode="&#xd6;" horiz-adv-x="1542" 
d="M770 223q87 0 158.5 29.5t119.5 79t81 114.5t48 133.5t15 139.5q0 88 -24.5 172t-73.5 157t-133 117.5t-191 44.5q-86 0 -158 -29.5t-119.5 -78.5t-80.5 -113.5t-47.5 -132t-14.5 -137.5q0 -71 14.5 -139.5t47.5 -133.5t80.5 -114.5t119 -79t158.5 -29.5zM772 1458
q143 0 261.5 -44.5t197 -118t133 -170.5t78.5 -200t24 -210q0 -105 -24 -207.5t-78.5 -199.5t-133 -170.5t-197 -118t-261.5 -44.5t-261.5 44.5t-197.5 118t-133.5 170.5t-79 199.5t-24.5 207.5q0 106 24.5 209.5t79 200.5t133.5 170.5t197.5 118t261.5 44.5zM567 1597
q-57 0 -98 39.5t-41 94.5t41 94t98 39q52 0 92.5 -39.5t40.5 -93.5q0 -55 -40.5 -94.5t-92.5 -39.5zM977 1597q-56 0 -96.5 39.5t-40.5 94.5t40.5 94t96.5 39q53 0 93 -39t40 -94t-40 -94.5t-93 -39.5z" />
    <glyph glyph-name="multiply" unicode="&#xd7;" horiz-adv-x="1079" 
d="M911 895l-213 -211l213 -213l-159 -158l-213 213l-211 -215l-160 160l211 213l-211 213l160 158l211 -213l213 213z" />
    <glyph glyph-name="Oslash" unicode="&#xd8;" horiz-adv-x="1566" 
d="M784 223q87 0 158.5 29.5t119.5 79t81 114.5t48 133.5t15 139.5q0 88 -24.5 172t-73.5 157t-133 117.5t-191 44.5t-190.5 -44.5t-132 -117.5t-72.5 -157t-24 -172q0 -71 14.5 -139.5t47 -133.5t80 -114.5t119 -79t158.5 -29.5zM786 1458q143 0 261.5 -44.5t197.5 -118
t133.5 -170.5t78.5 -200t24 -210q0 -105 -24 -207.5t-78.5 -199.5t-133.5 -170.5t-197.5 -118t-261.5 -44.5t-261.5 44.5t-197.5 118t-133.5 170.5t-79 199.5t-24.5 207.5q0 106 24.5 209.5t79 200.5t133.5 170.5t197.5 118t261.5 44.5zM1483 1454l-1108 -1474h-291
l1110 1474h289z" />
    <glyph glyph-name="Uacute" unicode="&#xda;" horiz-adv-x="1468" 
d="M1057 608q0 -55 -11 -108t-36.5 -103.5t-62 -89t-91.5 -61.5t-121 -23q-82 0 -146.5 35t-101.5 92t-56 123t-19 135v826h-275v-828q0 -88 20.5 -174t67 -169.5t114 -146.5t170 -102t226.5 -39t226.5 39t169.5 102t113.5 146.5t66.5 169.5t20 174v828h-274v-826z
M1006 1864l-166 -322h-230l146 322h250z" />
    <glyph glyph-name="Udieresis" unicode="&#xdc;" horiz-adv-x="1468" 
d="M1057 608q0 -55 -11 -108t-36.5 -103.5t-62 -89t-91.5 -61.5t-121 -23q-82 0 -146.5 35t-101.5 92t-56 123t-19 135v826h-275v-828q0 -88 20.5 -174t67 -169.5t114 -146.5t170 -102t226.5 -39t226.5 39t169.5 102t113.5 146.5t66.5 169.5t20 174v828h-274v-826zM553 1597
q-57 0 -98 39.5t-41 94.5t41 94t98 39q52 0 92.5 -39.5t40.5 -93.5q0 -55 -40.5 -94.5t-92.5 -39.5zM963 1597q-56 0 -97 39.5t-41 94.5t41 94t97 39q53 0 93 -39t40 -94t-40 -94.5t-93 -39.5z" />
    <glyph glyph-name="Yacute" unicode="&#xdd;" horiz-adv-x="1298" 
d="M707 940q-13 -22 -22.5 -46t-12.5 -37l-4 -13h-37q-12 47 -41 96l-289 494h-281l492 -838v-596h274v594l492 840h-281zM944 1864l-166 -322h-229l145 322h250z" />
    <glyph glyph-name="aacute" unicode="&#xe1;" horiz-adv-x="1249" 
d="M801 510q-38 -20 -314 -59q-58 -10 -103.5 -47t-45.5 -91q0 -50 38 -84.5t93 -44.5q51 -8 97 -1.5t100 34.5q55 30 90 76t41 92q4 25 4 68v57zM1208 248v-250h-196q-64 0 -97.5 37.5t-33.5 97.5q0 38 9.5 76t18.5 57l9 19h-37q-2 -6 -6 -16.5t-18.5 -40.5t-32.5 -57.5
t-48.5 -59.5t-64.5 -54q-157 -100 -365 -77q-110 11 -190 90t-80 198q0 123 66.5 190.5t172.5 92.5q78 18 192 30t140 17q7 1 25 4t26 5t23.5 5.5t22.5 6.5t18 8t15.5 11.5t9 14.5t4 18.5t-4.5 22.5q-13 49 -70.5 78t-137.5 29q-110 0 -169 -47t-59 -111h-266q0 71 30 137
t88 121.5t156.5 89t223.5 33.5q100 0 183.5 -22.5t140 -59.5t95.5 -87.5t56.5 -105t17.5 -112.5v-342q0 -20 13.5 -33.5t35.5 -13.5h84zM874 1499l-165 -321h-230l146 321h249z" />
    <glyph glyph-name="acircumflex" unicode="&#xe2;" horiz-adv-x="1249" 
d="M801 510q-38 -20 -314 -59q-58 -10 -103.5 -47t-45.5 -91q0 -50 38 -84.5t93 -44.5q51 -8 97 -1.5t100 34.5q55 30 90 76t41 92q4 25 4 68v57zM1208 248v-250h-196q-64 0 -97.5 37.5t-33.5 97.5q0 38 9.5 76t18.5 57l9 19h-37q-2 -6 -6 -16.5t-18.5 -40.5t-32.5 -57.5
t-48.5 -59.5t-64.5 -54q-157 -100 -365 -77q-110 11 -190 90t-80 198q0 123 66.5 190.5t172.5 92.5q78 18 192 30t140 17q7 1 25 4t26 5t23.5 5.5t22.5 6.5t18 8t15.5 11.5t9 14.5t4 18.5t-4.5 22.5q-13 49 -70.5 78t-137.5 29q-110 0 -169 -47t-59 -111h-266q0 71 30 137
t88 121.5t156.5 89t223.5 33.5q100 0 183.5 -22.5t140 -59.5t95.5 -87.5t56.5 -105t17.5 -112.5v-342q0 -20 13.5 -33.5t35.5 -13.5h84zM762 1499l188 -272h-231l-103 145h-10l-102 -145h-232l189 272h301z" />
    <glyph glyph-name="adieresis" unicode="&#xe4;" horiz-adv-x="1249" 
d="M801 510q-38 -20 -314 -59q-58 -10 -103.5 -47t-45.5 -91q0 -50 38 -84.5t93 -44.5q51 -8 97 -1.5t100 34.5q55 30 90 76t41 92q4 25 4 68v57zM1208 248v-250h-196q-64 0 -97.5 37.5t-33.5 97.5q0 38 9.5 76t18.5 57l9 19h-37q-2 -6 -6 -16.5t-18.5 -40.5t-32.5 -57.5
t-48.5 -59.5t-64.5 -54q-157 -100 -365 -77q-110 11 -190 90t-80 198q0 123 66.5 190.5t172.5 92.5q78 18 192 30t140 17q7 1 25 4t26 5t23.5 5.5t22.5 6.5t18 8t15.5 11.5t9 14.5t4 18.5t-4.5 22.5q-13 49 -70.5 78t-137.5 29q-110 0 -169 -47t-59 -111h-266q0 71 30 137
t88 121.5t156.5 89t223.5 33.5q100 0 183.5 -22.5t140 -59.5t95.5 -87.5t56.5 -105t17.5 -112.5v-342q0 -20 13.5 -33.5t35.5 -13.5h84zM414 1233q-57 0 -98.5 39t-41.5 94t41.5 94t98.5 39q52 0 92.5 -39.5t40.5 -93.5t-40.5 -93.5t-92.5 -39.5zM823 1233q-56 0 -96.5 39
t-40.5 94t40.5 94t96.5 39q53 0 93 -39t40 -94t-40 -94t-93 -39z" />
    <glyph glyph-name="aring" unicode="&#xe5;" horiz-adv-x="1249" 
d="M801 510q-38 -20 -314 -59q-58 -10 -103.5 -47t-45.5 -91q0 -50 38 -84.5t93 -44.5q51 -8 97 -1.5t100 34.5q55 30 90 76t41 92q4 25 4 68v57zM1208 248v-250h-196q-64 0 -97.5 37.5t-33.5 97.5q0 38 9.5 76t18.5 57l9 19h-37q-2 -6 -6 -16.5t-18.5 -40.5t-32.5 -57.5
t-48.5 -59.5t-64.5 -54q-157 -100 -365 -77q-110 11 -190 90t-80 198q0 123 66.5 190.5t172.5 92.5q78 18 192 30t140 17q7 1 25 4t26 5t23.5 5.5t22.5 6.5t18 8t15.5 11.5t9 14.5t4 18.5t-4.5 22.5q-13 49 -70.5 78t-137.5 29q-110 0 -169 -47t-59 -111h-266q0 71 30 137
t88 121.5t156.5 89t223.5 33.5q100 0 183.5 -22.5t140 -59.5t95.5 -87.5t56.5 -105t17.5 -112.5v-342q0 -20 13.5 -33.5t35.5 -13.5h84zM588 1386q54 0 80 32.5t26 76.5t-26 76.5t-80 32.5q-53 0 -79 -32.5t-26 -76.5t26 -76.5t79 -32.5zM588 1769q74 0 130.5 -24t88.5 -65
t47.5 -87.5t15.5 -97.5t-15.5 -97.5t-47.5 -87.5t-88.5 -65t-130.5 -24t-130 24.5t-88 65t-47.5 87t-15.5 97.5t15.5 97.5t47.5 87t88 65t130 24.5z" />
    <glyph glyph-name="eacute" unicode="&#xe9;" horiz-adv-x="1140" 
d="M571 801q-55 0 -99.5 -19t-72.5 -50t-45 -64.5t-24 -69.5l483 -2q-7 35 -23.5 69t-44.5 65.5t-73 51t-101 19.5zM322 438q3 -28 11 -57.5t27 -63t46 -59t69.5 -42.5t95.5 -17q157 0 217 137h267q-10 -40 -27 -81.5t-55 -94t-88.5 -91.5t-132.5 -66.5t-181 -27.5
q-106 0 -193 31.5t-144 83.5t-95.5 121t-55.5 141.5t-17 147.5q0 76 16.5 148t55.5 141t95.5 120.5t143.5 83t194 31.5q133 0 235 -48t162 -129.5t87 -186t18 -222.5h-751zM860 1499l-166 -321h-229l145 321h250z" />
    <glyph glyph-name="ecircumflex" unicode="&#xea;" horiz-adv-x="1140" 
d="M571 801q-55 0 -99.5 -19t-72.5 -50t-45 -64.5t-24 -69.5l483 -2q-7 35 -23.5 69t-44.5 65.5t-73 51t-101 19.5zM322 438q3 -28 11 -57.5t27 -63t46 -59t69.5 -42.5t95.5 -17q157 0 217 137h267q-10 -40 -27 -81.5t-55 -94t-88.5 -91.5t-132.5 -66.5t-181 -27.5
q-106 0 -193 31.5t-144 83.5t-95.5 121t-55.5 141.5t-17 147.5q0 76 16.5 148t55.5 141t95.5 120.5t143.5 83t194 31.5q133 0 235 -48t162 -129.5t87 -186t18 -222.5h-751zM721 1499l188 -272h-231l-103 145h-10l-102 -145h-232l189 272h301z" />
    <glyph glyph-name="edieresis" unicode="&#xeb;" horiz-adv-x="1140" 
d="M571 801q-55 0 -99.5 -19t-72.5 -50t-45 -64.5t-24 -69.5l483 -2q-7 35 -23.5 69t-44.5 65.5t-73 51t-101 19.5zM322 438q3 -28 11 -57.5t27 -63t46 -59t69.5 -42.5t95.5 -17q157 0 217 137h267q-10 -40 -27 -81.5t-55 -94t-88.5 -91.5t-132.5 -66.5t-181 -27.5
q-106 0 -193 31.5t-144 83.5t-95.5 121t-55.5 141.5t-17 147.5q0 76 16.5 148t55.5 141t95.5 120.5t143.5 83t194 31.5q133 0 235 -48t162 -129.5t87 -186t18 -222.5h-751zM362 1235q-57 0 -98 39t-41 94t41 94t98 39q52 0 93 -39.5t41 -93.5t-41 -93.5t-93 -39.5zM772 1235
q-56 0 -96.5 39t-40.5 94t40.5 94t96.5 39q53 0 93 -39t40 -94t-40 -94t-93 -39z" />
    <glyph glyph-name="iacute" unicode="&#xed;" horiz-adv-x="567" 
d="M567 1499l-166 -321h-229l145 321h250zM455 915q0 35 -24.5 59.5t-59.5 24.5h-330v-247h92q20 0 33.5 -13.5t13.5 -33.5v-705h275v915z" />
    <glyph glyph-name="icircumflex" unicode="&#xee;" horiz-adv-x="567" 
d="M418 1499l188 -272h-231l-103 145h-10l-102 -145h-232l189 272h301zM455 915q0 35 -24.5 59.5t-59.5 24.5h-330v-247h92q20 0 33.5 -13.5t13.5 -33.5v-705h275v915z" />
    <glyph glyph-name="idieresis" unicode="&#xef;" horiz-adv-x="567" 
d="M76 1233q-57 0 -98 39t-41 94t41 94t98 39q52 0 92.5 -39.5t40.5 -93.5t-40.5 -93.5t-92.5 -39.5zM485 1233q-56 0 -96.5 39t-40.5 94t40.5 94t96.5 39q53 0 93 -39t40 -94t-40 -94t-93 -39zM455 915q0 35 -24.5 59.5t-59.5 24.5h-330v-247h92q20 0 33.5 -13.5
t13.5 -33.5v-705h275v915z" />
    <glyph glyph-name="oacute" unicode="&#xf3;" horiz-adv-x="1136" 
d="M569 178q57 0 103 19t76 51t50.5 74t29 86.5t8.5 91.5q0 59 -14.5 113.5t-44.5 102.5t-83.5 76.5t-124.5 28.5t-124.5 -28.5t-84 -76t-45 -102.5t-14.5 -114t14.5 -114t45 -103t84 -76.5t124.5 -28.5zM569 1024q106 0 192 -31.5t142.5 -83t95.5 -120.5t55.5 -141.5
t16.5 -147.5t-16.5 -147.5t-55.5 -141.5t-95.5 -121t-142.5 -83.5t-192 -31.5t-192.5 31.5t-143.5 83.5t-95.5 121t-55 141.5t-16.5 147.5t16.5 147.5t55 141.5t95.5 120.5t143.5 83t192.5 31.5zM848 1499l-166 -321h-229l145 321h250z" />
    <glyph glyph-name="ocircumflex" unicode="&#xf4;" horiz-adv-x="1136" 
d="M569 178q57 0 103 19t76 51t50.5 74t29 86.5t8.5 91.5q0 59 -14.5 113.5t-44.5 102.5t-83.5 76.5t-124.5 28.5t-124.5 -28.5t-84 -76t-45 -102.5t-14.5 -114t14.5 -114t45 -103t84 -76.5t124.5 -28.5zM569 1024q106 0 192 -31.5t142.5 -83t95.5 -120.5t55.5 -141.5
t16.5 -147.5t-16.5 -147.5t-55.5 -141.5t-95.5 -121t-142.5 -83.5t-192 -31.5t-192.5 31.5t-143.5 83.5t-95.5 121t-55 141.5t-16.5 147.5t16.5 147.5t55 141.5t95.5 120.5t143.5 83t192.5 31.5zM700 1499l189 -272h-232l-102 145h-10l-103 -145h-231l188 272h301z" />
    <glyph glyph-name="odieresis" unicode="&#xf6;" horiz-adv-x="1136" 
d="M569 178q57 0 103 19t76 51t50.5 74t29 86.5t8.5 91.5q0 59 -14.5 113.5t-44.5 102.5t-83.5 76.5t-124.5 28.5t-124.5 -28.5t-84 -76t-45 -102.5t-14.5 -114t14.5 -114t45 -103t84 -76.5t124.5 -28.5zM569 1024q106 0 192 -31.5t142.5 -83t95.5 -120.5t55.5 -141.5
t16.5 -147.5t-16.5 -147.5t-55.5 -141.5t-95.5 -121t-142.5 -83.5t-192 -31.5t-192.5 31.5t-143.5 83.5t-95.5 121t-55 141.5t-16.5 147.5t16.5 147.5t55 141.5t95.5 120.5t143.5 83t192.5 31.5zM362 1233q-57 0 -98 39t-41 94t41 94t98 39q52 0 93 -39.5t41 -93.5
t-41 -93.5t-93 -39.5zM772 1233q-56 0 -96.5 39t-40.5 94t40.5 94t96.5 39q53 0 93 -39t40 -94t-40 -94t-93 -39z" />
    <glyph glyph-name="divide" unicode="&#xf7;" horiz-adv-x="1128" 
d="M152 723h825v-223h-825v223zM565 121q-60 0 -102.5 39.5t-42.5 97.5t42.5 97.5t102.5 39.5q55 0 96 -40t41 -97t-41 -97t-96 -40zM565 827q-60 0 -102.5 40.5t-42.5 97.5q0 58 42.5 97.5t102.5 39.5q55 0 96 -40t41 -97q0 -56 -41 -97t-96 -41z" />
    <glyph glyph-name="oslash" unicode="&#xf8;" horiz-adv-x="1136" 
d="M569 178q57 0 103 19t76 51t50.5 74t29 86.5t8.5 91.5q0 59 -14.5 113.5t-44.5 102.5t-83.5 76.5t-124.5 28.5t-124.5 -28.5t-84 -76t-45 -102.5t-14.5 -114t14.5 -114t45 -103t84 -76.5t124.5 -28.5zM569 1024q106 0 192 -31.5t142.5 -83t95.5 -120.5t55.5 -141.5
t16.5 -147.5t-16.5 -147.5t-55.5 -141.5t-95.5 -121t-142.5 -83.5t-192 -31.5t-192.5 31.5t-143.5 83.5t-95.5 121t-55 141.5t-16.5 147.5t16.5 147.5t55 141.5t95.5 120.5t143.5 83t192.5 31.5zM1038 1020l-741 -1040h-195l740 1040h196z" />
    <glyph glyph-name="uacute" unicode="&#xfa;" 
d="M100 428q0 -63 18.5 -129.5t55 -130.5t100 -113t144.5 -69q39 -9 82 -10t88 6.5t87 27.5t78.5 49.5t65 75.5t43.5 103h37q-55 -119 -55 -209v-29h274v999h-274v-311q0 -87 -6 -252q-3 -51 -18 -93t-43 -77.5t-77 -54t-114 -14.5q-109 6 -160 75.5t-51 169.5v557h-275
v-571zM887 1499l-166 -321h-229l145 321h250z" />
    <glyph glyph-name="ucircumflex" unicode="&#xfb;" 
d="M100 428q0 -63 18.5 -129.5t55 -130.5t100 -113t144.5 -69q39 -9 82 -10t88 6.5t87 27.5t78.5 49.5t65 75.5t43.5 103h37q-55 -119 -55 -209v-29h274v999h-274v-311q0 -87 -6 -252q-3 -51 -18 -93t-43 -77.5t-77 -54t-114 -14.5q-109 6 -160 75.5t-51 169.5v557h-275
v-571zM772 1497l189 -272h-232l-102 145h-11l-102 -145h-231l188 272h301z" />
    <glyph glyph-name="udieresis" unicode="&#xfc;" 
d="M100 428q0 -63 18.5 -129.5t55 -130.5t100 -113t144.5 -69q39 -9 82 -10t88 6.5t87 27.5t78.5 49.5t65 75.5t43.5 103h37q-55 -119 -55 -209v-29h274v999h-274v-311q0 -87 -6 -252q-3 -51 -18 -93t-43 -77.5t-77 -54t-114 -14.5q-109 6 -160 75.5t-51 169.5v557h-275
v-571zM422 1233q-57 0 -98 39t-41 94t41 94t98 39q52 0 92.5 -39.5t40.5 -93.5t-40.5 -93.5t-92.5 -39.5zM831 1233q-56 0 -96.5 39t-40.5 94t40.5 94t96.5 39q53 0 93.5 -39t40.5 -94t-40.5 -94t-93.5 -39z" />
    <glyph glyph-name="yacute" unicode="&#xfd;" horiz-adv-x="1091" 
d="M602 395q-17 -43 -27 -79.5t-11 -51.5l-1 -16h-35q0 51 -39 147l-213 604h-264l348 -999h109l-94 -266q-9 -30 -32.5 -51t-61.5 -21h-248v-231h235q138 0 225.5 67t120.5 164l465 1337h-264zM817 1499l-166 -321h-229l145 321h250z" />
    <glyph glyph-name="ydieresis" unicode="&#xff;" horiz-adv-x="1091" 
d="M602 395q-17 -43 -27 -79.5t-11 -51.5l-1 -16h-35q0 51 -39 147l-213 604h-264l348 -999h109l-94 -266q-9 -30 -32.5 -51t-61.5 -21h-248v-231h235q138 0 225.5 67t120.5 164l465 1337h-264zM346 1233q-57 0 -98 39t-41 94t41 94t98 39q52 0 92.5 -39.5t40.5 -93.5
t-40.5 -93.5t-92.5 -39.5zM756 1233q-56 0 -97 39t-41 94t41 94t97 39q53 0 93 -39t40 -94t-40 -94t-93 -39z" />
    <glyph glyph-name="Ccaron" unicode="&#x10c;" horiz-adv-x="1492" 
d="M1128 436q-18 -36 -45 -69.5t-69 -68t-105 -55t-137 -20.5q-87 0 -159 29.5t-120 79t-81 114.5t-47.5 133.5t-14.5 139.5q0 70 14.5 137.5t47.5 132t81 113.5t120.5 78.5t160.5 29.5q73 0 135.5 -20.5t104.5 -54.5t69.5 -68t44.5 -70h299q-10 30 -23.5 62.5t-41.5 79.5
t-62 89t-86.5 85t-114 74t-146 51t-179.5 20q-144 0 -262.5 -44.5t-198 -117.5t-134 -170.5t-79 -200t-24.5 -208.5t24.5 -208.5t79 -200t134 -171t198.5 -118t262 -44.5q95 0 179.5 20t146 51t114 74t86.5 85t62 89t41.5 79.5t23.5 62.5h-299zM625 1591l-189 273h232
l102 -148h10l103 148h231l-188 -273h-301z" />
    <glyph glyph-name="ccaron" unicode="&#x10d;" horiz-adv-x="1112" 
d="M764 340q-22 -47 -69.5 -82t-123.5 -35q-60 0 -106.5 25t-72.5 66.5t-39 88.5t-13 97t13 97t39 88t72.5 66t106.5 25q76 0 124.5 -36t70.5 -83h291q-15 56 -40 106.5t-66 99t-93.5 83.5t-126.5 56.5t-160 21.5q-107 0 -194 -31.5t-143.5 -83t-95.5 -120.5t-55.5 -141
t-16.5 -148t16.5 -148t55.5 -141t95.5 -121t143.5 -83.5t194 -31.5q86 0 160 21t126.5 55.5t93.5 82.5t66 98.5t40 107.5h-293zM418 1227l-189 272h232l102 -147h10l103 147h231l-188 -272h-301z" />
    <glyph glyph-name="Dcaron" unicode="&#x10e;" horiz-adv-x="1470" 
d="M655 256q217 0 341 125.5t124 335.5q0 211 -124.5 340t-340.5 129h-225v-930h225zM1395 717q0 -170 -53 -305.5t-149.5 -225.5t-231.5 -138t-299 -48h-506v1434h506q215 0 379 -82t259 -246t95 -389zM500 1591l-189 273h232l102 -148h10l103 148h231l-188 -273h-301z" />
    <glyph glyph-name="dcaron" unicode="&#x10f;" horiz-adv-x="1445" 
d="M340 500q0 -125 74.5 -201t185.5 -76q113 0 186.5 76t73.5 201t-74.5 200.5t-185.5 75.5t-185.5 -75.5t-74.5 -200.5zM66 500q0 77 15.5 150t51 141.5t87 119.5t128.5 82t170 31q236 0 342 -197h37q-37 107 -37 244v363h275v-1434h-275v10q0 35 9 75t19 63l9 22h-37
q-104 -195 -350 -195q-91 0 -166 31t-125.5 82.5t-85.5 120t-51 141.5t-16 150zM1503 1434l-26 -572h-222l-26 572h274z" />
    <glyph glyph-name="Ebreve" unicode="&#x114;" horiz-adv-x="1175" 
d="M1073 1434v-248h-643v-334h576v-242h-576v-362h643v-248h-917v1434h917zM903 1864q0 -53 -16 -101.5t-49 -90.5t-91.5 -67.5t-134.5 -25.5q-75 0 -132.5 25.5t-90.5 67.5t-49 91t-16 101h184q0 -42 26.5 -75.5t77.5 -33.5q54 0 80.5 33t26.5 76h184z" />
    <glyph glyph-name="Ecaron" unicode="&#x11a;" horiz-adv-x="1175" 
d="M1073 1434v-248h-643v-334h576v-242h-576v-362h643v-248h-917v1434h917zM463 1591l-189 273h232l102 -148h10l103 148h231l-188 -273h-301z" />
    <glyph glyph-name="ecaron" unicode="&#x11b;" horiz-adv-x="1140" 
d="M571 801q-55 0 -99.5 -19t-72.5 -50t-45 -64.5t-24 -69.5l483 -2q-7 35 -23.5 69t-44.5 65.5t-73 51t-101 19.5zM322 438q3 -28 11 -57.5t27 -63t46 -59t69.5 -42.5t95.5 -17q157 0 217 137h267q-10 -40 -27 -81.5t-55 -94t-88.5 -91.5t-132.5 -66.5t-181 -27.5
q-106 0 -193 31.5t-144 83.5t-95.5 121t-55.5 141.5t-17 147.5q0 76 16.5 148t55.5 141t95.5 120.5t143.5 83t194 31.5q133 0 235 -48t162 -129.5t87 -186t18 -222.5h-751zM416 1227l-189 272h232l102 -147h10l103 147h231l-188 -272h-301z" />
    <glyph glyph-name="Ibreve" unicode="&#x12c;" horiz-adv-x="585" 
d="M156 1434h274v-1434h-274v1434zM582 1860q0 -53 -16 -101.5t-49 -90.5t-91.5 -67.5t-134.5 -25.5q-75 0 -133 25.5t-90.5 67.5t-49 91t-16.5 101h184q0 -42 27 -75.5t78 -33.5q54 0 80 33t26 76h185z" />
    <glyph glyph-name="Idotaccent" unicode="&#x130;" horiz-adv-x="585" 
d="M156 1434h274v-1434h-274v1434zM297 1593q-57 0 -98 39t-41 94t41 94.5t98 39.5q52 0 92.5 -39.5t40.5 -94.5q0 -54 -40.5 -93.5t-92.5 -39.5z" />
    <glyph glyph-name="Lacute" unicode="&#x139;" horiz-adv-x="1118" 
d="M430 1434v-1186h647v-248h-921v1434h274zM571 1860l-165 -322h-230l146 322h249z" />
    <glyph glyph-name="lacute" unicode="&#x13a;" horiz-adv-x="512" 
d="M111 1434h274v-1434h-274v1434zM541 1864l-166 -322h-230l146 322h250z" />
    <glyph glyph-name="Lcaron" unicode="&#x13d;" horiz-adv-x="1118" 
d="M430 1434v-1186h647v-248h-921v1434h274zM877 1434l-27 -572h-221l-27 572h275z" />
    <glyph glyph-name="lcaron" unicode="&#x13e;" horiz-adv-x="700" 
d="M111 1434h274v-1434h-274v1434zM758 1434l-27 -572h-221l-27 572h275z" />
    <glyph glyph-name="Lslash" unicode="&#x141;" horiz-adv-x="1159" 
d="M471 1434v-1186h647v-248h-921v1434h274zM61 635l623 321v-208l-623 -322v209z" />
    <glyph glyph-name="lslash" unicode="&#x142;" horiz-adv-x="491" 
d="M111 1434h274v-1434h-274v1434zM485 776l-481 -229v207l481 229v-207z" />
    <glyph glyph-name="Ncaron" unicode="&#x147;" horiz-adv-x="1642" 
d="M1212 522q0 -67 4 -135.5t8 -103.5l5 -35h-35l-614 1186h-424v-1434h274v920q0 64 -4 130.5t-8 101.5l-4 34h37l612 -1186h424v1434h-275v-912zM666 1591l-189 273h232l102 -148h10l103 148h231l-188 -273h-301z" />
    <glyph glyph-name="ncaron" unicode="&#x148;" 
d="M1128 571q0 63 -18.5 129.5t-54.5 130.5t-99.5 113.5t-144.5 69.5q-39 9 -82 10t-88 -6.5t-87.5 -27.5t-79 -49.5t-65.5 -75.5t-44 -103h-37q57 119 57 209v28h-274v-999h274v311q0 142 4 252q4 51 19 93t43.5 78t77 54.5t112.5 14.5q109 -6 161 -76t52 -170v-557h274
v571zM471 1227l-188 272h231l102 -147h11l102 147h232l-189 -272h-301z" />
    <glyph glyph-name="Ohungarumlaut" unicode="&#x150;" horiz-adv-x="1542" 
d="M770 223q87 0 158.5 29.5t119.5 79t81 114.5t48 133.5t15 139.5q0 88 -24.5 172t-73.5 157t-133 117.5t-191 44.5q-86 0 -158 -29.5t-119.5 -78.5t-80.5 -113.5t-47.5 -132t-14.5 -137.5q0 -71 14.5 -139.5t47.5 -133.5t80.5 -114.5t119 -79t158.5 -29.5zM772 1458
q143 0 261.5 -44.5t197 -118t133 -170.5t78.5 -200t24 -210q0 -105 -24 -207.5t-78.5 -199.5t-133 -170.5t-197 -118t-261.5 -44.5t-261.5 44.5t-197.5 118t-133.5 170.5t-79 199.5t-24.5 207.5q0 106 24.5 209.5t79 200.5t133.5 170.5t197.5 118t261.5 44.5zM1217 1864
l-166 -322h-230l146 322h250zM883 1864l-166 -322h-230l146 322h250z" />
    <glyph glyph-name="ohungarumlaut" unicode="&#x151;" horiz-adv-x="1136" 
d="M569 178q57 0 103 19t76 51t50.5 74t29 86.5t8.5 91.5q0 59 -14.5 113.5t-44.5 102.5t-83.5 76.5t-124.5 28.5t-124.5 -28.5t-84 -76t-45 -102.5t-14.5 -114t14.5 -114t45 -103t84 -76.5t124.5 -28.5zM569 1024q106 0 192 -31.5t142.5 -83t95.5 -120.5t55.5 -141.5
t16.5 -147.5t-16.5 -147.5t-55.5 -141.5t-95.5 -121t-142.5 -83.5t-192 -31.5t-192.5 31.5t-143.5 83.5t-95.5 121t-55 141.5t-16.5 147.5t16.5 147.5t55 141.5t95.5 120.5t143.5 83t192.5 31.5zM1016 1499l-166 -321h-229l145 321h250zM682 1499l-166 -321h-229l145 321
h250z" />
    <glyph glyph-name="racute" unicode="&#x155;" horiz-adv-x="921" 
d="M881 999q-167 -1 -282 -99t-161 -263h-37q37 184 37 274q0 42 -29 65t-73 23h-295v-247h119q37 0 37 -37v-715h274v332q0 61 13.5 119t45 113t77.5 96.5t117 66.5t157 25v247zM752 1499l-166 -321h-230l146 321h250z" />
    <glyph glyph-name="Rcaron" unicode="&#x158;" horiz-adv-x="1366" 
d="M817 852q78 0 126 47.5t48 118.5q0 72 -48 120t-126 48h-387v-334h387zM991 717q97 0 168.5 -71t71.5 -169v-477h-250v465q0 57 -40.5 97t-96.5 40h-418v-602h-270v1434h694q106 0 187 -27.5t130.5 -76.5t74 -112t24.5 -139q0 -66 -25.5 -123t-60.5 -92t-76.5 -60.5
t-69.5 -36.5t-43 -13v-37zM494 1591l-189 273h232l102 -148h10l103 148h231l-188 -273h-301z" />
    <glyph glyph-name="rcaron" unicode="&#x159;" horiz-adv-x="921" 
d="M881 999q-167 -1 -282 -99t-161 -263h-37q37 184 37 274q0 42 -29 65t-73 23h-295v-247h119q37 0 37 -37v-715h274v332q0 61 13.5 119t45 113t77.5 96.5t117 66.5t157 25v247zM307 1227l-188 272h231l103 -147h10l102 147h232l-189 -272h-301z" />
    <glyph glyph-name="Scaron" unicode="&#x160;" horiz-adv-x="1259" 
d="M1176 426q0 64 -17.5 118t-46 93t-73 71t-89.5 53t-105 38.5t-110 27.5t-114 19q-134 21 -200.5 63.5t-66.5 118.5q0 71 69 126.5t202 55.5q136 0 204 -55.5t68 -126.5v-10h274v10q0 62 -19 121.5t-61.5 116t-104.5 99t-155 68t-206 25.5t-206 -25.5t-154.5 -68t-104 -99
t-61.5 -116t-19 -121.5q0 -64 16.5 -118.5t43 -93.5t67 -72t80.5 -54.5t92.5 -39.5t94.5 -28t93 -20l38.5 -7t43.5 -8t44 -9t45.5 -11t41.5 -13.5t39.5 -16.5t32.5 -20t26.5 -25t16 -30t6.5 -36q0 -80 -70 -141.5t-206 -61.5q-71 0 -127 19t-88 49.5t-48 66t-16 72.5h-274
q0 -64 19.5 -127t62.5 -122.5t105.5 -105t156.5 -73t207 -27.5q141 0 251 41t174 107.5t96 144t32 158.5zM457 1591l-189 273h232l102 -148h10l103 148h231l-188 -273h-301z" />
    <glyph glyph-name="scaron" unicode="&#x161;" horiz-adv-x="1009" 
d="M958 322q0 84 -34.5 143t-89.5 88t-122 46t-134 23.5t-122 13.5t-89.5 24t-34.5 47q0 44 50 69t122 25q83 0 134.5 -26.5t51.5 -72.5v-16h250v16q0 62 -27 118.5t-78.5 103t-137.5 73.5t-195 27q-110 0 -196.5 -27.5t-138.5 -73.5t-79 -102.5t-27 -118.5q0 -72 27 -124
t71.5 -79t101 -45t115 -23.5t115 -13.5t101 -16t71.5 -30.5t27 -57.5q0 -57 -55 -85.5t-131 -28.5q-99 0 -154 31.5t-55 91.5h-250q0 -66 28 -127t82 -111t144.5 -79.5t204.5 -29.5q91 0 167 19.5t128.5 53t88.5 78t53 94t17 102.5zM344 1227l-188 272h231l102 -147h11
l102 147h232l-189 -272h-301z" />
    <glyph glyph-name="Tcaron" unicode="&#x164;" horiz-adv-x="1171" 
d="M1135 1434v-248h-412v-1186h-274v1186h-412v248h1098zM434 1587l-188 273h231l103 -148h10l102 148h232l-189 -273h-301z" />
    <glyph glyph-name="tcaron" unicode="&#x165;" horiz-adv-x="815" 
d="M203 332q0 -62 19.5 -119.5t58 -106t103.5 -77.5t148 -29h256v248h-227q-35 0 -59.5 25.5t-24.5 62.5v416h311v247h-311v435h-274v-435h-180v-247h180v-420zM844 1864l-27 -572h-221l-27 572h275z" />
    <glyph glyph-name="Uring" unicode="&#x16e;" horiz-adv-x="1468" 
d="M1057 608q0 -55 -11 -108t-36.5 -103.5t-62 -89t-91.5 -61.5t-121 -23q-82 0 -146.5 35t-101.5 92t-56 123t-19 135v826h-275v-828q0 -88 20.5 -174t67 -169.5t114 -146.5t170 -102t226.5 -39t226.5 39t169.5 102t113.5 146.5t66.5 169.5t20 174v828h-274v-826zM731 1700
q54 0 80.5 32t26.5 76t-26.5 76.5t-80.5 32.5q-53 0 -78.5 -32.5t-25.5 -76.5t25.5 -76t78.5 -32zM731 2083q74 0 131 -24.5t89 -65t47.5 -87.5t15.5 -98q0 -40 -9.5 -78t-31 -74t-53.5 -63t-80.5 -43t-108.5 -16q-74 0 -130 24t-87.5 65t-47 87.5t-15.5 97.5t15.5 98
t47 87.5t87.5 65t130 24.5z" />
    <glyph glyph-name="uring" unicode="&#x16f;" 
d="M100 428q0 -63 18.5 -129.5t55 -130.5t100 -113t144.5 -69q39 -9 82 -10t88 6.5t87 27.5t78.5 49.5t65 75.5t43.5 103h37q-55 -119 -55 -209v-29h274v999h-274v-311q0 -87 -6 -252q-3 -51 -18 -93t-43 -77.5t-77 -54t-114 -14.5q-109 6 -160 75.5t-51 169.5v557h-275
v-571zM618 1454q54 0 80.5 32.5t26.5 76.5t-26.5 76t-80.5 32q-53 0 -78.5 -32t-25.5 -76t25.5 -76.5t78.5 -32.5zM618 1837q60 0 108.5 -16t80.5 -43t53.5 -63t31 -74t9.5 -78q0 -51 -15.5 -98t-47.5 -87.5t-89 -65t-131 -24.5t-130 24.5t-87.5 65t-47 87.5t-15.5 98
t15.5 97.5t47 87.5t87.5 65t130 24z" />
    <glyph glyph-name="Uhungarumlaut" unicode="&#x170;" horiz-adv-x="1468" 
d="M1057 608q0 -55 -11 -108t-36.5 -103.5t-62 -89t-91.5 -61.5t-121 -23q-82 0 -146.5 35t-101.5 92t-56 123t-19 135v826h-275v-828q0 -88 20.5 -174t67 -169.5t114 -146.5t170 -102t226.5 -39t226.5 39t169.5 102t113.5 146.5t66.5 169.5t20 174v828h-274v-826z
M1182 1864l-166 -322h-230l146 322h250zM848 1864l-166 -322h-229l145 322h250z" />
    <glyph glyph-name="uhungarumlaut" unicode="&#x171;" 
d="M100 428q0 -63 18.5 -129.5t55 -130.5t100 -113t144.5 -69q39 -9 82 -10t88 6.5t87 27.5t78.5 49.5t65 75.5t43.5 103h37q-55 -119 -55 -209v-29h274v999h-274v-311q0 -87 -6 -252q-3 -51 -18 -93t-43 -77.5t-77 -54t-114 -14.5q-109 6 -160 75.5t-51 169.5v557h-275
v-571zM1057 1499l-166 -321h-229l145 321h250zM723 1499l-166 -321h-229l145 321h250z" />
    <glyph glyph-name="Ydieresis" unicode="&#x178;" horiz-adv-x="1298" 
d="M707 940q-13 -22 -22.5 -46t-12.5 -37l-4 -13h-37q-12 47 -41 96l-289 494h-281l492 -838v-596h274v594l492 840h-281zM444 1597q-57 0 -98 39.5t-41 94.5t41 94t98 39q52 0 93 -39.5t41 -93.5t-41 -94t-93 -40zM854 1597q-56 0 -96.5 39.5t-40.5 94.5t40.5 94t96.5 39
q53 0 93 -39t40 -94t-40 -94.5t-93 -39.5z" />
    <glyph glyph-name="Zcaron" unicode="&#x17d;" horiz-adv-x="1275" 
d="M406 279q7 4 20.5 12.5t53 45.5t77.5 85l629 811v201h-1086v-248h742v-33q-6 -2 -17.5 -8.5t-46.5 -37.5t-71 -75l-648 -831v-201h1149v248h-802v31zM483 1591l-188 273h231l103 -148h10l102 148h232l-189 -273h-301z" />
    <glyph glyph-name="zcaron" unicode="&#x17e;" horiz-adv-x="1026" 
d="M582 739q-79 -22 -152 -104q-26 -27 -115.5 -129.5t-166.5 -191.5l-76 -89v-225h876v223h-542v37q9 3 18 7t19.5 12t18 14.5t20.5 19t19.5 19t22 22.5t21.5 23l370 397v225h-811v-223h478v-37zM375 1227l-189 272h232l102 -147h10l103 147h231l-188 -272h-301z" />
    <glyph glyph-name="Oslashacute" unicode="&#x1fe;" horiz-adv-x="1566" 
d="M784 223q87 0 158.5 29.5t119.5 79t81 114.5t48 133.5t15 139.5q0 88 -24.5 172t-73.5 157t-133 117.5t-191 44.5t-190.5 -44.5t-132 -117.5t-72.5 -157t-24 -172q0 -71 14.5 -139.5t47 -133.5t80 -114.5t119 -79t158.5 -29.5zM786 1458q143 0 261.5 -44.5t197.5 -118
t133.5 -170.5t78.5 -200t24 -210q0 -105 -24 -207.5t-78.5 -199.5t-133.5 -170.5t-197.5 -118t-261.5 -44.5t-261.5 44.5t-197.5 118t-133.5 170.5t-79 199.5t-24.5 207.5q0 106 24.5 209.5t79 200.5t133.5 170.5t197.5 118t261.5 44.5zM1483 1454l-1108 -1474h-291
l1110 1474h289zM1073 1864l-166 -322h-229l145 322h250z" />
    <glyph glyph-name="oslashacute" unicode="&#x1ff;" horiz-adv-x="1136" 
d="M569 178q57 0 103 19t76 51t50.5 74t29 86.5t8.5 91.5q0 59 -14.5 113.5t-44.5 102.5t-83.5 76.5t-124.5 28.5t-124.5 -28.5t-84 -76t-45 -102.5t-14.5 -114t14.5 -114t45 -103t84 -76.5t124.5 -28.5zM569 1024q106 0 192 -31.5t142.5 -83t95.5 -120.5t55.5 -141.5
t16.5 -147.5t-16.5 -147.5t-55.5 -141.5t-95.5 -121t-142.5 -83.5t-192 -31.5t-192.5 31.5t-143.5 83.5t-95.5 121t-55 141.5t-16.5 147.5t16.5 147.5t55 141.5t95.5 120.5t143.5 83t192.5 31.5zM1038 1020l-741 -1040h-195l740 1040h196zM858 1499l-166 -321h-229l145 321
h250z" />
    <glyph glyph-name="circumflex" unicode="&#x2c6;" horiz-adv-x="841" 
d="M571 1864l189 -273h-232l-102 146h-10l-103 -146h-231l188 273h301z" />
    <glyph glyph-name="caron" unicode="&#x2c7;" horiz-adv-x="841" 
d="M270 1591l-188 273h231l103 -148h10l102 148h232l-189 -273h-301z" />
    <glyph glyph-name="breve" unicode="&#x2d8;" horiz-adv-x="751" 
d="M666 1864q0 -53 -16 -101.5t-49 -90.5t-91.5 -67.5t-134.5 -25.5q-75 0 -133 25.5t-90.5 67.5t-49 91t-16.5 101h184q0 -42 27 -75.5t78 -33.5q54 0 80 33t26 76h185z" />
    <glyph glyph-name="dotaccent" unicode="&#x2d9;" horiz-adv-x="444" 
d="M225 1597q-57 0 -98 39.5t-41 94.5t41 94t98 39q52 0 92.5 -39.5t40.5 -93.5q0 -55 -40.5 -94.5t-92.5 -39.5z" />
    <glyph glyph-name="ring" unicode="&#x2da;" horiz-adv-x="727" 
d="M362 1700q54 0 80.5 32t26.5 76t-26.5 76.5t-80.5 32.5q-53 0 -78.5 -32.5t-25.5 -76.5t25.5 -76t78.5 -32zM362 2083q74 0 131 -24.5t89 -65t47.5 -87.5t15.5 -98q0 -40 -9.5 -78t-31 -74t-53.5 -63t-80.5 -43t-108.5 -16q-74 0 -130 24t-87.5 65t-47 87.5t-15.5 97.5
t15.5 98t47 87.5t87.5 65t130 24.5z" />
    <glyph glyph-name="hungarumlaut" unicode="&#x2dd;" horiz-adv-x="911" 
d="M811 1864l-166 -322h-229l145 322h250zM477 1864l-166 -322h-229l145 322h250z" />
    <glyph glyph-name="endash" unicode="&#x2013;" horiz-adv-x="1296" 
d="M127 668h1042v-224h-1042v224z" />
    <glyph glyph-name="emdash" unicode="&#x2014;" horiz-adv-x="1990" 
d="M127 668h1737v-224h-1737v224z" />
    <glyph glyph-name="quoteleft" unicode="&#x2018;" horiz-adv-x="614" 
d="M168 1305q0 -63 46.5 -108.5t107.5 -45.5q66 0 113.5 45t47.5 109t-47.5 108.5t-113.5 44.5q-61 0 -107.5 -45t-46.5 -108zM279 1452q-5 59 36 108.5t117 67.5v88q-157 -14 -241 -140q-68 -102 -57 -224q10 -115 88 -169q43 -30 100 -32z" />
    <glyph glyph-name="quoteright" unicode="&#x2019;" horiz-adv-x="614" 
d="M446 1698q0 63 -46 108t-107 45q-67 0 -114.5 -44.5t-47.5 -108.5t48 -109t114 -45q61 0 107 45t46 109zM336 1550q5 -59 -36.5 -108.5t-117.5 -67.5v-88q157 14 241 140q69 102 58 224q-10 115 -88 169q-43 30 -100 32z" />
    <glyph glyph-name="quotedblleft" unicode="&#x201c;" horiz-adv-x="1013" 
d="M567 1305q0 -63 46.5 -108.5t107.5 -45.5q66 0 114 45t48 109t-47.5 108.5t-114.5 44.5q-61 0 -107.5 -45t-46.5 -108zM678 1452q-5 59 36 108.5t117 67.5v88q-157 -14 -241 -140q-68 -102 -57 -224q10 -115 88 -169q43 -30 100 -32zM168 1305q0 -63 46.5 -108.5
t107.5 -45.5q66 0 113.5 45t47.5 109t-47.5 108.5t-113.5 44.5q-61 0 -107.5 -45t-46.5 -108zM279 1452q-5 59 36 108.5t117 67.5v88q-157 -14 -241 -140q-68 -102 -57 -224q10 -115 88 -169q43 -30 100 -32z" />
    <glyph glyph-name="quotedblright" unicode="&#x201d;" horiz-adv-x="1013" 
d="M848 1698q0 63 -46.5 108t-107.5 45q-67 0 -114.5 -44.5t-47.5 -108.5t48 -109t114 -45q61 0 107.5 45.5t46.5 108.5zM737 1550q5 -59 -36 -108.5t-117 -67.5v-88q157 14 241 140q68 102 57 224q-10 115 -88 169q-43 30 -100 32zM446 1698q0 63 -46 108t-107 45
q-67 0 -114.5 -44.5t-47.5 -108.5t48 -109t114 -45q61 0 107 45t46 109zM336 1550q5 -59 -36.5 -108.5t-117.5 -67.5v-88q157 14 241 140q69 102 58 224q-10 115 -88 169q-43 30 -100 32z" />
    <glyph glyph-name="quotedblbase" unicode="&#x201e;" horiz-adv-x="1015" 
d="M848 129q0 63 -46.5 108.5t-107.5 45.5q-66 0 -114 -45t-48 -109t48 -109t114 -45q61 0 107.5 45.5t46.5 108.5zM737 -18q5 -59 -36 -109t-117 -68v-88q156 14 241 140q68 102 58 224q-11 116 -89 170q-43 30 -100 32zM446 129q0 64 -46 109t-107 45q-66 0 -114 -45
t-48 -109t48 -109t114 -45q61 0 107 45t46 109zM336 -18q5 -59 -36.5 -109t-117.5 -68v-88q156 14 241 140q69 102 58 224q-10 116 -88 170q-43 30 -100 32z" />
    <glyph glyph-name="bullet" unicode="&#x2022;" horiz-adv-x="757" 
d="M383 250q-108 0 -186 74t-78 178q0 105 78 179.5t186 74.5q102 0 179 -74.5t77 -179.5q0 -103 -77 -177.5t-179 -74.5z" />
    <glyph glyph-name="guilsinglleft" unicode="&#x2039;" horiz-adv-x="894" 
d="M813 0q-340 399 -344 401q-27 28 -55.5 47.5t-45 26t-24.5 6.5v35q12 0 49 23t76 63l344 397h-297l-434 -499l434 -500h297z" />
    <glyph glyph-name="guilsinglright" unicode="&#x203a;" horiz-adv-x="890" 
d="M82 0h293l434 500l-434 499h-293q340 -393 344 -397q38 -40 74 -63t49 -23v-35q-8 0 -24.5 -6.5t-44.5 -26t-54 -47.5z" />
    <glyph glyph-name="Euro" unicode="&#x20ac;" horiz-adv-x="1566" 
d="M1180 436q-18 -36 -45 -69.5t-69.5 -68t-105.5 -55t-137 -20.5q-87 0 -159 29.5t-120 79t-81 114.5t-47.5 133.5t-14.5 139.5q0 88 24.5 172t73 157t132.5 117.5t192 44.5q74 0 137 -20.5t105.5 -54.5t70 -68t44.5 -70h299q-10 31 -24 63t-42 79.5t-62 88.5t-86.5 85
t-114 74.5t-146 50.5t-179.5 20q-144 0 -262.5 -44.5t-198 -117.5t-134 -170.5t-79 -200t-24.5 -208.5t24.5 -208.5t79 -200t134 -171t198.5 -118t262 -44.5q95 0 179.5 20t146 50.5t114 74.5t86.5 85t62 88.5t42 79.5t24 63h-299zM37 930v-158h944v158h-944zM37 662v-158
h946v158h-946z" />
    <glyph glyph-name="uni2117" unicode="&#x2117;" horiz-adv-x="952" 
d="M530 1122q23 0 37.5 12t14.5 33t-14.5 32t-37.5 11h-108v-88h108zM666 1167q0 -56 -36.5 -88t-88.5 -32h-117v-199h-86v438h203q50 0 87.5 -31.5t37.5 -87.5zM475 762q81 0 143.5 28t97.5 74t52.5 98t17.5 107t-17.5 107t-52.5 98t-97.5 74t-143.5 28t-143 -28t-96.5 -74
t-52 -98t-17.5 -107t17.5 -107t52 -98t96.5 -74t143 -28zM475 1458q104 0 183 -35t123.5 -93t66.5 -124t22 -137t-22 -137t-66.5 -124t-123.5 -93t-183 -35q-103 0 -182 35t-123 93t-66 124t-22 137t22 137t66 124t123 93t182 35z" />
    <glyph glyph-name="trademark" unicode="&#x2122;" horiz-adv-x="1292" 
d="M483 1434v-93h-164v-479h-102v479h-166v93h432zM1169 1434v-572h-100v416l-166 -416h-158l-161 416v-416h-101v572h140l188 -480h27l192 480h139z" />
    <glyph glyph-name="minus" unicode="&#x2212;" horiz-adv-x="1191" 
d="M152 801h888v-226h-888v226z" />
    <glyph glyph-name="approxequal" unicode="&#x2248;" horiz-adv-x="1236" 
d="M860 1092q0 -32 -0.5 -48.5t-4 -39.5t-10.5 -34t-20.5 -19.5t-33.5 -8.5q-39 0 -115 36t-159.5 72.5t-139.5 36.5q-36 0 -66 -8.5t-51.5 -21.5t-39 -35.5t-28.5 -43.5t-19 -53.5t-12 -57.5t-6 -63t-2.5 -62t-0.5 -62h225q0 29 0.5 41t2 34t6 31.5t11.5 21.5t19.5 16.5
t29.5 4.5q31 0 85.5 -22.5t105.5 -50t113.5 -50t107.5 -22.5q46 0 82 14t59.5 34.5t40.5 55.5t25.5 66t13 78.5t5.5 79t1 80.5h-225zM860 623q0 -33 -0.5 -49.5t-4 -39.5t-10.5 -34t-20.5 -19t-33.5 -8q-39 0 -115 35.5t-159.5 71.5t-139.5 36q-36 0 -66 -8.5t-51.5 -21.5
t-39 -35.5t-28.5 -43.5t-19 -53.5t-12 -57.5t-6 -63t-2.5 -62t-0.5 -62h225q0 35 0.5 50t3.5 38.5t10 33.5t21 18.5t34 8.5q31 0 85.5 -22.5t105.5 -49t113.5 -49t107.5 -22.5q46 0 82 14t59.5 34.5t40.5 55.5t25.5 66t13 78.5t5.5 79t1 80.5h-225z" />
    <glyph glyph-name="notequal" unicode="&#x2260;" horiz-adv-x="1136" 
d="M156 586h825v-224h-825v224zM156 999h825v-223h-825v223zM778 1145h191l-613 -930h-190z" />
    <glyph glyph-name="lessequal" unicode="&#x2264;" horiz-adv-x="1128" 
d="M977 223h-825v-223h825v223zM977 537v-240l-825 297v332l825 295v-238q-453 -166 -488 -176l-131 -37v-25q76 -12 131 -32z" />
    <glyph glyph-name="greaterequal" unicode="&#x2265;" horiz-adv-x="1128" 
d="M152 223h823v-223h-823v223zM152 537q454 166 487 176q25 8 58 16t53 12l20 4v23q-78 19 -131 37l-487 176v240l825 -295v-332l-825 -297v240z" />
    <glyph glyph-name="O.ss01" horiz-adv-x="1630" 
d="M815 -25q-151 0 -288.5 59t-236.5 158.5t-157.5 237t-58.5 289.5q0 150 58.5 287t157.5 236t236.5 157.5t288.5 58.5q150 0 287.5 -58.5t236.5 -157.5t158 -236t59 -287q0 -202 -99.5 -373.5t-270 -271t-371.5 -99.5zM815 223q127 0 234.5 66.5t170 180.5t62.5 249
q0 133 -62.5 246t-170 179t-234.5 66q-194 0 -330.5 -144t-136.5 -347q0 -135 62 -249t169.5 -180.5t235.5 -66.5z" />
    <glyph glyph-name="Oacute.ss01" horiz-adv-x="1630" 
d="M1094 1864l-166 -322h-230l146 322h250zM815 -25q-151 0 -288.5 59t-236.5 158.5t-157.5 237t-58.5 289.5q0 150 58.5 287t157.5 236t236.5 157.5t288.5 58.5q150 0 287.5 -58.5t236.5 -157.5t158 -236t59 -287q0 -202 -99.5 -373.5t-270 -271t-371.5 -99.5zM815 223
q127 0 234.5 66.5t170 180.5t62.5 249q0 133 -62.5 246t-170 179t-234.5 66q-194 0 -330.5 -144t-136.5 -347q0 -135 62 -249t169.5 -180.5t235.5 -66.5z" />
    <glyph glyph-name="Ocircumflex.ss01" horiz-adv-x="1630" 
d="M952 1864l189 -273h-232l-102 146h-10l-103 -146h-231l188 273h301zM815 -25q-151 0 -288.5 59t-236.5 158.5t-157.5 237t-58.5 289.5q0 150 58.5 287t157.5 236t236.5 157.5t288.5 58.5q150 0 287.5 -58.5t236.5 -157.5t158 -236t59 -287q0 -202 -99.5 -373.5t-270 -271
t-371.5 -99.5zM815 223q127 0 234.5 66.5t170 180.5t62.5 249q0 133 -62.5 246t-170 179t-234.5 66q-194 0 -330.5 -144t-136.5 -347q0 -135 62 -249t169.5 -180.5t235.5 -66.5z" />
    <glyph glyph-name="Odieresis.ss01" horiz-adv-x="1630" 
d="M604 1597q-57 0 -98 39.5t-41 94.5t41 94t98 39q52 0 92.5 -39.5t40.5 -93.5q0 -55 -40.5 -94.5t-92.5 -39.5zM1014 1597q-56 0 -96.5 39.5t-40.5 94.5t40.5 94t96.5 39q53 0 93 -39t40 -94t-40 -94.5t-93 -39.5zM815 -25q-151 0 -288.5 59t-236.5 158.5t-157.5 237
t-58.5 289.5q0 150 58.5 287t157.5 236t236.5 157.5t288.5 58.5q150 0 287.5 -58.5t236.5 -157.5t158 -236t59 -287q0 -202 -99.5 -373.5t-270 -271t-371.5 -99.5zM815 223q127 0 234.5 66.5t170 180.5t62.5 249q0 133 -62.5 246t-170 179t-234.5 66q-194 0 -330.5 -144
t-136.5 -347q0 -135 62 -249t169.5 -180.5t235.5 -66.5z" />
    <glyph glyph-name="Ohungarumlaut.ss01" horiz-adv-x="1630" 
d="M1241 1864l-166 -322h-229l145 322h250zM907 1864l-166 -322h-229l145 322h250zM815 -25q-151 0 -288.5 59t-236.5 158.5t-157.5 237t-58.5 289.5q0 150 58.5 287t157.5 236t236.5 157.5t288.5 58.5q150 0 287.5 -58.5t236.5 -157.5t158 -236t59 -287
q0 -202 -99.5 -373.5t-270 -271t-371.5 -99.5zM815 223q127 0 234.5 66.5t170 180.5t62.5 249q0 133 -62.5 246t-170 179t-234.5 66q-194 0 -330.5 -144t-136.5 -347q0 -135 62 -249t169.5 -180.5t235.5 -66.5z" />
    <glyph glyph-name="Oslash.ss01" horiz-adv-x="1677" 
d="M1583 1454l-1198 -1474h-291l1200 1474h289zM838 -25q-202 0 -372.5 99.5t-270 270.5t-99.5 374q0 150 58.5 287t158 236t237 157.5t288.5 58.5q150 0 287.5 -58.5t236.5 -157.5t158 -236t59 -287q0 -202 -99.5 -373.5t-270 -271t-371.5 -99.5zM838 223q127 0 234.5 66.5
t170 180.5t62.5 249q0 133 -62.5 246t-170 179t-234.5 66q-194 0 -330.5 -144t-136.5 -347q0 -135 62 -249t169.5 -180.5t235.5 -66.5z" />
    <glyph glyph-name="Oslashacute.ss01" horiz-adv-x="1677" 
d="M1116 1864l-166 -322h-229l145 322h250zM1583 1454l-1198 -1474h-291l1200 1474h289zM838 -25q-202 0 -372.5 99.5t-270 270.5t-99.5 374q0 150 58.5 287t158 236t237 157.5t288.5 58.5q150 0 287.5 -58.5t236.5 -157.5t158 -236t59 -287q0 -202 -99.5 -373.5t-270 -271
t-371.5 -99.5zM838 223q127 0 234.5 66.5t170 180.5t62.5 249q0 133 -62.5 246t-170 179t-234.5 66q-194 0 -330.5 -144t-136.5 -347q0 -135 62 -249t169.5 -180.5t235.5 -66.5z" />
    <glyph glyph-name="A_A.dlig" horiz-adv-x="2838" 
d="M868 1434l512 -1434h-245l-103 299h-661l-105 -299h-246l512 1434h336zM451 522h501l-233 664h-37zM2304 1434l512 -1434h-246l-102 299h-662l-104 -299h-246l512 1434h336zM1886 522h502l-234 664h-36zM895 522h1053v-223h-1053v223z" />
    <glyph glyph-name="A_E.dlig" horiz-adv-x="2029" 
d="M1284 1434v-1434h-274v299h-547l-172 -299h-271l836 1434h428zM590 522h420v664h-39zM1927 1434v-248h-643v-334h576v-242h-576v-362h643v-248h-917v1434h917z" />
    <glyph glyph-name="A_V.dlig" horiz-adv-x="2052" 
d="M1743 1434h289l-471 -1434h-435l-493 1434h270l395 -1063q10 -27 17.5 -58t9.5 -48l2 -17h35q11 62 29 123zM868 1434l512 -1434h-245l-103 299h-661l-105 -299h-246l512 1434h336zM451 522h501l-233 664h-37z" />
    <glyph glyph-name="F_F.dlig" horiz-adv-x="2068" 
d="M1047 1186h-617v-334h502v-242h-502v-610h-274v1434h891v-248zM2009 1186h-616v-334h501v-242h-501v-610h-275v1434h891v-248zM985 1434h207v-248h-207v248z" />
    <glyph glyph-name="F_I.dlig" horiz-adv-x="1458" 
d="M1047 1186h-617v-334h502v-242h-502v-610h-274v1434h891v-248zM1028 1434h275v-1434h-275v1434z" />
    <glyph glyph-name="F_L.dlig" horiz-adv-x="2058" 
d="M1047 1186h-617v-334h502v-242h-502v-610h-274v1434h891v-248zM1372 1434v-1186h645v-248h-919v1434h274zM965 1434h247v-248h-247v248z" />
    <glyph glyph-name="H_E.dlig" horiz-adv-x="2070" 
d="M1325 1434v-1434h-274v608h-621v-608h-274v1434h274v-576l621 -2v578h274zM1968 1434v-248h-643v-334h576v-242h-576v-362h643v-248h-917v1434h917z" />
    <glyph glyph-name="N_T.dlig" horiz-adv-x="2609" 
d="M1212 1434h275v-1434h-424l-612 1186h-37q16 -121 16 -266v-920h-274v1434h424l614 -1186h35q-17 124 -17 274v912zM2572 1434v-248h-411v-1186h-275v1186h-411v248h1097z" />
    <glyph glyph-name="T_E.dlig" horiz-adv-x="1236" 
d="M1135 1434v-248h-412v-1186h-274v1186h-412v248h1098zM1135 1434v-195h-424v-401h356v-250h-356v-340h424v-248h-676v1434h676z" />
    <glyph glyph-name="T_T.dlig" horiz-adv-x="2269" 
d="M1135 1434v-248h-412v-1186h-274v1186h-412v248h1098zM2232 1434v-248h-411v-1186h-275v1186h-411v248h1097z" />
    <glyph glyph-name="U_B.dlig" horiz-adv-x="2256" 
d="M1057 1434h274v-828q0 -88 -20 -174t-66.5 -169.5t-113.5 -146.5t-169.5 -102t-226.5 -39t-226.5 39t-170 102t-114 146.5t-67 169.5t-20.5 174v828h275v-826q0 -69 19 -135t56 -123t101.5 -92t146.5 -35q66 0 121 23t91.5 61.5t62 89t36.5 103.5t11 108v826zM1655 248
q258 0 258 188q0 96 -68 142.5t-190 46.5h-324v-377h324zM1649 872q93 0 144.5 39.5t51.5 116.5q0 76 -52 117t-144 41h-318v-314h318zM2189 367q0 -80 -31 -143.5t-83 -104.5t-124 -68.5t-150 -39t-165 -11.5h-579v1434h573q125 0 229.5 -38t173 -121t68.5 -198
q0 -75 -27.5 -133.5t-75 -93t-101 -54.5t-115.5 -26v-37q56 -4 110.5 -18t109 -42.5t95.5 -69t66.5 -101.5t25.5 -135z" />
    <glyph glyph-name="U_D.dlig" horiz-adv-x="2371" 
d="M1057 1434h274v-828q0 -88 -20 -174t-66.5 -169.5t-113.5 -146.5t-169.5 -102t-226.5 -39t-226.5 39t-170 102t-114 146.5t-67 169.5t-20.5 174v828h275v-826q0 -69 19 -135t56 -123t101.5 -92t146.5 -35q66 0 121 23t91.5 61.5t62 89t36.5 103.5t11 108v826zM1556 256
q218 0 341.5 125.5t123.5 335.5q0 211 -124 340t-341 129h-225v-930h225zM2296 717q0 -170 -53 -305.5t-149.5 -225.5t-231.5 -138t-299 -48h-506v1434h506q215 0 379 -82t259 -246t95 -389z" />
    <glyph glyph-name="U_L.dlig" horiz-adv-x="2019" 
d="M1057 1434h274v-828q0 -88 -20 -174t-66.5 -169.5t-113.5 -146.5t-169.5 -102t-226.5 -39t-226.5 39t-170 102t-114 146.5t-67 169.5t-20.5 174v828h275v-826q0 -69 19 -135t56 -123t101.5 -92t146.5 -35q66 0 121 23t91.5 61.5t62 89t36.5 103.5t11 108v826zM1331 1434
v-1186h647v-248h-921v1434h274z" />
    <glyph glyph-name="U_P.dlig" horiz-adv-x="2217" 
d="M1057 1434h274v-828q0 -88 -20 -174t-66.5 -169.5t-113.5 -146.5t-169.5 -102t-226.5 -39t-226.5 39t-170 102t-114 146.5t-67 169.5t-20.5 174v828h275v-826q0 -69 19 -135t56 -123t101.5 -92t146.5 -35q66 0 121 23t91.5 61.5t62 89t36.5 103.5t11 108v826zM1718 852
q78 0 126 47.5t48 118.5q0 72 -48 120t-126 48h-387v-334h387zM1751 1434q95 0 175 -34t132 -92t80.5 -132.5t28.5 -157.5t-28.5 -157.5t-80.5 -132.5t-132 -92t-175 -34h-420v-602h-274v1434h694z" />
    <glyph glyph-name="U_R.dlig" horiz-adv-x="2269" 
d="M1057 1434h274v-828q0 -88 -20 -174t-66.5 -169.5t-113.5 -146.5t-169.5 -102t-226.5 -39t-226.5 39t-170 102t-114 146.5t-67 169.5t-20.5 174v828h275v-826q0 -69 19 -135t56 -123t101.5 -92t146.5 -35q66 0 121 23t91.5 61.5t62 89t36.5 103.5t11 108v826zM1718 852
q78 0 127 48t49 118q0 72 -49 120t-127 48h-387v-334h387zM1892 717q97 0 168.5 -71t71.5 -169v-477h-250v465q0 57 -40.5 97t-96.5 40h-418v-602h-270v1434h694q208 0 313 -99t105 -256q0 -66 -25.5 -123t-61 -92t-77.5 -60.5t-70 -36.5t-43 -13v-37z" />
    <glyph glyph-name="V_A" horiz-adv-x="2004" 
d="M1137 1434h233l-493 -1434h-383l-474 1434h289l355 -1063q8 -27 14.5 -58t9.5 -48l2 -17h37q9 62 27 123zM1473 1434l512 -1434h-246l-103 299h-663l-103 -299h-245l512 1434h336zM1053 522h501l-231 664h-37z" />
    <glyph glyph-name="a.ss01" horiz-adv-x="1236" 
d="M600 776q-68 0 -119.5 -24.5t-81.5 -65t-44.5 -87.5t-14.5 -99t14.5 -99t44.5 -88t81.5 -65.5t119.5 -24.5q67 0 118.5 24.5t81.5 65.5t45 88.5t15 98.5t-15 98.5t-45 88t-81.5 65t-118.5 24.5zM510 -25q-91 0 -166 31t-125.5 82.5t-85.5 120t-51 141.5t-16 150t15.5 150
t51 141.5t87 119.5t128.5 82t170 31q238 0 342 -195h37q-37 84 -37 160v10h275v-999h-275v10q0 35 9 75.5t19 63.5l9 23h-37q-106 -197 -350 -197z" />
    <glyph glyph-name="aacute.ss01" horiz-adv-x="1236" 
d="M909 1499l-166 -321h-229l145 321h250zM600 776q-68 0 -119.5 -24.5t-81.5 -65t-44.5 -87.5t-14.5 -99t14.5 -99t44.5 -88t81.5 -65.5t119.5 -24.5q67 0 118.5 24.5t81.5 65.5t45 88.5t15 98.5t-15 98.5t-45 88t-81.5 65t-118.5 24.5zM510 -25q-91 0 -166 31t-125.5 82.5
t-85.5 120t-51 141.5t-16 150t15.5 150t51 141.5t87 119.5t128.5 82t170 31q238 0 342 -195h37q-37 84 -37 160v10h275v-999h-275v10q0 35 9 75.5t19 63.5l9 23h-37q-106 -197 -350 -197z" />
    <glyph glyph-name="acircumflex.ss01" horiz-adv-x="1236" 
d="M815 1499l189 -272h-232l-102 145h-11l-102 -145h-231l188 272h301zM600 776q-68 0 -119.5 -24.5t-81.5 -65t-44.5 -87.5t-14.5 -99t14.5 -99t44.5 -88t81.5 -65.5t119.5 -24.5q67 0 118.5 24.5t81.5 65.5t45 88.5t15 98.5t-15 98.5t-45 88t-81.5 65t-118.5 24.5z
M510 -25q-91 0 -166 31t-125.5 82.5t-85.5 120t-51 141.5t-16 150t15.5 150t51 141.5t87 119.5t128.5 82t170 31q238 0 342 -195h37q-37 84 -37 160v10h275v-999h-275v10q0 35 9 75.5t19 63.5l9 23h-37q-106 -197 -350 -197z" />
    <glyph glyph-name="adieresis.ss01" horiz-adv-x="1236" 
d="M442 1233q-57 0 -98 39t-41 94t41 94t98 39q52 0 92.5 -39.5t40.5 -93.5t-40.5 -93.5t-92.5 -39.5zM852 1233q-56 0 -96.5 39t-40.5 94t40.5 94t96.5 39q53 0 93 -39t40 -94t-40 -94t-93 -39zM600 776q-68 0 -119.5 -24.5t-81.5 -65t-44.5 -87.5t-14.5 -99t14.5 -99
t44.5 -88t81.5 -65.5t119.5 -24.5q67 0 118.5 24.5t81.5 65.5t45 88.5t15 98.5t-15 98.5t-45 88t-81.5 65t-118.5 24.5zM510 -25q-91 0 -166 31t-125.5 82.5t-85.5 120t-51 141.5t-16 150t15.5 150t51 141.5t87 119.5t128.5 82t170 31q238 0 342 -195h37q-37 84 -37 160v10
h275v-999h-275v10q0 35 9 75.5t19 63.5l9 23h-37q-106 -197 -350 -197z" />
    <glyph glyph-name="aring.ss01" horiz-adv-x="1236" 
d="M633 1386q54 0 80 32.5t26 76.5t-26 76.5t-80 32.5q-53 0 -79 -32.5t-26 -76.5t26 -76.5t79 -32.5zM633 1769q74 0 130.5 -24t88.5 -65t47.5 -87.5t15.5 -97.5t-15.5 -97.5t-47.5 -87.5t-88.5 -65t-130.5 -24t-130 24.5t-88 65t-47.5 87t-15.5 97.5t15.5 97.5t47.5 87
t88 65t130 24.5zM600 776q-68 0 -119.5 -24.5t-81.5 -65t-44.5 -87.5t-14.5 -99t14.5 -99t44.5 -88t81.5 -65.5t119.5 -24.5q67 0 118.5 24.5t81.5 65.5t45 88.5t15 98.5t-15 98.5t-45 88t-81.5 65t-118.5 24.5zM510 -25q-91 0 -166 31t-125.5 82.5t-85.5 120t-51 141.5
t-16 150t15.5 150t51 141.5t87 119.5t128.5 82t170 31q238 0 342 -195h37q-37 84 -37 160v10h275v-999h-275v10q0 35 9 75.5t19 63.5l9 23h-37q-106 -197 -350 -197z" />
    <glyph glyph-name="f.ss01" horiz-adv-x="811" 
d="M23 752h180v-752h274v752h309v247h-763v-247zM508 999q-46 0 -79.5 23t-33.5 70t34 70.5t79 23.5h278v248h-403q-52 0 -99 -12.5t-88 -38t-65.5 -70.5t-24.5 -105q0 -19 2.5 -36t7.5 -31t10 -25.5t13 -22t13.5 -17.5t15 -14.5t13.5 -10.5t12.5 -8.5t9.5 -6.5v-39z" />
    <glyph glyph-name="g.ss01" horiz-adv-x="1230" 
d="M545 111q-218 0 -351 125t-133 329q0 206 126.5 332.5t328.5 126.5q148 0 249 -85t114 -196q6 -20 31 -42.5t50 -39.5t45.5 -43t20.5 -53q0 -204 -133 -329t-348 -125zM545 319q111 0 183.5 69t72.5 177q0 112 -72.5 182t-183.5 70q-113 0 -185.5 -70t-72.5 -182
q0 -108 72.5 -177t185.5 -69zM915 743q-34 90 -34 172q0 35 24.5 59.5t59.5 24.5h225v-247h-119q-19 0 -32 -13t-13 -32v-142l-176 35l29 143h36zM1026 600v-569q0 -89 -28.5 -170t-83.5 -147.5t-146.5 -106t-206.5 -39.5q-114 0 -205 39t-146.5 104t-84.5 145t-29 167h226
q0 -103 63.5 -174.5t175.5 -71.5q114 0 177 73.5t63 180.5v569h225z" />
    <glyph glyph-name="k.ss01" horiz-adv-x="1230" 
d="M633 317l278 -317h308l-402 451v36q131 9 218 82.5t87 188.5q0 117 -84 191.5t-245 74.5q-85 0 -156 -17t-114 -41.5t-74.5 -56t-45 -55t-18.5 -43.5h-37q37 100 37 211v412h-274v-1434h274v317h248zM383 543q0 129 80 210t217 81q50 0 85.5 -12.5t53 -33t24.5 -40.5
t7 -43q0 -74 -70.5 -118t-175.5 -44h-221z" />
    <glyph glyph-name="o.ss01" horiz-adv-x="1179" 
d="M590 -25q-143 0 -263.5 70t-190.5 191t-70 264t70 263.5t190.5 190.5t263.5 70t263.5 -70t190.5 -190.5t70 -263.5t-70 -264t-190.5 -191t-263.5 -70zM590 223q105 0 177.5 80.5t72.5 196.5t-72.5 196t-177.5 80t-177.5 -80t-72.5 -196t72.5 -196.5t177.5 -80.5z" />
    <glyph glyph-name="oacute.ss01" horiz-adv-x="1179" 
d="M858 1499l-166 -321h-229l145 321h250zM590 -25q-143 0 -263.5 70t-190.5 191t-70 264t70 263.5t190.5 190.5t263.5 70t263.5 -70t190.5 -190.5t70 -263.5t-70 -264t-190.5 -191t-263.5 -70zM590 223q105 0 177.5 80.5t72.5 196.5t-72.5 196t-177.5 80t-177.5 -80
t-72.5 -196t72.5 -196.5t177.5 -80.5z" />
    <glyph glyph-name="ocircumflex.ss01" horiz-adv-x="1179" 
d="M745 1499l189 -272h-232l-102 145h-10l-103 -145h-231l188 272h301zM590 -25q-143 0 -263.5 70t-190.5 191t-70 264t70 263.5t190.5 190.5t263.5 70t263.5 -70t190.5 -190.5t70 -263.5t-70 -264t-190.5 -191t-263.5 -70zM590 223q105 0 177.5 80.5t72.5 196.5t-72.5 196
t-177.5 80t-177.5 -80t-72.5 -196t72.5 -196.5t177.5 -80.5z" />
    <glyph glyph-name="odieresis.ss01" horiz-adv-x="1179" 
d="M389 1233q-57 0 -98 39t-41 94t41 94t98 39q52 0 92.5 -39.5t40.5 -93.5t-40.5 -93.5t-92.5 -39.5zM799 1233q-56 0 -96.5 39t-40.5 94t40.5 94t96.5 39q53 0 93 -39t40 -94t-40 -94t-93 -39zM590 -25q-143 0 -263.5 70t-190.5 191t-70 264t70 263.5t190.5 190.5
t263.5 70t263.5 -70t190.5 -190.5t70 -263.5t-70 -264t-190.5 -191t-263.5 -70zM590 223q105 0 177.5 80.5t72.5 196.5t-72.5 196t-177.5 80t-177.5 -80t-72.5 -196t72.5 -196.5t177.5 -80.5z" />
    <glyph glyph-name="ohungarumlaut.ss01" horiz-adv-x="1179" 
d="M1057 1499l-166 -321h-229l145 321h250zM723 1499l-166 -321h-229l145 321h250zM590 -25q-143 0 -263.5 70t-190.5 191t-70 264t70 263.5t190.5 190.5t263.5 70t263.5 -70t190.5 -190.5t70 -263.5t-70 -264t-190.5 -191t-263.5 -70zM590 223q105 0 177.5 80.5t72.5 196.5
t-72.5 196t-177.5 80t-177.5 -80t-72.5 -196t72.5 -196.5t177.5 -80.5z" />
    <glyph glyph-name="oslash.ss01" 
d="M1151 1020l-864 -1040h-207l864 1040h207zM610 -25q-143 0 -263.5 70t-190.5 191t-70 264t70 263.5t190.5 190.5t263.5 70t264 -70t191 -190.5t70 -263.5t-70 -264t-191 -191t-264 -70zM610 223q105 0 177.5 80.5t72.5 196.5t-72.5 196t-177.5 80t-177.5 -80t-72.5 -196
t72.5 -196.5t177.5 -80.5z" />
    <glyph glyph-name="oslashacute.ss01" 
d="M903 1499l-166 -321h-229l145 321h250zM1151 1020l-864 -1040h-207l864 1040h207zM610 -25q-143 0 -263.5 70t-190.5 191t-70 264t70 263.5t190.5 190.5t263.5 70t264 -70t191 -190.5t70 -263.5t-70 -264t-191 -191t-264 -70zM610 223q105 0 177.5 80.5t72.5 196.5
t-72.5 196t-177.5 80t-177.5 -80t-72.5 -196t72.5 -196.5t177.5 -80.5z" />
    <glyph glyph-name="t.ss01" horiz-adv-x="815" 
d="M25 999v-247h180v-433q0 -319 330 -319h256v195h-236q-39 0 -57.5 24t-18.5 62v471h312v247h-766zM256 1239q0 -43 -13 -84t-39 -76.5t-72.5 -57.5t-106.5 -22l260 -28v65q64 0 113 23t76.5 60.5t41.5 80.5t14 88v146h-274v-195z" />
    <glyph glyph-name="tcaron.ss01" horiz-adv-x="813" 
d="M891 1864l-27 -572h-221l-27 572h275zM23 999v-247h180v-433q0 -319 329 -319h256v195h-235q-39 0 -57.5 24t-18.5 62v471h311v247h-765zM254 1239q0 -43 -13 -84t-39 -76.5t-72.5 -57.5t-106.5 -22l260 -28v65q64 0 113 23t76.5 60.5t41.5 80.5t14 88v146h-274v-195z
" />
    <glyph glyph-name="a_e.dlig" horiz-adv-x="1875" 
d="M801 510q-38 -20 -314 -59q-58 -10 -103.5 -47t-45.5 -91q0 -50 38 -84.5t93 -44.5q51 -8 97 -1.5t100 34.5q55 30 90 76t41 92q4 25 4 68v57zM844 209q-1 -3 -3.5 -9.5t-12.5 -24.5t-23 -35.5t-38 -40.5t-56 -42q-158 -100 -365 -77q-110 11 -190 90t-80 198
q0 123 66.5 190.5t172.5 92.5q78 18 192 30t140 17q7 1 25 4t26 5t23.5 5.5t22.5 6.5t18 8t15.5 11.5t9 14.5t4 18.5t-4.5 22.5q-13 49 -70.5 78t-137.5 29q-110 0 -169 -47t-59 -111h-266q0 71 30 137t88 121.5t156.5 89t223.5 33.5q100 0 182.5 -22.5t137.5 -59.5
t92.5 -87.5t54 -105t16.5 -112.5q0 -50 -19 -112.5t-46 -116t-54 -99.5t-46 -73l-19 -27h-37zM1307 801q-55 0 -99.5 -19t-73 -50t-45.5 -64.5t-24 -69.5l483 -2q-7 35 -23.5 68.5t-44 65.5t-72.5 51.5t-101 19.5zM1057 438q3 -28 11.5 -57t28 -63t46 -59.5t69 -42.5
t95.5 -17q157 0 217 137h266q-10 -41 -27 -82t-55 -93.5t-88 -91.5t-131.5 -66.5t-179.5 -27.5q-107 0 -194 31.5t-144.5 83.5t-96.5 121t-56 141.5t-17 147.5t17 147.5t56 141.5t96.5 120.5t144.5 83t194 31.5q131 0 233 -48t161.5 -129.5t87 -186t19.5 -222.5h-753z" />
    <glyph glyph-name="f_f.dlig" horiz-adv-x="1503" 
d="M203 1053q0 55 12 107.5t40.5 102.5t69.5 87.5t104 60.5t140 23h219v-248h-227q-39 0 -61.5 -28t-22.5 -66v-93h309v-247h-309v-752h-274v752h-180v247h180v54zM893 1053q0 55 12.5 107.5t40.5 102.5t69.5 87.5t104.5 60.5t140 23h219v-248h-228q-39 0 -61.5 -28
t-22.5 -66v-93h310v-247h-310v-752h-274v752h-180v247h180v54z" />
    <glyph glyph-name="f_f_i.dlig" horiz-adv-x="1943" 
d="M203 1053q0 55 12 107.5t40.5 102.5t69.5 87.5t104 60.5t140 23h219v-248h-227q-39 0 -61.5 -28t-22.5 -66v-93h309v-247h-309v-752h-274v752h-180v247h180v54zM893 1053q0 55 12.5 107.5t40.5 102.5t69.5 87.5t104.5 60.5t140 23h219v-248h-228q-39 0 -61.5 -28
t-22.5 -66v-93h310v-247h-310v-752h-274v752h-180v247h180v54zM1847 915v-915h-274v705q0 20 -13.5 33.5t-33.5 13.5h-94v247h331q34 0 59 -24.5t25 -59.5z" />
    <glyph glyph-name="f_f_j.dlig" horiz-adv-x="1953" 
d="M203 1053q0 55 12 107.5t40.5 102.5t69.5 87.5t104 60.5t140 23h219v-248h-227q-39 0 -61.5 -28t-22.5 -66v-93h309v-247h-309v-752h-274v752h-180v247h180v54zM893 1053q0 55 12.5 107.5t40.5 102.5t69.5 87.5t104.5 60.5t140 23h219v-248h-228q-39 0 -61.5 -28
t-22.5 -66v-93h310v-247h-310v-752h-274v752h-180v247h180v54zM1858 -268q0 -58 -18 -110.5t-53.5 -96t-94 -69t-133.5 -25.5h-271v250h209q37 0 61.5 23.5t24.5 62.5v938q0 20 -13.5 33.5t-33.5 13.5h-104v247h340q35 0 60.5 -25.5t25.5 -60.5v-1181z" />
    <glyph glyph-name="f_f_r.dlig" horiz-adv-x="2297" 
d="M203 1053q0 55 12 107.5t40.5 102.5t69.5 87.5t104 60.5t140 23h219v-248h-227q-39 0 -61.5 -28t-22.5 -66v-93h309v-247h-309v-752h-274v752h-180v247h180v54zM893 1053q0 55 12.5 107.5t40.5 102.5t69.5 87.5t104.5 60.5t140 23h219v-248h-228q-39 0 -61.5 -28
t-22.5 -66v-93h310v-247h-310v-752h-274v752h-180v247h180v54zM2257 752q-86 0 -157 -25t-117 -66.5t-77.5 -96.5t-45 -113t-13.5 -119v-332h-274v715q0 37 -37 37h-119v247h295q44 0 73.5 -23t29.5 -65q0 -40 -9.5 -108.5t-18.5 -116.5l-9 -49h37q46 165 160.5 263
t281.5 99v-247z" />
    <glyph glyph-name="f_f_t.dlig" horiz-adv-x="2226" 
d="M1599 752h-430v-752h-274v752h-418v-752h-274v752h-180v247h180v54q0 55 12 107.5t40.5 102.5t69.5 87.5t104 60.5t140 23h219v-248h-227q-39 0 -61.5 -28t-22.5 -66v-93h418v54q0 55 12.5 107.5t40.5 102.5t69.5 87.5t104.5 60.5t140 23h219v-248h-228q-39 0 -61.5 -28
t-22.5 -66v-93h430v435h275v-435h311v-247h-311v-416q0 -37 24.5 -62.5t59.5 -25.5h227v-248h-256q-83 0 -148.5 29t-104 77.5t-58 106t-19.5 119.5v420z" />
    <glyph glyph-name="f_i.dlig" horiz-adv-x="1253" 
d="M203 1053q0 55 12 107.5t40.5 102.5t69.5 87.5t104 60.5t140 23h219v-248h-227q-39 0 -61.5 -28t-22.5 -66v-93h309v-247h-309v-752h-274v752h-180v247h180v54zM1155 915v-915h-274v705q0 20 -13 33.5t-32 13.5h-95v247h330q35 0 59.5 -24.5t24.5 -59.5z" />
    <glyph glyph-name="f_j.dlig" horiz-adv-x="1263" 
d="M203 1053q0 55 12 107.5t40.5 102.5t69.5 87.5t104 60.5t140 23h219v-248h-227q-39 0 -61.5 -28t-22.5 -66v-93h309v-247h-309v-752h-274v752h-180v247h180v54zM1165 -268q0 -124 -76 -212.5t-221 -88.5h-272v250h211q36 0 60 23.5t24 62.5v938q0 20 -13 33.5t-32 13.5
h-105v247h340q35 0 59.5 -25.5t24.5 -60.5v-1181z" />
    <glyph glyph-name="f_r.dlig" horiz-adv-x="1605" 
d="M203 1053q0 55 12 107.5t40.5 102.5t69.5 87.5t104 60.5t140 23h219v-248h-227q-39 0 -61.5 -28t-22.5 -66v-93h309v-247h-309v-752h-274v752h-180v247h180v54zM1565 752q-86 0 -156 -25t-116 -66.5t-77.5 -96.5t-45 -113t-13.5 -119v-332h-274v715q0 37 -37 37h-119v247
h293q45 0 73.5 -22.5t28.5 -65.5q0 -40 -9 -108.5t-17 -116.5l-9 -49h37q46 165 160 263t281 99v-247z" />
    <glyph glyph-name="f_t.dlig" horiz-adv-x="1544" 
d="M203 1053q0 55 12 107.5t40.5 102.5t69.5 87.5t104 60.5t140 23h219v-248h-227q-39 0 -61.5 -28t-22.5 -66v-93h441v435h274v-435h311v-247h-311v-416q0 -37 24.5 -62.5t59.5 -25.5h227v-248h-256q-83 0 -148 29t-103.5 77.5t-58 106t-19.5 119.5v420h-441v-752h-274v752
h-180v247h180v54z" />
    <glyph glyph-name="g_i.dlig" horiz-adv-x="1720" 
d="M567 111q-212 0 -347.5 125.5t-135.5 328.5q0 206 126.5 332.5t328.5 126.5q148 0 248.5 -85t113.5 -196q6 -20 31 -42.5t50.5 -39.5t46 -43t20.5 -53q0 -204 -133 -329t-349 -125zM567 336q113 0 184.5 64t71.5 165q0 103 -72 168.5t-184 65.5q-114 0 -186 -65.5
t-72 -168.5q0 -101 72 -165t186 -64zM588 -395q133 0 221 32t88 82q0 51 -88.5 83t-220.5 32q-136 0 -222.5 -31.5t-86.5 -83.5q0 -51 86.5 -82.5t222.5 -31.5zM301 -63h-72q-70 0 -107.5 33.5t-37.5 92.5q0 57 37.5 88t107.5 31h15v39l323 -69l-2 -41h-219q-57 0 -57 -39
t57 -39h242q241 0 400 -90t159 -224q0 -88 -72 -159.5t-200 -112.5t-285 -41q-245 0 -403 78t-158 197q0 55 27.5 98t70.5 67.5t87 38t87 15.5v37zM938 743q-35 90 -35 172q0 35 24.5 59.5t59.5 24.5h225v-247h-118q-19 0 -32 -13t-13 -32v-142l-177 35l29 143h37zM1618 915
v-915h-275v705q0 20 -13 33.5t-32 13.5h-94v247h330q35 0 59.5 -24.5t24.5 -59.5zM1335 1364q0 -54 41 -93.5t97 -39.5q53 0 93 39.5t40 93.5q0 56 -39.5 94.5t-93.5 38.5q-56 0 -97 -38.5t-41 -94.5z" />
    <glyph glyph-name="g_r.dlig" horiz-adv-x="2093" 
d="M567 111q-212 0 -347.5 125.5t-135.5 328.5q0 206 126.5 332.5t328.5 126.5q148 0 248.5 -85t113.5 -196q6 -20 31 -42.5t50.5 -39.5t46 -43t20.5 -53q0 -204 -133 -329t-349 -125zM567 336q113 0 184.5 64t71.5 165q0 103 -72 168.5t-184 65.5q-114 0 -186 -65.5
t-72 -168.5q0 -101 72 -165t186 -64zM588 -395q133 0 221 32t88 82q0 51 -88.5 83t-220.5 32q-136 0 -222.5 -31.5t-86.5 -83.5q0 -51 86.5 -82.5t222.5 -31.5zM301 -63h-72q-70 0 -107.5 33.5t-37.5 92.5q0 57 37.5 88t107.5 31h15v39l323 -69l-2 -41h-219q-57 0 -57 -39
t57 -39h242q241 0 400 -90t159 -224q0 -88 -72 -159.5t-200 -112.5t-285 -41q-245 0 -403 78t-158 197q0 55 27.5 98t70.5 67.5t87 38t87 15.5v37zM938 743q-35 90 -35 172q0 35 24.5 59.5t59.5 24.5h225v-247h-118q-19 0 -32 -13t-13 -32v-142l-177 35l29 143h37zM2052 752
q-86 0 -157 -25t-117 -66.5t-77.5 -96.5t-45 -113t-13.5 -119v-332h-274v715q0 37 -37 37h-119v247h295q44 0 73.5 -23t29.5 -65q0 -40 -9 -108.5t-19 -116.5l-9 -49h37q46 165 160.5 263t281.5 99v-247z" />
    <glyph glyph-name="r_i.dlig" horiz-adv-x="1357" 
d="M881 999q-167 -1 -282 -99t-161 -263h-37q37 184 37 274q0 42 -29 65t-73 23h-295v-247h119q37 0 37 -37v-715h274v332q0 61 13.5 119t45 113t77.5 96.5t117 66.5t157 25v247zM1257 915q0 35 -24.5 59.5t-58.5 24.5h-332v-247h94q20 0 33.5 -13.5t13.5 -33.5v-705h274
v915zM1112 1231q-57 0 -98 39.5t-41 93.5q0 56 40.5 94.5t98.5 38.5q52 0 92.5 -38.5t40.5 -94.5q0 -53 -40.5 -93t-92.5 -40z" />
    <glyph glyph-name="r_j.dlig" horiz-adv-x="1357" 
d="M881 999q-167 -1 -282 -99t-161 -263h-37q37 184 37 274q0 42 -29 65t-73 23h-295v-247h119q37 0 37 -37v-715h274v332q0 61 13.5 119t45 113t77.5 96.5t117 66.5t157 25v247zM1257 913q0 35 -25.5 60.5t-60.5 25.5h-340v-247h105q20 0 33.5 -13.5t13.5 -33.5v-938
q0 -37 -25.5 -63t-60.5 -26h-209v-247h273q74 0 132.5 26.5t93 70.5t52.5 96t18 108v1181zM1098 1231q-57 0 -98.5 39.5t-41.5 93.5q0 56 41 94.5t99 38.5q52 0 92.5 -38.5t40.5 -94.5q0 -53 -40.5 -93t-92.5 -40z" />
    <glyph glyph-name="t_i.dlig" horiz-adv-x="1280" 
d="M203 752h-180v247h180v435h274v-435h617q35 0 59.5 -24.5t24.5 -59.5v-915h-275v705q0 20 -13.5 33.5t-33.5 13.5h-379v-416q0 -37 24.5 -62.5t59.5 -25.5h227v-248h-256q-83 0 -148 29t-103.5 77.5t-58 106t-19.5 119.5v420zM893 1364q0 56 41.5 94.5t97.5 38.5
q54 0 93.5 -38.5t39.5 -94.5q0 -54 -40 -93.5t-93 -39.5q-56 0 -97.5 39.5t-41.5 93.5z" />
    <glyph glyph-name="t_r.dlig" horiz-adv-x="1658" 
d="M203 752h-180v247h180v435h274v-435h311v-247h-311v-416q0 -37 24.5 -62.5t59.5 -25.5h227v-248h-256q-83 0 -148 29t-103.5 77.5t-58 106t-19.5 119.5v420zM1618 752q-86 0 -156 -25t-116 -66.5t-77.5 -96.5t-45 -113t-13.5 -119v-332h-274v715q0 37 -37 37h-119v247
h293q45 0 74 -23t29 -65q0 -40 -9 -108.5t-17 -116.5l-9 -49h37q46 165 159.5 263t280.5 99v-247z" />
    <glyph glyph-name="t_t" horiz-adv-x="1517" 
d="M891 752h-178v247h178v435h274v-435h312v-247h-312v-416q0 -37 25.5 -62.5t60.5 -25.5h226v-248h-254q-83 0 -148.5 29t-104.5 77.5t-59 106t-20 119.5v420zM203 752h-180v247h180v435h274v-435h311v-247h-311v-416q0 -37 24.5 -62.5t59.5 -25.5h227v-248h-256
q-83 0 -148 29t-103.5 77.5t-58 106t-19.5 119.5v420z" />
    </font>
</defs>
</svg>
