<?xml version="1.0" standalone="no"?>
<!DOCTYPE svg PUBLIC "-//W3C//DTD SVG 1.1//EN" "http://www.w3.org/Graphics/SVG/1.1/DTD/svg11.dtd" >
<svg xmlns="http://www.w3.org/2000/svg" xmlns:xlink="http://www.w3.org/1999/xlink" version="1.1">
<metadata>
Created by FontForge 20201107 at Fri Feb 16 19:17:24 2024
 By 
copyright missing
</metadata>
<defs>
<font id="NeueRegrade-Medium" horiz-adv-x="1144" >
  <font-face 
    font-family="Neue Regrade Medium"
    font-weight="500"
    font-stretch="normal"
    units-per-em="2048"
    panose-1="0 0 0 0 0 0 0 0 0 0"
    ascent="1638"
    descent="-410"
    x-height="999"
    cap-height="1434"
    bbox="-100 -594 2611 2042"
    underline-thickness="102"
    underline-position="-255"
    unicode-range="U+0020-2265"
  />
<missing-glyph horiz-adv-x="1167" 
d="M956 1741v-2335h-739v2335h739zM778 150h-389v-265h389v265zM700 72v-111h-233v111h233zM778 553h-233v-131h78v53h77v-108h-233v186h-78v-264h389v264zM778 838h-78v-154h-311v-80h389v234zM778 977h-389v-76h156v-88h-156v-76h234v164h155v76zM545 1204v-84h-78v84h78z
M623 1284h-234v-244h389v80h-155v164zM778 1585h-385v-78h152v-86h-156v-78h389v78h-155v86h155v78zM778 -170h-389v-76h164l-164 -110v-76h389v76h-239l163 110h76v76z" />
    <glyph glyph-name=".notdef" horiz-adv-x="1167" 
d="M956 1741v-2335h-739v2335h739zM778 150h-389v-265h389v265zM700 72v-111h-233v111h233zM778 553h-233v-131h78v53h77v-108h-233v186h-78v-264h389v264zM778 838h-78v-154h-311v-80h389v234zM778 977h-389v-76h156v-88h-156v-76h234v164h155v76zM545 1204v-84h-78v84h78z
M623 1284h-234v-244h389v80h-155v164zM778 1585h-385v-78h152v-86h-156v-78h389v78h-155v86h155v78zM778 -170h-389v-76h164l-164 -110v-76h389v76h-239l163 110h76v76z" />
    <glyph glyph-name=".null" horiz-adv-x="0" 
 />
    <glyph glyph-name="nonmarkingreturn" horiz-adv-x="682" 
 />
    <glyph glyph-name="space" unicode=" " horiz-adv-x="561" 
 />
    <glyph glyph-name="space" unicode="&#xa0;" horiz-adv-x="561" 
 />
    <glyph glyph-name="exclam" unicode="!" horiz-adv-x="489" 
d="M162 1434h168l-13 -1084h-143zM246 -25q-43 0 -75 30.5t-32 72.5t32 72t75 30q42 0 73 -30t31 -72t-31 -72.5t-73 -30.5z" />
    <glyph glyph-name="quotedbl" unicode="&#x22;" horiz-adv-x="700" 
d="M270 1434l-16 -529h-133l-19 529h168zM598 1434l-18 -529h-134l-16 529h168z" />
    <glyph glyph-name="numbersign" unicode="#" horiz-adv-x="1363" 
d="M993 1434h158l-277 -1434h-159zM494 1434h159l-278 -1434h-158zM88 549h1124v-141h-1124v141zM152 1020h1124v-139h-1124v139z" />
    <glyph glyph-name="dollar" unicode="$" horiz-adv-x="1206" 
d="M535 1636v-1837h143v1837h-143zM1122 403q0 62 -17.5 114.5t-45 89.5t-72.5 68.5t-87 51t-102.5 37t-105.5 27t-108 20.5q-58 10 -97.5 19t-87 27t-76 42t-48 63t-19.5 89q0 47 19.5 90.5t59 81.5t108 61t157.5 23q90 0 159 -23t108.5 -61t59 -81.5t19.5 -90.5v-17h168
v17q0 75 -29.5 144.5t-88 129.5t-161.5 96.5t-235 36.5t-234.5 -36.5t-161 -96.5t-87.5 -129.5t-29 -144.5q0 -49 10 -91t26 -74.5t43 -61t52 -48t63 -37.5t66.5 -28.5t72 -21.5t70 -16.5t68.5 -13.5q49 -9 74.5 -14.5t74 -18t76.5 -24t65 -32t56.5 -43t34 -54.5t14.5 -70
q0 -51 -20.5 -98.5t-61 -88t-112 -65t-164.5 -24.5t-165.5 26.5t-114 69.5t-62.5 92t-21 101h-167q0 -63 18 -124t59 -119t101 -101.5t150 -70t200 -26.5t200.5 25t150.5 67t100.5 98t58.5 115.5t18 122.5z" />
    <glyph glyph-name="percent" unicode="%" horiz-adv-x="1724" 
d="M412 0h-181l1082 1434h178zM420 901q99 0 148.5 64.5t49.5 148.5q0 38 -11 74t-33.5 68t-62.5 51.5t-91 19.5q-100 0 -150.5 -65t-50.5 -148q0 -84 50.5 -148.5t150.5 -64.5zM420 1458q87 0 154.5 -30.5t105.5 -82t57 -110t19 -121.5t-19 -121.5t-57 -110t-105.5 -82
t-154.5 -30.5q-71 0 -129 20.5t-96.5 54.5t-64.5 79t-37 92.5t-11 97.5t11 97.5t37 92.5t64.5 79t96.5 54.5t129 20.5zM1305 109q101 0 151.5 63.5t50.5 146.5q0 85 -50.5 149t-151.5 64q-99 0 -149 -64.5t-50 -148.5q0 -38 11.5 -73.5t34 -67t62.5 -50.5t91 -19zM1305 664
q88 0 155.5 -31t106 -82t57 -110t18.5 -122t-18.5 -121t-57 -109.5t-106 -82.5t-155.5 -31q-87 0 -154.5 31t-105.5 82.5t-57 110t-19 120.5q0 63 19 122t57 110t105.5 82t154.5 31z" />
    <glyph glyph-name="ampersand" unicode="&#x26;" horiz-adv-x="1449" 
d="M768 256l106 162l-157 182q-86 98 -189 98q-50 -1 -96.5 -18t-87.5 -50t-65.5 -91t-24.5 -133q0 -76 24.5 -134t65.5 -90.5t87.5 -48.5t96.5 -16q70 0 133 39t107 100zM1405 690q-89 0 -148.5 -24.5t-99.5 -81.5l-100 -156l368 -428h-188l-270 311l-105 -155
q-123 -181 -340 -181q-67 0 -129 15t-118.5 48t-98 82t-66 121.5t-24.5 161.5q0 77 22 143t59 111t84.5 77.5t98.5 47.5t101 15q21 0 41 -4.5t31 -9t25.5 -12t18.5 -9.5l23 20q-96 62 -164 136q-64 73 -84 106q-39 67 -39 141q0 135 98 214t248 79q152 0 251 -79t99 -214
h-168q0 74 -53 114t-129 40q-73 0 -125.5 -40t-52.5 -114q0 -62 82 -157l408 -469l100 147q54 70 144 106.5t200 36.5v-139z" />
    <glyph glyph-name="quotesingle" unicode="'" horiz-adv-x="421" 
d="M295 1434l-16 -529h-134l-18 529h168z" />
    <glyph glyph-name="parenleft" unicode="(" horiz-adv-x="552" 
d="M553 -426q-139 186 -209 431t-70 499q0 255 69.5 500t209.5 430h-164q-139 -193 -211 -438t-72 -492t72 -492t211 -438h164z" />
    <glyph glyph-name="parenright" unicode=")" horiz-adv-x="552" 
d="M0 -426q139 186 209 431t70 499q0 255 -69.5 500t-209.5 430h164q138 -192 210 -437.5t72 -492.5t-72 -492.5t-210 -437.5h-164z" />
    <glyph glyph-name="asterisk" unicode="*" horiz-adv-x="768" 
d="M434 1434v-246l244 90l37 -94l-254 -97l151 -247l-86 -56l-143 232l-139 -232l-88 56l151 247l-254 97l37 94l242 -90v246h102z" />
    <glyph glyph-name="plus" unicode="+" horiz-adv-x="1120" 
d="M631 1100v-344h342v-140h-342v-342h-144v342h-340v140h340v344h144z" />
    <glyph glyph-name="comma" unicode="," horiz-adv-x="493" 
d="M334 78q0 42 -31.5 72t-73.5 30q-43 0 -74.5 -30t-31.5 -72t31.5 -72.5t74.5 -30.5q42 0 73.5 30.5t31.5 72.5zM262 -20q16 -40 -12 -85.5t-86 -58.5v-63q118 15 174 115q48 84 27 174q-20 85 -91 110q-21 7 -45 8z" />
    <glyph glyph-name="hyphen" unicode="-" horiz-adv-x="978" 
d="M135 614h709v-139h-709v139z" />
    <glyph glyph-name="period" unicode="." horiz-adv-x="456" 
d="M229 -25q-43 0 -74.5 30.5t-31.5 72.5t31.5 72t74.5 30q42 0 73.5 -30t31.5 -72t-31.5 -72.5t-73.5 -30.5z" />
    <glyph glyph-name="slash" unicode="/" horiz-adv-x="845" 
d="M846 1434l-692 -1805h-154l692 1805h154z" />
    <glyph glyph-name="zero" unicode="0" horiz-adv-x="1390" 
d="M694 127q91 0 165 35.5t122.5 93.5t82 136t48 159t14.5 166t-14.5 166t-48 159t-82 136t-122.5 93.5t-165 35.5t-165 -35.5t-122 -93.5t-81 -136t-47.5 -159t-14.5 -166t14.5 -166t47.5 -159t81 -136t122 -93.5t165 -35.5zM694 1458q126 0 229 -44.5t171 -117.5
t114 -170.5t66 -199.5t20 -209t-20 -209t-66 -199.5t-114 -171t-171 -118t-229 -44.5t-228.5 44.5t-170 118t-113.5 171t-66 199.5t-20 209t20 209t66 199.5t113.5 170.5t170 117.5t228.5 44.5z" />
    <glyph glyph-name="one" unicode="1" horiz-adv-x="700" 
d="M393 1434q0 -77 -19 -146t-57.5 -128.5t-105.5 -97.5t-156 -44v-158q125 7 211 83.5t127 186.5h27q-27 -114 -27 -239v-891h168v1434h-168z" />
    <glyph glyph-name="two" unicode="2" horiz-adv-x="1198" 
d="M590 152q-56 0 -116.5 -7t-93.5 -15l-32 -7v29q471 417 565 501q74 68 128.5 166.5t54.5 196.5q0 64 -17 125t-56 119t-96 101.5t-142 70t-189 26.5t-190 -26.5t-142.5 -70t-96 -101.5t-56.5 -119t-17 -125v-47h168v47q0 53 19 103t56.5 93t104 69t152.5 26t152.5 -26
t105 -69t57.5 -93t19 -103q0 -69 -58.5 -155.5t-144.5 -162.5l-627 -557v-141h1008v152h-516z" />
    <glyph glyph-name="three" unicode="3" horiz-adv-x="1175" 
d="M1087 426q0 79 -23.5 146t-60.5 112t-86 79t-97.5 52t-98.5 25q-41 5 -77 0.5t-60.5 -10t-24.5 -7.5v31l488 444v136h-900v-152h650l-439 -403v-134h226q88 0 162 -30.5t124 -101t50 -171.5q0 -155 -97 -235t-243 -80q-143 0 -241.5 75t-98.5 210v18h-168v-18
q0 -196 144 -316.5t364 -120.5q145 0 259.5 53.5t181 157t66.5 240.5z" />
    <glyph glyph-name="four" unicode="4" horiz-adv-x="1320" 
d="M905 1282h-24l-656 -856h447q55 0 113 -7t89 -15l31 -7v885zM1245 426v-139h-172v-287h-168v287h-835v196l735 951h268v-1008h172z" />
    <glyph glyph-name="five" unicode="5" horiz-adv-x="1259" 
d="M1182 498q0 78 -18 152t-59 142.5t-100 120t-147 82t-194 29.5q-238 -3 -342 -156h-29q47 104 61 219l23 195h692v152h-831l-97 -680h195q100 141 301 141q98 0 173 -34.5t118 -91.5t64.5 -123t21.5 -136t-21.5 -135.5t-64.5 -122t-118 -91t-173 -34.5q-90 0 -160.5 29
t-113.5 78t-67.5 105t-31.5 118h-168q4 -72 25.5 -139t64.5 -130t104 -110t150 -75t197 -28q113 0 206.5 31.5t155 83t104 120t61 141t18.5 147.5z" />
    <glyph glyph-name="six" unicode="6" horiz-adv-x="1329" 
d="M678 127q102 0 181 33.5t124 89t67.5 118.5t22.5 130q0 68 -22.5 131t-67.5 118t-124 88t-181 33q-82 0 -150 -22t-113 -58.5t-76 -85t-44.5 -100t-13.5 -104.5t13.5 -104t44.5 -100t76 -85.5t113 -59t150 -22.5zM709 1022q242 0 387 -146.5t145 -377.5q0 -227 -149 -375
t-390 -148q-102 0 -190.5 24t-168.5 79t-136.5 139t-89.5 211.5t-33 288.5q0 88 14 173.5t42 169.5t75 155t108.5 126t148 86t187.5 31q105 0 196 -33.5t155.5 -90.5t108.5 -127.5t67 -149.5h-164q-39 112 -134 181t-241 69q-133 0 -235.5 -83t-156 -242.5t-40.5 -369.5h29
q3 163 136.5 286.5t328.5 123.5z" />
    <glyph glyph-name="seven" unicode="7" horiz-adv-x="1073" 
d="M33 1434v-152h534q55 0 117.5 7t97.5 15l35 7v-29q-120 -93 -214 -245t-149.5 -327.5t-83.5 -356t-28 -353.5h168q0 114 10 227t32.5 239t63.5 243.5t98 226.5t141.5 203t188.5 159v136h-1011z" />
    <glyph glyph-name="eight" unicode="8" horiz-adv-x="1267" 
d="M635 127q54 0 106 10t102.5 33t88 57t61 86t23.5 115t-23.5 115t-61 86t-88 57t-102.5 33t-106 10q-68 0 -133 -17t-122.5 -51t-92.5 -94.5t-35 -138.5t35 -138.5t92.5 -94.5t122.5 -51t133 -17zM311 1087q0 -75 51 -126t120.5 -71t150.5 -20q59 0 114 12t103 36.5t77 68
t29 100.5q0 75 -51 126.5t-121 72.5t-151 21t-151 -21t-120.5 -72.5t-50.5 -126.5zM838 784q145 -33 245.5 -136t100.5 -255q0 -192 -154.5 -305t-396.5 -113q-239 0 -394 113t-155 305q0 152 99.5 255t244.5 136v29q-121 32 -202 111.5t-81 197.5q0 152 138.5 244t349.5 92
q214 0 350.5 -91.5t136.5 -244.5q0 -118 -80.5 -197.5t-201.5 -111.5v-29z" />
    <glyph glyph-name="nine" unicode="9" horiz-adv-x="1329" 
d="M651 1307q-102 0 -181 -33.5t-124 -89t-67.5 -118.5t-22.5 -130q0 -68 22.5 -131t67.5 -118.5t124 -88.5t181 -33t181 33.5t124.5 88.5t68 118t22.5 131q0 53 -13.5 104t-44 100t-75.5 85.5t-113 59t-150 22.5zM621 412q-161 0 -283 68t-186 186.5t-64 269.5
q0 111 38.5 207.5t107.5 166t170.5 109t222.5 39.5q102 0 190.5 -23.5t168.5 -79t136.5 -139t89.5 -211t33 -288.5q0 -106 -19 -208t-63.5 -200t-109 -171t-163.5 -118t-220 -45q-105 0 -196 33.5t-155.5 91t-108.5 127.5t-67 150h164q39 -112 133.5 -181t239.5 -69
q206 0 329.5 189.5t102.5 504.5h-29q-1 -79 -36.5 -153t-95 -130.5t-146 -91t-184.5 -34.5z" />
    <glyph glyph-name="colon" unicode=":" horiz-adv-x="497" 
d="M250 -25q-43 0 -75 30.5t-32 72.5t32 72t75 30q42 0 73 -30t31 -72t-31 -72.5t-73 -30.5zM250 819q-43 0 -75 30.5t-32 72.5t32 72t75 30q42 0 73 -30t31 -72t-31 -72.5t-73 -30.5z" />
    <glyph glyph-name="semicolon" unicode=";" horiz-adv-x="534" 
d="M250 819q-43 0 -75 30.5t-32 72.5t32 72t75 30q42 0 73 -30t31 -72t-31 -72.5t-73 -30.5zM354 76q0 42 -31 72t-73 30q-43 0 -75 -30t-32 -72t32 -72.5t75 -30.5q42 0 73 30.5t31 72.5zM283 -23q16 -40 -12.5 -85t-86.5 -58v-63q118 15 174 115q48 84 28 174
q-20 85 -90 110q-22 7 -46 8z" />
    <glyph glyph-name="less" unicode="&#x3c;" horiz-adv-x="1120" 
d="M973 369v-152l-826 315v209l826 314v-152q-558 -217 -574 -223q-27 -10 -57 -19t-46 -13l-17 -3v-20q59 -10 120 -33z" />
    <glyph glyph-name="equal" unicode="=" horiz-adv-x="1120" 
d="M147 557h826v-139h-826v139zM147 950h826v-139h-826v139z" />
    <glyph glyph-name="greater" unicode="&#x3e;" horiz-adv-x="1120" 
d="M147 369q554 215 574 223q27 10 57.5 18.5t47.5 11.5l16 3v20q-60 12 -121 35l-574 223v152l826 -314v-209l-826 -315v152z" />
    <glyph glyph-name="question" unicode="?" horiz-adv-x="1073" 
d="M1012 1077q0 175 -133.5 278t-341.5 103q-207 0 -341.5 -103t-134.5 -278q0 -7 5 -47h165q0 5 -1 16.5t-1 16.5q0 121 86 182.5t222 61.5q131 0 219 -62t88 -182q0 -59 -25 -104.5t-64.5 -77.5t-88 -63t-96.5 -70t-87.5 -88.5t-64.5 -128.5t-25 -181h350v139h-20
q-52 0 -99 -6.5t-68 -12.5l-21 -7q-1 52 25 96t68 77t93 65.5t102 68t93.5 76.5t69 100.5t26.5 130.5zM561 -25q-43 0 -74.5 30.5t-31.5 72.5t31.5 72t74.5 30q41 0 72 -30t31 -72t-31.5 -72.5t-71.5 -30.5z" />
    <glyph glyph-name="at" unicode="@" horiz-adv-x="1953" 
d="M899 203q72 0 131 25.5t97.5 67t64.5 96.5t37.5 112.5t11.5 116.5q0 61 -11.5 118.5t-37.5 113t-64.5 96.5t-97.5 66t-131 25t-130.5 -25t-97 -66t-65 -96t-38 -113t-11.5 -119q0 -75 19.5 -146t58 -133.5t107 -100.5t157.5 -38zM977 1458q180 0 344.5 -70.5t283 -189
t189 -283t70.5 -344.5q0 -204 -83 -305.5t-216 -101.5q-97 0 -175.5 63t-78.5 172h-29q-45 -137 -142.5 -220t-254.5 -83q-92 0 -167.5 31.5t-125 83.5t-83.5 121t-48.5 141.5t-14.5 147.5q0 76 14.5 148.5t48.5 142t83.5 121t125 83t167.5 31.5q156 0 253.5 -83.5
t143.5 -219.5h29q-21 118 -21 233v45h111v-630q0 -102 45 -162t117 -60q190 0 190 301q0 212 -103.5 391.5t-282.5 284.5t-390 105q-210 0 -389 -105t-283 -284.5t-104 -391.5q0 -158 61.5 -302.5t165.5 -249t247.5 -166.5t301.5 -62q230 0 422 125h170q-277 -231 -592 -231
q-180 0 -344.5 70t-283 189t-189 283t-70.5 344t70.5 344.5t189 283t283 189t344.5 70.5z" />
    <glyph glyph-name="A" unicode="A" horiz-adv-x="1296" 
d="M760 1434l516 -1434h-156l-127 358h-690l-127 -358h-156l517 1434h223zM354 498h588l-278 784h-29z" />
    <glyph glyph-name="B" unicode="B" horiz-adv-x="1294" 
d="M698 152q70 0 130.5 15t110.5 45.5t79 83t29 122.5t-29 122.5t-79 83t-110.5 45.5t-130.5 15h-370v-532h370zM694 838q121 0 202 55t81 166t-81 167t-202 56h-366v-444h366zM1214 381q0 -82 -31.5 -148t-82.5 -108.5t-120.5 -71.5t-142 -41t-149.5 -12h-528v1434h526
q84 0 162 -20.5t143.5 -61t104.5 -109t39 -156.5q0 -131 -84.5 -211.5t-200.5 -95.5v-28q69 -10 132.5 -37.5t116 -72.5t84 -112.5t31.5 -148.5z" />
    <glyph glyph-name="C" unicode="C" horiz-adv-x="1445" 
d="M1192 420q-23 -57 -59 -106.5t-89 -93t-128.5 -68.5t-165.5 -25q-104 0 -189 35.5t-141.5 94.5t-95 137t-55.5 160t-17 167q0 83 17 164t56 158t95 135t142 93.5t190 35.5q89 0 164.5 -25t128 -68t88.5 -92.5t59 -107.5h180q-19 59 -48 114.5t-81.5 117.5t-118 107
t-162.5 75t-210 30q-139 0 -253 -44.5t-189.5 -117.5t-127.5 -170t-75 -199t-23 -208t23 -209t75 -200.5t127.5 -171t189.5 -118.5t253 -45q113 0 210 30t162.5 75.5t118 107.5t81.5 117.5t48 114.5h-180z" />
    <glyph glyph-name="D" unicode="D" horiz-adv-x="1427" 
d="M662 156q127 0 227.5 46.5t161.5 125.5t93 178t32 211t-32 211.5t-93 179.5t-161.5 127t-227.5 47h-334v-1126h334zM1343 717q0 -168 -50 -303.5t-139.5 -226t-214 -139t-273.5 -48.5h-506v1434h506q145 0 268.5 -48t214.5 -137t142.5 -226t51.5 -306z" />
    <glyph glyph-name="E" unicode="E" 
d="M1042 1434v-152h-714v-485h647v-148h-647v-497h714v-152h-882l2 1434h880z" />
    <glyph glyph-name="F" unicode="F" horiz-adv-x="1071" 
d="M1016 1282h-688v-485h573v-148h-573v-649h-168v1434h856v-152z" />
    <glyph glyph-name="G" unicode="G" horiz-adv-x="1495" 
d="M1393 696q0 43 -30 74t-75 31h-551v-154h443q17 0 27 -10t10 -25q0 -85 -30 -169t-86 -155t-146.5 -115.5t-200.5 -45.5q-105 1 -191 36.5t-142.5 94t-95.5 136t-56 158.5t-17 165q0 85 17 166t56.5 159t97 136t145 93.5t194.5 35.5q92 0 170.5 -26t132 -70.5t89.5 -93
t58 -103.5h179q-19 57 -48 112t-82 117t-119 108t-164.5 76.5t-213.5 30.5q-104 0 -194 -23t-158 -63t-123.5 -95.5t-93 -120.5t-63 -139t-37 -148.5t-11.5 -151.5q0 -164 46.5 -303t128 -235t196 -150t247.5 -54q118 0 216.5 38.5t158 93t104 124t63.5 121t26 94.5h28
q-61 -214 -61 -323v-123h156v696z" />
    <glyph glyph-name="H" unicode="H" horiz-adv-x="1417" 
d="M1257 1434v-1434h-167v649h-762v-649h-168v1434h168v-631l762 -2v633h167z" />
    <glyph glyph-name="I" unicode="I" horiz-adv-x="487" 
d="M160 1434h168v-1434h-168v1434z" />
    <glyph glyph-name="J" unicode="J" horiz-adv-x="774" 
d="M135 1434v-152h314v-827q0 -125 -87 -214t-210 -89h-119v-152h121q192 0 327 138t135 333v963h-481z" />
    <glyph glyph-name="K" unicode="K" horiz-adv-x="1271" 
d="M1239 1434l-694 -707v-29l686 -698h-232l-626 635h-45v-635h-168v1434h168v-646h45l635 646h231z" />
    <glyph glyph-name="L" unicode="L" horiz-adv-x="1050" 
d="M328 1434v-1282h682v-152h-850v1434h168z" />
    <glyph glyph-name="M" unicode="M" horiz-adv-x="1843" 
d="M1405 1434l-469 -1282h-29l-467 1282h-280v-1434h168v1049q0 52 -5 110.5t-9 90.5l-5 32h29l467 -1282h233l467 1282h29q-18 -116 -18 -233v-1049h167v1434h-278z" />
    <glyph glyph-name="N" unicode="N" horiz-adv-x="1513" 
d="M1186 406q0 -59 4 -122.5t8 -97.5l4 -34h-26l-754 1282h-262v-1434h168v1032q0 59 -4 121.5t-8 95.5l-5 33h27l756 -1282h260v1434h-168v-1028z" />
    <glyph glyph-name="O" unicode="O" horiz-adv-x="1482" 
d="M741 127q101 0 185 35.5t139.5 94t93.5 135.5t55 159t17 166t-17 166t-55 159t-93.5 135.5t-139.5 94t-185 35.5q-102 0 -185.5 -35.5t-139 -93.5t-93.5 -136t-54.5 -159t-16.5 -166t16.5 -166t54.5 -159t93.5 -136t139 -93.5t185.5 -35.5zM741 1458q137 0 249.5 -44.5
t187 -118t125.5 -171t73.5 -200t22.5 -209.5q0 -106 -22.5 -208t-73.5 -199t-125.5 -170.5t-187 -118t-249.5 -44.5t-249.5 44.5t-186.5 118t-125 170.5t-73.5 199t-22.5 208q0 107 22.5 209.5t73.5 200.5t125 171t186.5 117.5t249.5 44.5z" />
    <glyph glyph-name="P" unicode="P" horiz-adv-x="1251" 
d="M756 797q114 0 195 64t81 179t-81 178.5t-195 63.5h-428v-485h428zM772 1434q79 0 154 -25t137 -72.5t99.5 -124.5t37.5 -172t-38 -172.5t-100 -124.5t-137 -72.5t-153 -25.5h-444v-645h-168v1434h612z" />
    <glyph glyph-name="Q" unicode="Q" horiz-adv-x="1474" 
d="M250 729q0 -83 16 -162.5t53.5 -156t91.5 -133.5t136.5 -92t183.5 -35q91 0 170 34.5t134.5 92.5t95.5 133t59.5 156.5t19.5 162.5q0 83 -16 163t-53 156t-91.5 133.5t-136.5 92.5t-182 35q-101 0 -183.5 -35t-136.5 -92.5t-91.5 -133.5t-53.5 -156t-16 -163zM987 115
q131 37 256 37h131v-152h-643q-135 0 -245.5 43.5t-183.5 115.5t-123.5 167.5t-72.5 196.5t-22 206t22 206t72.5 196.5t123.5 167.5t183.5 115.5t245.5 43.5q112 0 208 -30.5t165.5 -84t122.5 -123t85 -152.5t48 -167.5t16 -171.5q0 -215 -104.5 -368t-284.5 -216v-30z" />
    <glyph glyph-name="R" unicode="R" horiz-adv-x="1318" 
d="M758 797q113 0 194.5 64t81.5 179q0 114 -82 178t-194 64h-430v-485h430zM969 729q86 0 149.5 -63.5t63.5 -149.5v-516h-156v512q0 54 -39 93.5t-92 39.5h-569v-645h-166v1434h614q209 0 318.5 -100.5t109.5 -258.5q0 -61 -21 -114.5t-48 -86.5t-64 -60t-59 -38t-41 -18
v-29z" />
    <glyph glyph-name="S" unicode="S" horiz-adv-x="1216" 
d="M1128 403q0 62 -17.5 114.5t-45 89.5t-72.5 68.5t-87 51t-102.5 37t-105.5 27t-108 20.5q-58 10 -97.5 19t-87 27t-76 42t-48 63t-19.5 89q0 47 19.5 90.5t59 81.5t108 61t157.5 23q90 0 159 -23t108.5 -61t59 -81.5t19.5 -90.5v-17h168v17q0 75 -29.5 144.5t-88 129.5
t-161.5 96.5t-235 36.5t-234.5 -36.5t-161 -96.5t-87.5 -129.5t-29 -144.5q0 -49 10 -91t26 -74.5t43 -61t52 -48t63 -37.5t66.5 -28.5t72 -21.5t70 -16.5t68.5 -13.5q49 -9 74.5 -14.5t74.5 -18t77 -24t65 -32t56.5 -43t34 -54.5t14.5 -70q0 -51 -20.5 -98.5t-61.5 -88
t-112.5 -65t-164.5 -24.5t-165.5 26.5t-114 69.5t-62 92t-20.5 101h-168q0 -63 18 -124t59 -119t101 -101.5t150 -70t200 -26.5t200.5 25t150.5 67t100.5 98t58.5 115.5t18 122.5z" />
    <glyph glyph-name="T" unicode="T" horiz-adv-x="1105" 
d="M1077 1434v-152h-440v-1282h-168v1282h-440v152h1048z" />
    <glyph glyph-name="U" unicode="U" horiz-adv-x="1400" 
d="M1087 590q0 -66 -13 -130t-43 -125t-74 -106.5t-110 -73.5t-147 -28t-147 28t-110 73.5t-74 106.5t-43 125t-13 130v844h-168v-846q0 -80 17.5 -161t59.5 -163.5t103.5 -145.5t158.5 -103t216 -40t216 39.5t158.5 102.5t103.5 145t59.5 163.5t17.5 162.5v846h-168v-844z
" />
    <glyph glyph-name="V" unicode="V" horiz-adv-x="1327" 
d="M1130 1434q-418 -1153 -428 -1180q-8 -24 -14.5 -49.5t-9.5 -38.5l-2 -14h-25q-8 47 -26 102l-428 1180h-177l512 -1434h263l512 1434h-177z" />
    <glyph glyph-name="W" unicode="W" horiz-adv-x="2088" 
d="M1892 1434q-330 -1157 -340 -1190l-18 -92h-25q-12 51 -22 92l-332 1190h-223l-330 -1188l-22 -94h-25q-10 55 -20 94l-338 1188h-166l387 -1434h266l328 1182q5 18 9.5 43t6.5 41l2 16h29q6 -59 16 -100l330 -1182h266l387 1434h-166z" />
    <glyph glyph-name="X" unicode="X" horiz-adv-x="1398" 
d="M1366 1434l-510 -711l518 -723h-205l-456 637h-27l-457 -637h-204l516 723l-508 711h205l460 -646l463 646h205z" />
    <glyph glyph-name="Y" unicode="Y" horiz-adv-x="1146" 
d="M631 897q-13 -22 -23.5 -46t-15.5 -37l-4 -13h-29q-16 47 -45 96l-317 537h-177l469 -791v-643h168v641l469 793h-176z" />
    <glyph glyph-name="Z" unicode="Z" horiz-adv-x="1220" 
d="M268 174q53 27 123 119l744 999v142h-1016v-152h827v-25q-6 -2 -16 -7.5t-41.5 -32.5t-61.5 -66l-751 -1010v-141h1048v152h-856v22z" />
    <glyph glyph-name="bracketleft" unicode="[" horiz-adv-x="559" 
d="M287 1315q104 -21 221 -21h51v140h-440v-1860h440v139h-51q-52 0 -107.5 -4.5t-84.5 -8.5l-29 -5v1620z" />
    <glyph glyph-name="backslash" unicode="\" horiz-adv-x="845" 
d="M154 1434l692 -1805h-154l-692 1805h154z" />
    <glyph glyph-name="bracketright" unicode="]" horiz-adv-x="559" 
d="M272 -305q-104 18 -221 18h-51v-139h440v1860h-440v-140h51q52 0 107 5t84 11l30 5v-1620z" />
    <glyph glyph-name="asciicircum" unicode="^" horiz-adv-x="1062" 
d="M774 993q-194 478 -196 482q-12 30 -20 63t-10 50l-3 18h-27q-6 -63 -33 -131l-196 -482h-154l301 744h191l301 -744h-154z" />
    <glyph glyph-name="underscore" unicode="_" horiz-adv-x="1259" 
d="M135 -25h989v-139h-989v139z" />
    <glyph glyph-name="grave" unicode="`" horiz-adv-x="460" 
d="M90 1812h156l127 -268h-146z" />
    <glyph glyph-name="a" unicode="a" 
d="M819 573q-54 -40 -387 -96q-76 -14 -131 -61.5t-55 -124.5q0 -69 48 -119t116 -59q60 -12 117.5 -3t123.5 48q66 38 106.5 98t53.5 127q8 58 8 100v90zM1104 152v-152h-127q-53 0 -86 33t-33 86q0 38 7 79.5t15 63.5l7 23h-29q-2 -6 -6.5 -17.5t-20 -43t-34 -59.5
t-50 -61t-65.5 -55q-145 -90 -334 -69q-107 11 -185.5 91.5t-78.5 196.5q0 64 20 114.5t55 83.5t75 53t88 32q73 17 190 33t154 24q35 6 57 12.5t45 18t32 31t3 45.5q-14 70 -86.5 120t-177.5 50q-125 0 -204 -68.5t-79 -165.5h-164q0 73 30.5 140t86.5 119t142 83t190 31
q205 0 325.5 -113.5t120.5 -279.5v-441q0 -17 11 -27.5t30 -10.5h76z" />
    <glyph glyph-name="b" unicode="b" horiz-adv-x="1169" 
d="M610 127q149 0 233.5 106t84.5 267t-85 266.5t-233 105.5t-233.5 -105.5t-85.5 -266.5t85 -267t234 -106zM655 1024q89 0 163 -30t124.5 -80.5t86 -118t51.5 -142t16 -153.5t-16 -153.5t-50.5 -142.5t-84.5 -118.5t-123.5 -80.5t-162.5 -30q-267 0 -370 242h-27
q29 -95 29 -197v-20h-168v1434h168v-414q0 -59 -7.5 -119t-14.5 -91l-7 -30h27q45 107 134.5 175.5t231.5 68.5z" />
    <glyph glyph-name="c" unicode="c" horiz-adv-x="1064" 
d="M823 309q-33 -80 -99.5 -131t-170.5 -51q-81 0 -143.5 33.5t-97.5 89t-52.5 119.5t-17.5 133q0 67 17.5 129.5t52.5 118t97.5 89t143.5 33.5q104 0 171.5 -52t100.5 -132h176q-20 67 -55.5 124.5t-88.5 106.5t-131.5 77t-172.5 28q-101 0 -183.5 -31.5t-136.5 -83
t-90.5 -120.5t-52.5 -140.5t-16 -146.5q0 -76 16 -148.5t52.5 -142t90.5 -121.5t136.5 -83.5t183.5 -31.5q95 0 173 27.5t131 75.5t88.5 105.5t55.5 125.5h-178z" />
    <glyph glyph-name="d" unicode="d" horiz-adv-x="1163" 
d="M242 500q0 -161 83.5 -267t231.5 -106t231.5 106t83.5 267t-84 266.5t-231 105.5t-231 -105.5t-84 -266.5zM74 500q0 79 15.5 153.5t50 142.5t84 118t123.5 80t163 30q142 0 230 -68.5t132 -175.5h29q-29 107 -29 240v414h168v-1434h-168v20q0 45 7 94.5t15 75.5l7 27
h-29q-99 -242 -366 -242q-89 0 -162 30t-122 80.5t-83 118.5t-49.5 142.5t-15.5 153.5z" />
    <glyph glyph-name="e" unicode="e" horiz-adv-x="1105" 
d="M551 885q-74 0 -133.5 -28t-96 -74.5t-58 -100t-27.5 -111.5h632q-3 54 -24 107.5t-58 100.5t-98.5 76.5t-136.5 29.5zM231 465q2 -61 20 -118.5t53 -111.5t99 -87t148 -33q226 0 297 221h164q-12 -52 -34.5 -100.5t-60.5 -97t-87.5 -84t-121 -57.5t-155.5 -22
q-100 0 -182 31.5t-136.5 83t-91.5 121t-53 142.5t-16 149q0 75 16 147t53 141t91 120.5t136 82.5t183 31q98 0 179 -29.5t137 -81.5t94 -123t54 -153t13 -172h-799z" />
    <glyph glyph-name="f" unicode="f" horiz-adv-x="655" 
d="M172 1075q0 52 11 101.5t35.5 96.5t61.5 82.5t93 57t125 21.5h125v-152h-129q-76 0 -115 -54.5t-39 -125.5v-103h281v-151h-281v-848h-168v848h-145v151h145v76z" />
    <glyph glyph-name="g" unicode="g" horiz-adv-x="1167" 
d="M539 145q-122 0 -226.5 54t-168.5 155.5t-64 229.5q0 198 123 319t321 121q141 0 241 -76.5t126 -187.5q7 -23 33.5 -52.5t48.5 -60t22 -63.5q0 -198 -126 -318.5t-330 -120.5zM539 285q138 0 225.5 83.5t87.5 215.5t-87.5 215.5t-225.5 83.5q-140 0 -228 -83.5
t-88 -215.5t88 -215.5t228 -83.5zM559 -467q164 0 271.5 49.5t107.5 128.5q0 53 -52 94t-138 62.5t-189 21.5q-167 0 -273 -48.5t-106 -129.5q0 -79 107 -128.5t272 -49.5zM272 -53h-45q-64 0 -106.5 34t-42.5 95q0 62 42 93.5t107 31.5h39v35l273 -50v-41h-244
q-35 0 -58.5 -16t-23.5 -49q0 -32 23.5 -48t58.5 -16h264q232 0 383.5 -85.5t151.5 -219.5q0 -133 -151.5 -219t-381.5 -86q-155 0 -277 36.5t-190.5 101.5t-68.5 147q0 54 25.5 97t66.5 69t79 41t76 22v27zM918 760q-27 100 -27 170q0 29 20.5 49t49.5 20h165v-151h-96
q-15 0 -25 -9.5t-10 -23.5v-231l-104 16v160h27z" />
    <glyph glyph-name="h" unicode="h" horiz-adv-x="1165" 
d="M1049 573q0 98 -29 186t-97 159.5t-167 95.5q-162 38 -296 -48.5t-175 -260.5h-29q39 131 39 233v496h-168v-1434h168v326q0 119 14 247q21 156 112 245.5t234 64.5q226 -34 226 -328v-555h168v573z" />
    <glyph glyph-name="i" unicode="i" horiz-adv-x="448" 
d="M328 934q0 26 -20 45.5t-48 19.5h-221v-151h84q15 0 26 -11t11 -26v-811h168v934zM240 1282q-39 0 -68 27t-29 65t29 65t68 27q36 0 64 -27t28 -65t-28 -65t-64 -27z" />
    <glyph glyph-name="j" unicode="j" horiz-adv-x="462" 
d="M342 928q0 29 -20.5 50t-49.5 21h-225v-151h90q15 0 26 -11t11 -26v-1071q0 -65 -45.5 -111.5t-108.5 -46.5h-120v-151h151q130 0 210.5 87t80.5 203v1207zM246 1282q-38 0 -66 27t-28 65t28 65t66 27q37 0 64.5 -27t27.5 -65t-27.5 -65t-64.5 -27z" />
    <glyph glyph-name="k" unicode="k" horiz-adv-x="1003" 
d="M295 1434v-906h51l445 471h192l-498 -530v-27l465 -442h-209l-395 375h-51v-375h-168v1434h168z" />
    <glyph glyph-name="l" unicode="l" horiz-adv-x="421" 
d="M127 1434h168v-1434h-168v1434z" />
    <glyph glyph-name="m" unicode="m" horiz-adv-x="1906" 
d="M1790 596q0 87 -30.5 171t-100 153.5t-164.5 91.5q-155 38 -289.5 -48t-189.5 -262h-29q3 26 -6.5 67t-32 91t-73.5 93t-121 59q-155 37 -287.5 -49t-181.5 -261h-29q39 120 39 222v75h-168v-999h168v358q0 134 12 213q13 66 39 122.5t67 104.5t103.5 70.5t138.5 10.5
q82 -14 134.5 -61t72 -106t19.5 -132v-580h155v358q0 124 13 213q12 66 37.5 123t66.5 105t103.5 70.5t138.5 9.5q114 -18 170.5 -102.5t56.5 -196.5v-580h168v596z" />
    <glyph glyph-name="n" unicode="n" horiz-adv-x="1165" 
d="M1049 573q0 98 -29 186t-97 159.5t-167 95.5q-162 38 -296 -48.5t-175 -260.5h-29q39 119 39 221v73h-168v-999h168v326q0 119 14 247q21 156 112 245.5t234 64.5q226 -34 226 -328v-555h168v573z" />
    <glyph glyph-name="o" unicode="o" horiz-adv-x="1089" 
d="M545 104q68 0 123.5 23.5t91.5 62.5t60.5 91t35 107t10.5 112t-10.5 111.5t-35 106.5t-60.5 91t-91.5 62.5t-123.5 23.5q-85 0 -149.5 -35t-101.5 -94t-55 -126t-18 -140t18 -140.5t55 -126t101.5 -94t149.5 -35.5zM545 1024q99 0 180 -31.5t134 -83t89.5 -120.5
t52 -141.5t15.5 -147.5t-15.5 -147.5t-52 -141.5t-89.5 -121t-134 -83.5t-180 -31.5t-180.5 31.5t-134.5 83.5t-89 121t-51.5 141t-15.5 148t15.5 148t51.5 141t89 120.5t134.5 83t180.5 31.5z" />
    <glyph glyph-name="p" unicode="p" horiz-adv-x="1169" 
d="M928 500q0 160 -85 266t-235 106q-148 0 -233.5 -106.5t-83.5 -265.5q2 -161 86 -267t231 -106q99 0 172.5 51t110.5 134.5t37 187.5zM1096 500q0 -79 -16 -153.5t-51.5 -142.5t-86 -118.5t-124.5 -80.5t-163 -30q-142 0 -232.5 69t-133.5 175h-27q29 -106 29 -239v-549
h-168v1568h168v-20q0 -44 -7.5 -93.5t-14.5 -76.5l-7 -27h27q44 107 134 174.5t236 67.5q110 0 196 -45t137.5 -121t77.5 -167t26 -191z" />
    <glyph glyph-name="q" unicode="q" horiz-adv-x="1167" 
d="M561 872q-150 0 -234.5 -106t-84.5 -266t85 -266.5t234 -106.5q146 0 231 106.5t85 266.5t-84.5 266t-231.5 106zM514 -25q-89 0 -163 30t-124.5 80.5t-85.5 118.5t-51 142.5t-16 153.5q0 100 26 191t77 167t137 121t196 45q146 0 235.5 -67.5t131.5 -174.5h28
q-28 97 -28 197v20h167v-1568h-167v549q0 59 7 119t14 90l7 30h-28q-44 -107 -132.5 -175.5t-230.5 -68.5z" />
    <glyph glyph-name="r" unicode="r" horiz-adv-x="768" 
d="M727 999q-157 -3 -260.5 -87t-144.5 -226h-29q29 162 29 244q0 31 -22.5 50t-55.5 19h-203v-151h100q29 0 29 -29v-819h168v432q0 78 21.5 149.5t66 132.5t122 97.5t179.5 36.5v151z" />
    <glyph glyph-name="s" unicode="s" horiz-adv-x="937" 
d="M866 299q0 68 -21.5 118.5t-57.5 80t-83 49.5t-99 30t-104 17.5t-99 15.5t-83 21t-57.5 37.5t-21.5 60.5q0 53 34 89.5t83 51.5t108 15q96 0 163.5 -40t67.5 -118v-16h156v16q0 134 -108 215.5t-281 81.5t-281 -81.5t-108 -215.5q0 -79 34.5 -131t89.5 -75.5t122 -36
t134 -21.5t122 -24t89.5 -50.5t34.5 -93.5q0 -47 -21 -83t-56 -56.5t-76 -30.5t-86 -10q-108 0 -179.5 45.5t-72.5 136.5h-156q1 -146 114 -234t294 -88t293 88.5t112 235.5z" />
    <glyph glyph-name="t" unicode="t" horiz-adv-x="663" 
d="M172 307q0 -127 82.5 -217t222.5 -90h146v152h-129q-65 0 -109.5 45.5t-44.5 111.5v539h283v151h-283v435h-168v-435h-145v-151h145v-541z" />
    <glyph glyph-name="u" unicode="u" horiz-adv-x="1165" 
d="M117 426q0 -98 29 -185.5t97 -159t167 -95.5q161 -39 295.5 48.5t175.5 260.5h28q-39 -119 -39 -221v-74h168v999h-168v-325q0 -120 -14 -248q-23 -157 -113 -245.5t-233 -63.5q-225 33 -225 327v555h-168v-573z" />
    <glyph glyph-name="v" unicode="v" horiz-adv-x="1003" 
d="M551 289q-12 -32 -20.5 -66.5t-11.5 -52.5l-3 -18h-27q-9 65 -36 137l-269 710h-168l367 -999h238l366 999h-168z" />
    <glyph glyph-name="w" unicode="w" horiz-adv-x="1708" 
d="M1276 274q-10 -34 -17.5 -64.5t-9.5 -43.5l-2 -14h-26q-8 46 -31 122l-225 725h-220q-219 -698 -225 -718q-11 -36 -19.5 -68t-10.5 -47l-3 -14h-24q-10 49 -35 129l-225 718h-176l313 -999h244l229 725q10 34 17.5 64.5t9.5 44.5l2 14h24q9 -47 29 -123l225 -725h248
l313 999h-176z" />
    <glyph glyph-name="x" unicode="x" horiz-adv-x="999" 
d="M977 999l-334 -487l340 -512h-182l-287 426h-27l-288 -426h-183l342 512l-335 487h184l293 -421l295 421h182z" />
    <glyph glyph-name="y" unicode="y" horiz-adv-x="1015" 
d="M567 299q-17 -43 -29 -79.5t-15 -51.5l-3 -16h-24q-8 51 -47 147l-269 700h-164l375 -999h68l-111 -295q-22 -53 -66 -92t-114 -39h-133v-143h125q134 0 218.5 68t119.5 161l501 1339h-163z" />
    <glyph glyph-name="z" unicode="z" horiz-adv-x="950" 
d="M666 834q-47 -8 -123 -95l-471 -594v-145h786v139h-594v27q32 6 115 98l479 590v145h-754v-139h562v-26z" />
    <glyph glyph-name="braceleft" unicode="{" horiz-adv-x="681" 
d="M223 518q66 0 111.5 34t64.5 81t19 102v244q0 55 14.5 106.5t44.5 96.5t83 72.5t122 27.5v152q-89 0 -163 -29t-123 -77t-82.5 -111.5t-48.5 -130.5t-15 -136v-213q0 -72 -39 -125t-117 -53v-110q78 0 117 -53t39 -124v-213q0 -88 25 -171t74.5 -155t135.5 -115.5
t197 -43.5v152q-69 0 -122 27.5t-83 73t-44.5 97t-14.5 107.5v243q0 85 -49.5 150t-145.5 65v29z" />
    <glyph glyph-name="bar" unicode="|" horiz-adv-x="626" 
d="M242 1434h143v-1860h-143v1860z" />
    <glyph glyph-name="braceright" unicode="}" horiz-adv-x="681" 
d="M459 489q-66 0 -111.5 -34t-64.5 -81t-19 -102v-243q0 -55 -14.5 -106.5t-44.5 -96.5t-83 -72.5t-122 -27.5v-152q89 0 163 29t123 76.5t82.5 111t48.5 130.5t15 136v213q0 72 39 125.5t117 53.5v110q-78 0 -117 53t-39 123v213q0 70 -15 137t-48.5 131t-82.5 112
t-123 77t-163 29v-152q69 0 122 -27.5t83 -73t44.5 -97t14.5 -107.5v-244q0 -85 49.5 -150t145.5 -65v-29z" />
    <glyph glyph-name="asciitilde" unicode="~" horiz-adv-x="1146" 
d="M856 864q0 -35 -0.5 -52t-2.5 -45t-7.5 -41.5t-14.5 -29t-24 -22t-35 -6.5q-32 0 -89.5 30.5t-112 66.5t-120 66.5t-110.5 30.5q-52 0 -88.5 -20.5t-56.5 -50.5t-31 -80.5t-14 -94.5t-3 -108h144q0 40 1 62.5t5 52.5t12.5 45.5t25 27t40.5 11.5q32 0 89.5 -31
t112.5 -67.5t120 -67.5t110 -31q51 0 87.5 20.5t56.5 51t31 80.5t14 94.5t3 107.5h-143z" />
    <glyph glyph-name="sterling" unicode="&#xa3;" horiz-adv-x="1234" 
d="M1008 203q0 -23 -15 -37t-39 -14h-440q-52 0 -129 -7t-127 -15l-51 -7v29q94 51 149 129.5t67 163.5t0.5 165.5t-44.5 151.5h524v106h-549q-16 47 -18 103.5t14.5 116t50.5 108t99 80t151 31.5q72 0 129.5 -23t92 -60.5t54.5 -76.5t27 -80h164q-7 49 -24.5 98.5
t-54.5 103.5t-87.5 95t-128.5 67.5t-172 26.5q-87 0 -161 -21.5t-126 -58.5t-91.5 -86t-62 -103.5t-33 -111.5t-8.5 -110t15 -99h-118v-106h149q43 -82 58 -170t1 -171t-68 -155t-143 -114v-152h938q71 6 110.5 46.5t39.5 109.5v149h-143v-102z" />
    <glyph glyph-name="yen" unicode="&#xa5;" horiz-adv-x="1187" 
d="M651 897q-13 -22 -23.5 -46t-15.5 -37l-4 -13h-28q-16 47 -45 96l-318 537h-176l469 -791v-643h168v641l469 793h-176zM205 702v-106h782v106h-782zM205 428v-106h782v106h-782z" />
    <glyph glyph-name="section" unicode="&#xa7;" horiz-adv-x="999" 
d="M500 561q47 0 91 9t83 27.5t62.5 51t23.5 74.5t-23.5 74.5t-62.5 51t-83 27.5t-91 9t-91 -9t-83 -27.5t-62.5 -51t-23.5 -74.5t23.5 -74.5t62.5 -51t83 -27.5t91 -9zM504 1024q188 0 305 -74.5t117 -201.5q0 -62 -36.5 -111t-87 -73t-92 -36t-63.5 -12v-29
q37 -1 75.5 -14.5t74 -39t58 -69.5t22.5 -100q0 -129 -107 -209t-270 -80t-270 80t-107 209v21h166v-19q0 -73 61 -112t150 -39t150 39t61 112q0 74 -60.5 113t-150.5 39q-74 0 -145 15.5t-136 47.5t-105 89t-40 132q0 43 17 79.5t44.5 60.5t59.5 42.5t64 28t55.5 14.5
t37.5 5v29q-35 2 -74 17.5t-74 41.5t-58 68t-23 90q0 126 106.5 203t274.5 77t274.5 -77t106.5 -203v-25h-166v18q0 71 -62 109.5t-153 38.5t-153 -38.5t-62 -109.5t62 -109t153 -38z" />
    <glyph glyph-name="dieresis" unicode="&#xa8;" horiz-adv-x="761" 
d="M211 1628q-39 0 -67.5 27t-28.5 65t28.5 65t67.5 27q36 0 64 -27t28 -65t-28 -65t-64 -27zM555 1628q-40 0 -68 27t-28 65t28 65t68 27q36 0 64 -27t28 -65t-28 -65t-64 -27z" />
    <glyph glyph-name="copyright" unicode="&#xa9;" horiz-adv-x="1662" 
d="M582 719q0 56 14.5 108.5t44 98.5t81 74t118.5 28q156 0 221 -141h137q-11 34 -28 66.5t-47 68t-68 62t-94 44t-121 17.5q-80 0 -146 -25.5t-109.5 -67.5t-73.5 -98.5t-43 -115.5t-13 -121q0 -77 22 -150t66 -136t121 -101.5t176 -38.5q64 0 120 17t93.5 43t68 61.5
t47.5 67t29 65.5h-139q-27 -61 -82.5 -100t-136.5 -39q-67 0 -118.5 28t-81 74.5t-44 100t-14.5 110.5zM831 82q129 0 247 50.5t203.5 135.5t136 202.5t50.5 246.5t-50.5 246.5t-136 202.5t-203.5 135.5t-247 50.5q-172 0 -318.5 -85t-232 -231.5t-85.5 -318.5t85.5 -318.5
t232 -231.5t318.5 -85zM831 1458q153 0 291.5 -58.5t239 -157.5t160 -236.5t59.5 -288.5t-59.5 -288.5t-160 -237t-239 -158t-291.5 -58.5t-291.5 58.5t-238.5 158t-159.5 237t-59.5 288.5t59.5 288.5t159.5 236.5t238.5 157.5t291.5 58.5z" />
    <glyph glyph-name="guillemotleft" unicode="&#xab;" horiz-adv-x="1222" 
d="M705 0q-353 410 -357 412q-31 35 -61.5 54t-42.5 19v27q12 0 42 20t62 56l357 411h-189l-434 -499l434 -500h189zM1141 0q-357 410 -359 412q-33 35 -62.5 54t-41.5 19v27q11 0 41 20t63 56l359 411h-191l-434 -499l434 -500h191z" />
    <glyph glyph-name="registered" unicode="&#xae;" horiz-adv-x="954" 
d="M477 743q85 0 150 29.5t102 78t55.5 104t18.5 114.5t-18.5 114.5t-55.5 104t-102 78t-150 29.5t-149.5 -29.5t-101 -78t-54.5 -104t-18 -114.5t18 -114.5t54.5 -104t101 -78t149.5 -29.5zM477 1458q103 0 182 -35t124 -92.5t67 -124t22 -137.5t-22 -137.5t-67 -124
t-124 -92.5t-182 -35t-182 35t-124 92.5t-67 124t-22 137.5t22 137.5t67 124t124 92.5t182 35zM502 1114q27 0 45 14.5t18 40.5t-18.5 41t-44.5 15h-105v-111h105zM565 1077q29 0 46.5 -17t17.5 -44v-156h-68v158q0 15 -10 25t-25 10h-131v-193h-67v426h180q61 0 95 -29
t34 -77q0 -60 -72 -95v-8z" />
    <glyph glyph-name="plusminus" unicode="&#xb1;" horiz-adv-x="1112" 
d="M143 125h826v-125h-826v125zM627 1051v-310h342v-141h-342v-309h-144v309h-340v141h340v310h144z" />
    <glyph glyph-name="acute" unicode="&#xb4;" horiz-adv-x="460" 
d="M371 1812l-138 -268h-145l127 268h156z" />
    <glyph glyph-name="periodcentered" unicode="&#xb7;" horiz-adv-x="442" 
d="M223 397q-46 0 -79 32.5t-33 76.5q0 45 33 76.5t79 31.5q44 0 76.5 -31.5t32.5 -76.5q0 -44 -33 -76.5t-76 -32.5z" />
    <glyph glyph-name="guillemotright" unicode="&#xbb;" horiz-adv-x="1222" 
d="M516 0h191l434 500l-434 499h-191q354 -407 358 -411q32 -36 62 -56t41 -20v-27q-12 0 -42 -19t-61 -54zM82 0h188l435 500l-435 499h-188q354 -407 356 -411q34 -36 65 -56t42 -20v-27q-12 0 -43 -19t-64 -54z" />
    <glyph glyph-name="Aacute" unicode="&#xc1;" horiz-adv-x="1296" 
d="M760 1434l516 -1434h-156l-127 358h-690l-127 -358h-156l517 1434h223zM354 498h588l-278 784h-29zM868 1810l-137 -268h-145l127 268h155z" />
    <glyph glyph-name="Acircumflex" unicode="&#xc2;" horiz-adv-x="1296" 
d="M760 1434l516 -1434h-156l-127 358h-690l-127 -358h-156l517 1434h223zM354 498h588l-278 784h-29zM748 1810l165 -243h-151l-107 153h-14l-106 -153h-152l166 243h199z" />
    <glyph glyph-name="Adieresis" unicode="&#xc4;" horiz-adv-x="1296" 
d="M760 1434l516 -1434h-156l-127 358h-690l-127 -358h-156l517 1434h223zM354 498h588l-278 784h-29zM477 1628q-39 0 -67.5 27t-28.5 65t28.5 65t67.5 27q36 0 64 -27t28 -65t-28 -65t-64 -27zM821 1628q-40 0 -68 27t-28 65t28 65t68 27q36 0 64 -27t28 -65t-28 -65
t-64 -27z" />
    <glyph glyph-name="Aring" unicode="&#xc5;" horiz-adv-x="1296" 
d="M760 1434l516 -1434h-156l-127 358h-690l-127 -358h-156l517 1434h223zM354 498h588l-278 784h-29zM653 1675q62 0 92.5 39t30.5 90t-30.5 89t-92.5 38q-61 0 -91 -38t-30 -89t30 -90t91 -39zM653 2042q63 0 111.5 -21t76 -56.5t41 -76t13.5 -84.5q0 -96 -60 -166.5
t-182 -70.5q-62 0 -110 21t-75 55.5t-40.5 75t-13.5 85.5q0 95 59.5 166.5t179.5 71.5z" />
    <glyph glyph-name="Eacute" unicode="&#xc9;" 
d="M1042 1434v-152h-714v-485h647v-148h-647v-497h714v-152h-882l2 1434h880zM795 1812l-138 -268h-145l127 268h156z" />
    <glyph glyph-name="Ecircumflex" unicode="&#xca;" 
d="M1042 1434v-152h-714v-485h647v-148h-647v-497h714v-152h-882l2 1434h880zM700 1812l166 -243h-151l-107 153h-14l-107 -153h-151l166 243h198z" />
    <glyph glyph-name="Edieresis" unicode="&#xcb;" 
d="M1042 1434v-152h-714v-485h647v-148h-647v-497h714v-152h-882l2 1434h880zM442 1628q-39 0 -67.5 27t-28.5 65t28.5 65t67.5 27q36 0 64.5 -27.5t28.5 -64.5t-28.5 -64.5t-64.5 -27.5zM786 1628q-40 0 -68 27t-28 65t28 65t68 27q36 0 64.5 -27.5t28.5 -64.5t-28.5 -64.5
t-64.5 -27.5z" />
    <glyph glyph-name="Igrave" unicode="&#xcc;" horiz-adv-x="487" 
d="M160 1434h168v-1434h-168v1434zM29 1810h155l127 -268h-145z" />
    <glyph glyph-name="Iacute" unicode="&#xcd;" horiz-adv-x="487" 
d="M160 1434h168v-1434h-168v1434zM457 1810l-138 -268h-145l127 268h156z" />
    <glyph glyph-name="Icircumflex" unicode="&#xce;" horiz-adv-x="487" 
d="M160 1434h168v-1434h-168v1434zM342 1810l166 -243h-152l-106 153h-14l-107 -153h-152l166 243h199z" />
    <glyph glyph-name="Idieresis" unicode="&#xcf;" horiz-adv-x="487" 
d="M160 1434h168v-1434h-168v1434zM74 1626q-39 0 -68 27t-29 65t29 65t68 27q36 0 64 -27t28 -65t-28 -65t-64 -27zM418 1626q-40 0 -68 27t-28 65t28 65t68 27q36 0 64 -27t28 -65t-28 -65t-64 -27z" />
    <glyph glyph-name="Oacute" unicode="&#xd3;" horiz-adv-x="1482" 
d="M741 127q101 0 185 35.5t139.5 94t93.5 135.5t55 159t17 166t-17 166t-55 159t-93.5 135.5t-139.5 94t-185 35.5q-102 0 -185.5 -35.5t-139 -93.5t-93.5 -136t-54.5 -159t-16.5 -166t16.5 -166t54.5 -159t93.5 -136t139 -93.5t185.5 -35.5zM741 1458q137 0 249.5 -44.5
t187 -118t125.5 -171t73.5 -200t22.5 -209.5q0 -106 -22.5 -208t-73.5 -199t-125.5 -170.5t-187 -118t-249.5 -44.5t-249.5 44.5t-186.5 118t-125 170.5t-73.5 199t-22.5 208q0 107 22.5 209.5t73.5 200.5t125 171t186.5 117.5t249.5 44.5zM944 1812l-137 -268h-145l126 268
h156z" />
    <glyph glyph-name="Ocircumflex" unicode="&#xd4;" horiz-adv-x="1482" 
d="M741 127q101 0 185 35.5t139.5 94t93.5 135.5t55 159t17 166t-17 166t-55 159t-93.5 135.5t-139.5 94t-185 35.5q-102 0 -185.5 -35.5t-139 -93.5t-93.5 -136t-54.5 -159t-16.5 -166t16.5 -166t54.5 -159t93.5 -136t139 -93.5t185.5 -35.5zM741 1458q137 0 249.5 -44.5
t187 -118t125.5 -171t73.5 -200t22.5 -209.5q0 -106 -22.5 -208t-73.5 -199t-125.5 -170.5t-187 -118t-249.5 -44.5t-249.5 44.5t-186.5 118t-125 170.5t-73.5 199t-22.5 208q0 107 22.5 209.5t73.5 200.5t125 171t186.5 117.5t249.5 44.5zM842 1815l166 -244h-152l-106 153
h-15l-106 -153h-152l166 244h199z" />
    <glyph glyph-name="Odieresis" unicode="&#xd6;" horiz-adv-x="1482" 
d="M741 127q101 0 185 35.5t139.5 94t93.5 135.5t55 159t17 166t-17 166t-55 159t-93.5 135.5t-139.5 94t-185 35.5q-102 0 -185.5 -35.5t-139 -93.5t-93.5 -136t-54.5 -159t-16.5 -166t16.5 -166t54.5 -159t93.5 -136t139 -93.5t185.5 -35.5zM741 1458q137 0 249.5 -44.5
t187 -118t125.5 -171t73.5 -200t22.5 -209.5q0 -106 -22.5 -208t-73.5 -199t-125.5 -170.5t-187 -118t-249.5 -44.5t-249.5 44.5t-186.5 118t-125 170.5t-73.5 199t-22.5 208q0 107 22.5 209.5t73.5 200.5t125 171t186.5 117.5t249.5 44.5zM571 1628q-39 0 -67.5 27
t-28.5 65t28.5 65t67.5 27q36 0 64.5 -27.5t28.5 -64.5t-28.5 -64.5t-64.5 -27.5zM915 1628q-40 0 -68 27t-28 65t28 65t68 27q36 0 64.5 -27.5t28.5 -64.5t-28.5 -64.5t-64.5 -27.5z" />
    <glyph glyph-name="multiply" unicode="&#xd7;" horiz-adv-x="1036" 
d="M860 926l-242 -242l242 -242l-98 -98l-242 242l-244 -244l-100 102l242 242l-240 242l98 98l240 -242l244 244z" />
    <glyph glyph-name="Oslash" unicode="&#xd8;" horiz-adv-x="1495" 
d="M750 127q101 0 184.5 35.5t139 94t93.5 135.5t55 159t17 166t-17 166t-55 159t-93.5 135.5t-139 94t-184.5 35.5q-102 0 -186 -35.5t-139 -93.5t-93.5 -136t-55 -159.5t-16.5 -165.5t16.5 -165.5t55 -159.5t93.5 -136t139 -93.5t186 -35.5zM750 1458q137 0 249.5 -44.5
t186.5 -117.5t125 -171t73.5 -200.5t22.5 -209.5q0 -106 -22.5 -208t-73.5 -199t-125 -170.5t-186.5 -118t-249.5 -44.5t-249.5 44.5t-187 118t-125.5 170.5t-73.5 199t-22.5 208q0 107 22.5 209.5t73.5 200t125.5 171t187 118t249.5 44.5zM1386 1444l-1093 -1454h-184
l1095 1454h182z" />
    <glyph glyph-name="Uacute" unicode="&#xda;" horiz-adv-x="1400" 
d="M1087 590q0 -66 -13 -130t-43 -125t-74 -106.5t-110 -73.5t-147 -28t-147 28t-110 73.5t-74 106.5t-43 125t-13 130v844h-168v-846q0 -80 17.5 -161t59.5 -163.5t103.5 -145.5t158.5 -103t216 -40t216 39.5t158.5 102.5t103.5 145t59.5 163.5t17.5 162.5v846h-168v-844z
M895 1812l-137 -268h-146l127 268h156z" />
    <glyph glyph-name="Udieresis" unicode="&#xdc;" horiz-adv-x="1400" 
d="M1087 590q0 -66 -13 -130t-43 -125t-74 -106.5t-110 -73.5t-147 -28t-147 28t-110 73.5t-74 106.5t-43 125t-13 130v844h-168v-846q0 -80 17.5 -161t59.5 -163.5t103.5 -145.5t158.5 -103t216 -40t216 39.5t158.5 102.5t103.5 145t59.5 163.5t17.5 162.5v846h-168v-844z
M551 1628q-39 0 -67.5 27t-28.5 65t28.5 65t67.5 27q36 0 64 -27t28 -65t-28 -65t-64 -27zM895 1628q-40 0 -68 27t-28 65t28 65t68 27q36 0 64 -27t28 -65t-28 -65t-64 -27z" />
    <glyph glyph-name="Yacute" unicode="&#xdd;" horiz-adv-x="1146" 
d="M631 897q-13 -22 -23.5 -46t-15.5 -37l-4 -13h-29q-16 47 -45 96l-317 537h-177l469 -791v-643h168v641l469 793h-176zM803 1812l-137 -268h-146l127 268h156z" />
    <glyph glyph-name="aacute" unicode="&#xe1;" 
d="M819 573q-54 -40 -387 -96q-76 -14 -131 -61.5t-55 -124.5q0 -69 48 -119t116 -59q60 -12 117.5 -3t123.5 48q66 38 106.5 98t53.5 127q8 58 8 100v90zM1104 152v-152h-127q-53 0 -86 33t-33 86q0 38 7 79.5t15 63.5l7 23h-29q-2 -6 -6.5 -17.5t-20 -43t-34 -59.5
t-50 -61t-65.5 -55q-145 -90 -334 -69q-107 11 -185.5 91.5t-78.5 196.5q0 64 20 114.5t55 83.5t75 53t88 32q73 17 190 33t154 24q35 6 57 12.5t45 18t32 31t3 45.5q-14 70 -86.5 120t-177.5 50q-125 0 -204 -68.5t-79 -165.5h-164q0 73 30.5 140t86.5 119t142 83t190 31
q205 0 325.5 -113.5t120.5 -279.5v-441q0 -17 11 -27.5t30 -10.5h76zM768 1466l-137 -268h-146l127 268h156z" />
    <glyph glyph-name="acircumflex" unicode="&#xe2;" 
d="M819 573q-54 -40 -387 -96q-76 -14 -131 -61.5t-55 -124.5q0 -69 48 -119t116 -59q60 -12 117.5 -3t123.5 48q66 38 106.5 98t53.5 127q8 58 8 100v90zM1104 152v-152h-127q-53 0 -86 33t-33 86q0 38 7 79.5t15 63.5l7 23h-29q-2 -6 -6.5 -17.5t-20 -43t-34 -59.5
t-50 -61t-65.5 -55q-145 -90 -334 -69q-107 11 -185.5 91.5t-78.5 196.5q0 64 20 114.5t55 83.5t75 53t88 32q73 17 190 33t154 24q35 6 57 12.5t45 18t32 31t3 45.5q-14 70 -86.5 120t-177.5 50q-125 0 -204 -68.5t-79 -165.5h-164q0 73 30.5 140t86.5 119t142 83t190 31
q205 0 325.5 -113.5t120.5 -279.5v-441q0 -17 11 -27.5t30 -10.5h76zM659 1466l166 -243h-151l-107 153h-14l-107 -153h-151l166 243h198z" />
    <glyph glyph-name="adieresis" unicode="&#xe4;" 
d="M819 573q-54 -40 -387 -96q-76 -14 -131 -61.5t-55 -124.5q0 -69 48 -119t116 -59q60 -12 117.5 -3t123.5 48q66 38 106.5 98t53.5 127q8 58 8 100v90zM1104 152v-152h-127q-53 0 -86 33t-33 86q0 38 7 79.5t15 63.5l7 23h-29q-2 -6 -6.5 -17.5t-20 -43t-34 -59.5
t-50 -61t-65.5 -55q-145 -90 -334 -69q-107 11 -185.5 91.5t-78.5 196.5q0 64 20 114.5t55 83.5t75 53t88 32q73 17 190 33t154 24q35 6 57 12.5t45 18t32 31t3 45.5q-14 70 -86.5 120t-177.5 50q-125 0 -204 -68.5t-79 -165.5h-164q0 73 30.5 140t86.5 119t142 83t190 31
q205 0 325.5 -113.5t120.5 -279.5v-441q0 -17 11 -27.5t30 -10.5h76zM397 1282q-39 0 -67.5 27t-28.5 65t28.5 65t67.5 27q36 0 64 -27t28 -65t-28 -65t-64 -27zM741 1282q-40 0 -68 27t-28 65t28 65t68 27q36 0 64.5 -27.5t28.5 -64.5t-28.5 -64.5t-64.5 -27.5z" />
    <glyph glyph-name="aring" unicode="&#xe5;" 
d="M819 573q-54 -40 -387 -96q-76 -14 -131 -61.5t-55 -124.5q0 -69 48 -119t116 -59q60 -12 117.5 -3t123.5 48q66 38 106.5 98t53.5 127q8 58 8 100v90zM1104 152v-152h-127q-53 0 -86 33t-33 86q0 38 7 79.5t15 63.5l7 23h-29q-2 -6 -6.5 -17.5t-20 -43t-34 -59.5
t-50 -61t-65.5 -55q-145 -90 -334 -69q-107 11 -185.5 91.5t-78.5 196.5q0 64 20 114.5t55 83.5t75 53t88 32q73 17 190 33t154 24q35 6 57 12.5t45 18t32 31t3 45.5q-14 70 -86.5 120t-177.5 50q-125 0 -204 -68.5t-79 -165.5h-164q0 73 30.5 140t86.5 119t142 83t190 31
q205 0 325.5 -113.5t120.5 -279.5v-441q0 -17 11 -27.5t30 -10.5h76zM537 1335q62 0 92 39t30 90t-30 89t-92 38q-61 0 -91 -38t-30 -89t30 -90t91 -39zM537 1702q63 0 111.5 -21t75.5 -56.5t40.5 -76t13.5 -84.5q0 -45 -13.5 -85.5t-40.5 -75t-75.5 -55.5t-111.5 -21
t-110.5 21t-75 55.5t-41 75.5t-13.5 85q0 95 60 166.5t180 71.5z" />
    <glyph glyph-name="eacute" unicode="&#xe9;" horiz-adv-x="1105" 
d="M551 885q-74 0 -133.5 -28t-96 -74.5t-58 -100t-27.5 -111.5h632q-3 54 -24 107.5t-58 100.5t-98.5 76.5t-136.5 29.5zM231 465q2 -61 20 -118.5t53 -111.5t99 -87t148 -33q226 0 297 221h164q-12 -52 -34.5 -100.5t-60.5 -97t-87.5 -84t-121 -57.5t-155.5 -22
q-100 0 -182 31.5t-136.5 83t-91.5 121t-53 142.5t-16 149q0 75 16 147t53 141t91 120.5t136 82.5t183 31q98 0 179 -29.5t137 -81.5t94 -123t54 -153t13 -172h-799zM762 1466l-137 -268h-146l127 268h156z" />
    <glyph glyph-name="ecircumflex" unicode="&#xea;" horiz-adv-x="1105" 
d="M551 885q-74 0 -133.5 -28t-96 -74.5t-58 -100t-27.5 -111.5h632q-3 54 -24 107.5t-58 100.5t-98.5 76.5t-136.5 29.5zM231 465q2 -61 20 -118.5t53 -111.5t99 -87t148 -33q226 0 297 221h164q-12 -52 -34.5 -100.5t-60.5 -97t-87.5 -84t-121 -57.5t-155.5 -22
q-100 0 -182 31.5t-136.5 83t-91.5 121t-53 142.5t-16 149q0 75 16 147t53 141t91 120.5t136 82.5t183 31q98 0 179 -29.5t137 -81.5t94 -123t54 -153t13 -172h-799zM653 1466l166 -243h-151l-107 153h-14l-107 -153h-151l166 243h198z" />
    <glyph glyph-name="edieresis" unicode="&#xeb;" horiz-adv-x="1105" 
d="M551 885q-74 0 -133.5 -28t-96 -74.5t-58 -100t-27.5 -111.5h632q-3 54 -24 107.5t-58 100.5t-98.5 76.5t-136.5 29.5zM231 465q2 -61 20 -118.5t53 -111.5t99 -87t148 -33q226 0 297 221h164q-12 -52 -34.5 -100.5t-60.5 -97t-87.5 -84t-121 -57.5t-155.5 -22
q-100 0 -182 31.5t-136.5 83t-91.5 121t-53 142.5t-16 149q0 75 16 147t53 141t91 120.5t136 82.5t183 31q98 0 179 -29.5t137 -81.5t94 -123t54 -153t13 -172h-799zM379 1284q-39 0 -67.5 27t-28.5 65t28.5 65t67.5 27q36 0 64 -27t28 -65t-28 -65t-64 -27zM723 1284
q-40 0 -68 27t-28 65t28 65t68 27q36 0 64 -27t28 -65t-28 -65t-64 -27z" />
    <glyph glyph-name="iacute" unicode="&#xed;" horiz-adv-x="454" 
d="M432 1466l-137 -268h-145l126 268h156zM328 934q0 26 -20 45.5t-48 19.5h-221v-151h84q15 0 26 -11t11 -26v-811h168v934z" />
    <glyph glyph-name="icircumflex" unicode="&#xee;" horiz-adv-x="454" 
d="M317 1466l166 -243h-151l-107 153h-14l-107 -153h-151l166 243h198zM328 934q0 26 -20 45.5t-48 19.5h-221v-151h84q15 0 26 -11t11 -26v-811h168v934z" />
    <glyph glyph-name="idieresis" unicode="&#xef;" horiz-adv-x="454" 
d="M39 1282q-39 0 -67.5 27t-28.5 65t28.5 65t67.5 27q36 0 64 -27t28 -65t-28 -65t-64 -27zM383 1282q-40 0 -68 27t-28 65t28 65t68 27q36 0 64 -27t28 -65t-28 -65t-64 -27zM328 934q0 26 -20 45.5t-48 19.5h-221v-151h84q15 0 26 -11t11 -26v-811h168v934z" />
    <glyph glyph-name="oacute" unicode="&#xf3;" horiz-adv-x="1089" 
d="M545 104q68 0 123.5 23.5t91.5 62.5t60.5 91t35 107t10.5 112t-10.5 111.5t-35 106.5t-60.5 91t-91.5 62.5t-123.5 23.5q-85 0 -149.5 -35t-101.5 -94t-55 -126t-18 -140t18 -140.5t55 -126t101.5 -94t149.5 -35.5zM545 1024q99 0 180 -31.5t134 -83t89.5 -120.5
t52 -141.5t15.5 -147.5t-15.5 -147.5t-52 -141.5t-89.5 -121t-134 -83.5t-180 -31.5t-180.5 31.5t-134.5 83.5t-89 121t-51.5 141t-15.5 148t15.5 148t51.5 141t89 120.5t134.5 83t180.5 31.5zM754 1466l-138 -268h-145l127 268h156z" />
    <glyph glyph-name="ocircumflex" unicode="&#xf4;" horiz-adv-x="1089" 
d="M545 104q68 0 123.5 23.5t91.5 62.5t60.5 91t35 107t10.5 112t-10.5 111.5t-35 106.5t-60.5 91t-91.5 62.5t-123.5 23.5q-85 0 -149.5 -35t-101.5 -94t-55 -126t-18 -140t18 -140.5t55 -126t101.5 -94t149.5 -35.5zM545 1024q99 0 180 -31.5t134 -83t89.5 -120.5
t52 -141.5t15.5 -147.5t-15.5 -147.5t-52 -141.5t-89.5 -121t-134 -83.5t-180 -31.5t-180.5 31.5t-134.5 83.5t-89 121t-51.5 141t-15.5 148t15.5 148t51.5 141t89 120.5t134.5 83t180.5 31.5zM627 1466l166 -243h-152l-106 153h-15l-106 -153h-152l166 243h199z" />
    <glyph glyph-name="odieresis" unicode="&#xf6;" horiz-adv-x="1089" 
d="M545 104q68 0 123.5 23.5t91.5 62.5t60.5 91t35 107t10.5 112t-10.5 111.5t-35 106.5t-60.5 91t-91.5 62.5t-123.5 23.5q-85 0 -149.5 -35t-101.5 -94t-55 -126t-18 -140t18 -140.5t55 -126t101.5 -94t149.5 -35.5zM545 1024q99 0 180 -31.5t134 -83t89.5 -120.5
t52 -141.5t15.5 -147.5t-15.5 -147.5t-52 -141.5t-89.5 -121t-134 -83.5t-180 -31.5t-180.5 31.5t-134.5 83.5t-89 121t-51.5 141t-15.5 148t15.5 148t51.5 141t89 120.5t134.5 83t180.5 31.5zM371 1282q-39 0 -68 27t-29 65t29 65t68 27q36 0 64 -27t28 -65t-28 -65
t-64 -27zM715 1282q-40 0 -68.5 27t-28.5 65t28.5 65t68.5 27q36 0 64 -27t28 -65t-28 -65t-64 -27z" />
    <glyph glyph-name="divide" unicode="&#xf7;" horiz-adv-x="1120" 
d="M147 692h826v-139h-826v139zM561 195q-40 0 -69 27.5t-29 66.5t29 66.5t69 27.5q37 0 65.5 -27.5t28.5 -66.5t-28.5 -66.5t-65.5 -27.5zM561 862q-40 0 -69 27.5t-29 66.5t29 67t69 28q37 0 65.5 -28t28.5 -67t-28.5 -66.5t-65.5 -27.5z" />
    <glyph glyph-name="oslash" unicode="&#xf8;" horiz-adv-x="1089" 
d="M545 104q68 0 123.5 23.5t91.5 62.5t60.5 91t35 107t10.5 112t-10.5 111.5t-35 106.5t-60.5 91t-91.5 62.5t-123.5 23.5q-85 0 -149.5 -35t-101.5 -94t-55 -126t-18 -140t18 -140.5t55 -126t101.5 -94t149.5 -35.5zM545 1024q99 0 180 -31.5t134 -83t89.5 -120.5
t52 -141.5t15.5 -147.5t-15.5 -147.5t-52 -141.5t-89.5 -121t-134 -83.5t-180 -31.5t-180.5 31.5t-134.5 83.5t-89 121t-51.5 141t-15.5 148t15.5 148t51.5 141t89 120.5t134.5 83t180.5 31.5zM975 1010l-725 -1020h-135l725 1020h135z" />
    <glyph glyph-name="uacute" unicode="&#xfa;" horiz-adv-x="1165" 
d="M117 426q0 -98 29 -185.5t97 -159t167 -95.5q161 -39 295.5 48.5t175.5 260.5h28q-39 -119 -39 -221v-74h168v999h-168v-325q0 -120 -14 -248q-23 -157 -113 -245.5t-233 -63.5q-225 33 -225 327v555h-168v-573zM776 1466l-137 -268h-145l127 268h155z" />
    <glyph glyph-name="ucircumflex" unicode="&#xfb;" horiz-adv-x="1165" 
d="M117 426q0 -98 29 -185.5t97 -159t167 -95.5q161 -39 295.5 48.5t175.5 260.5h28q-39 -119 -39 -221v-74h168v999h-168v-325q0 -120 -14 -248q-23 -157 -113 -245.5t-233 -63.5q-225 33 -225 327v555h-168v-573zM682 1464l166 -243h-152l-106 153h-15l-106 -153h-152
l166 243h199z" />
    <glyph glyph-name="udieresis" unicode="&#xfc;" horiz-adv-x="1165" 
d="M117 426q0 -98 29 -185.5t97 -159t167 -95.5q161 -39 295.5 48.5t175.5 260.5h28q-39 -119 -39 -221v-74h168v999h-168v-325q0 -120 -14 -248q-23 -157 -113 -245.5t-233 -63.5q-225 33 -225 327v555h-168v-573zM418 1282q-39 0 -67.5 27t-28.5 65t28.5 65t67.5 27
q36 0 64 -27t28 -65t-28 -65t-64 -27zM762 1282q-40 0 -68 27t-28 65t28 65t68 27q36 0 64 -27t28 -65t-28 -65t-64 -27z" />
    <glyph glyph-name="yacute" unicode="&#xfd;" horiz-adv-x="1015" 
d="M567 299q-17 -43 -29 -79.5t-15 -51.5l-3 -16h-24q-8 51 -47 147l-269 700h-164l375 -999h68l-111 -295q-22 -53 -66 -92t-114 -39h-133v-143h125q134 0 218.5 68t119.5 161l501 1339h-163zM711 1466l-138 -268h-145l127 268h156z" />
    <glyph glyph-name="ydieresis" unicode="&#xff;" horiz-adv-x="1015" 
d="M567 299q-17 -43 -29 -79.5t-15 -51.5l-3 -16h-24q-8 51 -47 147l-269 700h-164l375 -999h68l-111 -295q-22 -53 -66 -92t-114 -39h-133v-143h125q134 0 218.5 68t119.5 161l501 1339h-163zM342 1282q-39 0 -67.5 27t-28.5 65t28.5 65t67.5 27q36 0 64 -27t28 -65
t-28 -65t-64 -27zM686 1282q-40 0 -68 27t-28 65t28 65t68 27q36 0 64 -27t28 -65t-28 -65t-64 -27z" />
    <glyph glyph-name="Ccaron" unicode="&#x10c;" horiz-adv-x="1445" 
d="M1192 420q-23 -57 -59 -106.5t-89 -93t-128.5 -68.5t-165.5 -25q-104 0 -189 35.5t-141.5 94.5t-95 137t-55.5 160t-17 167q0 83 17 164t56 158t95 135t142 93.5t190 35.5q89 0 164.5 -25t128 -68t88.5 -92.5t59 -107.5h180q-19 59 -48 114.5t-81.5 117.5t-118 107
t-162.5 75t-210 30q-139 0 -253 -44.5t-189.5 -117.5t-127.5 -170t-75 -199t-23 -208t23 -209t75 -200.5t127.5 -171t189.5 -118.5t253 -45q113 0 210 30t162.5 75.5t118 107.5t81.5 117.5t48 114.5h-180zM653 1569l-166 243h152l106 -151h15l106 151h152l-166 -243h-199z
" />
    <glyph glyph-name="ccaron" unicode="&#x10d;" horiz-adv-x="1064" 
d="M823 309q-33 -80 -99.5 -131t-170.5 -51q-81 0 -143.5 33.5t-97.5 89t-52.5 119.5t-17.5 133q0 67 17.5 129.5t52.5 118t97.5 89t143.5 33.5q104 0 171.5 -52t100.5 -132h176q-20 67 -55.5 124.5t-88.5 106.5t-131.5 77t-172.5 28q-101 0 -183.5 -31.5t-136.5 -83
t-90.5 -120.5t-52.5 -140.5t-16 -146.5q0 -76 16 -148.5t52.5 -142t90.5 -121.5t136.5 -83.5t183.5 -31.5q95 0 173 27.5t131 75.5t88.5 105.5t55.5 125.5h-178zM442 1223l-166 243h152l107 -151h14l106 151h152l-166 -243h-199z" />
    <glyph glyph-name="Dcaron" unicode="&#x10e;" horiz-adv-x="1427" 
d="M662 156q127 0 227.5 46.5t161.5 125.5t93 178t32 211t-32 211.5t-93 179.5t-161.5 127t-227.5 47h-334v-1126h334zM1343 717q0 -168 -50 -303.5t-139.5 -226t-214 -139t-273.5 -48.5h-506v1434h506q145 0 268.5 -48t214.5 -137t142.5 -226t51.5 -306zM528 1569l-166 243
h152l107 -151h14l106 151h152l-166 -243h-199z" />
    <glyph glyph-name="dcaron" unicode="&#x10f;" horiz-adv-x="1267" 
d="M242 500q0 -161 83.5 -267t231.5 -106t231.5 106t83.5 267t-84 266.5t-231 105.5t-231 -105.5t-84 -266.5zM74 500q0 79 15.5 153.5t50 142.5t84 118t123.5 80t163 30q142 0 230 -68.5t132 -175.5h29q-29 107 -29 240v414h168v-1434h-168v20q0 45 7 94.5t15 75.5l7 27
h-29q-99 -242 -366 -242q-89 0 -162 30t-122 80.5t-83 118.5t-49.5 142.5t-15.5 153.5zM1358 1434l-17 -529h-133l-18 529h168z" />
    <glyph glyph-name="Ebreve" unicode="&#x114;" 
d="M1042 1434v-152h-714v-485h647v-148h-647v-497h714v-152h-882l2 1434h880zM850 1812q0 -46 -14.5 -88.5t-43 -78.5t-79.5 -58t-117 -22t-117 22t-79.5 58t-43 78.5t-14.5 88.5h123q0 -52 33 -92.5t98 -40.5t98 40.5t33 92.5h123z" />
    <glyph glyph-name="Ecaron" unicode="&#x11a;" 
d="M1042 1434v-152h-714v-485h647v-148h-647v-497h714v-152h-882l2 1434h880zM492 1569l-166 243h151l107 -151h14l107 151h151l-166 -243h-198z" />
    <glyph glyph-name="ecaron" unicode="&#x11b;" horiz-adv-x="1105" 
d="M551 885q-74 0 -133.5 -28t-96 -74.5t-58 -100t-27.5 -111.5h632q-3 54 -24 107.5t-58 100.5t-98.5 76.5t-136.5 29.5zM231 465q2 -61 20 -118.5t53 -111.5t99 -87t148 -33q226 0 297 221h164q-12 -52 -34.5 -100.5t-60.5 -97t-87.5 -84t-121 -57.5t-155.5 -22
q-100 0 -182 31.5t-136.5 83t-91.5 121t-53 142.5t-16 149q0 75 16 147t53 141t91 120.5t136 82.5t183 31q98 0 179 -29.5t137 -81.5t94 -123t54 -153t13 -172h-799zM444 1223l-165 243h151l107 -151h14l106 151h152l-166 -243h-199z" />
    <glyph glyph-name="Ibreve" unicode="&#x12c;" horiz-adv-x="487" 
d="M160 1434h168v-1434h-168v1434zM496 1810q0 -46 -14.5 -88.5t-43 -78.5t-79.5 -58t-117 -22t-117 22t-79.5 58t-43 78.5t-14.5 88.5h123q0 -52 33 -92.5t98 -40.5t98 40.5t33 92.5h123z" />
    <glyph glyph-name="Idotaccent" unicode="&#x130;" horiz-adv-x="487" 
d="M160 1434h168v-1434h-168v1434zM246 1626q-39 0 -67.5 27t-28.5 65t28.5 65t67.5 27q36 0 64 -27t28 -65t-28 -65t-64 -27z" />
    <glyph glyph-name="Lacute" unicode="&#x139;" horiz-adv-x="1050" 
d="M328 1434v-1282h682v-152h-850v1434h168zM453 1810l-138 -268h-145l127 268h156z" />
    <glyph glyph-name="lacute" unicode="&#x13a;" horiz-adv-x="430" 
d="M127 1434h168v-1434h-168v1434zM430 1812l-137 -268h-146l127 268h156z" />
    <glyph glyph-name="Lcaron" unicode="&#x13d;" horiz-adv-x="1050" 
d="M328 1434v-1282h682v-152h-850v1434h168zM702 1434l-16 -529h-133l-18 529h167z" />
    <glyph glyph-name="lcaron" unicode="&#x13e;" horiz-adv-x="524" 
d="M127 1434h168v-1434h-168v1434zM614 1434l-16 -529h-133l-19 529h168z" />
    <glyph glyph-name="Lslash" unicode="&#x141;" horiz-adv-x="1091" 
d="M369 1434v-1282h682v-152h-850v1434h168zM61 602l607 311v-135l-607 -311v135z" />
    <glyph glyph-name="lslash" unicode="&#x142;" horiz-adv-x="419" 
d="M127 1434h168v-1434h-168v1434zM418 784l-416 -196v133l416 197v-134z" />
    <glyph glyph-name="Ncaron" unicode="&#x147;" horiz-adv-x="1513" 
d="M1186 406q0 -59 4 -122.5t8 -97.5l4 -34h-26l-754 1282h-262v-1434h168v1032q0 59 -4 121.5t-8 95.5l-5 33h27l756 -1282h260v1434h-168v-1028zM662 1569l-166 243h151l107 -151h14l106 151h152l-166 -243h-198z" />
    <glyph glyph-name="ncaron" unicode="&#x148;" horiz-adv-x="1165" 
d="M1049 573q0 98 -29 186t-97 159.5t-167 95.5q-162 38 -296 -48.5t-175 -260.5h-29q39 119 39 221v73h-168v-999h168v326q0 119 14 247q21 156 112 245.5t234 64.5q226 -34 226 -328v-555h168v573zM487 1223l-165 243h151l107 -151h14l106 151h152l-166 -243h-199z" />
    <glyph glyph-name="Ohungarumlaut" unicode="&#x150;" horiz-adv-x="1482" 
d="M741 127q101 0 185 35.5t139.5 94t93.5 135.5t55 159t17 166t-17 166t-55 159t-93.5 135.5t-139.5 94t-185 35.5q-102 0 -185.5 -35.5t-139 -93.5t-93.5 -136t-54.5 -159t-16.5 -166t16.5 -166t54.5 -159t93.5 -136t139 -93.5t185.5 -35.5zM741 1458q137 0 249.5 -44.5
t187 -118t125.5 -171t73.5 -200t22.5 -209.5q0 -106 -22.5 -208t-73.5 -199t-125.5 -170.5t-187 -118t-249.5 -44.5t-249.5 44.5t-186.5 118t-125 170.5t-73.5 199t-22.5 208q0 107 22.5 209.5t73.5 200.5t125 171t186.5 117.5t249.5 44.5zM1083 1812l-137 -268h-145
l127 268h155zM811 1812l-137 -268h-146l127 268h156z" />
    <glyph glyph-name="ohungarumlaut" unicode="&#x151;" horiz-adv-x="1089" 
d="M545 104q68 0 123.5 23.5t91.5 62.5t60.5 91t35 107t10.5 112t-10.5 111.5t-35 106.5t-60.5 91t-91.5 62.5t-123.5 23.5q-85 0 -149.5 -35t-101.5 -94t-55 -126t-18 -140t18 -140.5t55 -126t101.5 -94t149.5 -35.5zM545 1024q99 0 180 -31.5t134 -83t89.5 -120.5
t52 -141.5t15.5 -147.5t-15.5 -147.5t-52 -141.5t-89.5 -121t-134 -83.5t-180 -31.5t-180.5 31.5t-134.5 83.5t-89 121t-51.5 141t-15.5 148t15.5 148t51.5 141t89 120.5t134.5 83t180.5 31.5zM885 1466l-137 -268h-146l127 268h156zM612 1466l-137 -268h-145l127 268h155z
" />
    <glyph glyph-name="racute" unicode="&#x155;" horiz-adv-x="768" 
d="M727 999q-157 -3 -260.5 -87t-144.5 -226h-29q29 162 29 244q0 31 -22.5 50t-55.5 19h-203v-151h100q29 0 29 -29v-819h168v432q0 78 21.5 149.5t66 132.5t122 97.5t179.5 36.5v151zM594 1466l-137 -268h-146l127 268h156z" />
    <glyph glyph-name="Rcaron" unicode="&#x158;" horiz-adv-x="1318" 
d="M758 797q113 0 194.5 64t81.5 179q0 114 -82 178t-194 64h-430v-485h430zM969 729q86 0 149.5 -63.5t63.5 -149.5v-516h-156v512q0 54 -39 93.5t-92 39.5h-569v-645h-166v1434h614q209 0 318.5 -100.5t109.5 -258.5q0 -61 -21 -114.5t-48 -86.5t-64 -60t-59 -38t-41 -18
v-29zM518 1569l-166 243h152l106 -151h15l106 151h152l-166 -243h-199z" />
    <glyph glyph-name="rcaron" unicode="&#x159;" horiz-adv-x="768" 
d="M727 999q-157 -3 -260.5 -87t-144.5 -226h-29q29 162 29 244q0 31 -22.5 50t-55.5 19h-203v-151h100q29 0 29 -29v-819h168v432q0 78 21.5 149.5t66 132.5t122 97.5t179.5 36.5v151zM279 1223l-166 243h151l107 -151h14l107 151h151l-166 -243h-198z" />
    <glyph glyph-name="Scaron" unicode="&#x160;" horiz-adv-x="1216" 
d="M1128 403q0 62 -17.5 114.5t-45 89.5t-72.5 68.5t-87 51t-102.5 37t-105.5 27t-108 20.5q-58 10 -97.5 19t-87 27t-76 42t-48 63t-19.5 89q0 47 19.5 90.5t59 81.5t108 61t157.5 23q90 0 159 -23t108.5 -61t59 -81.5t19.5 -90.5v-17h168v17q0 75 -29.5 144.5t-88 129.5
t-161.5 96.5t-235 36.5t-234.5 -36.5t-161 -96.5t-87.5 -129.5t-29 -144.5q0 -49 10 -91t26 -74.5t43 -61t52 -48t63 -37.5t66.5 -28.5t72 -21.5t70 -16.5t68.5 -13.5q49 -9 74.5 -14.5t74.5 -18t77 -24t65 -32t56.5 -43t34 -54.5t14.5 -70q0 -51 -20.5 -98.5t-61.5 -88
t-112.5 -65t-164.5 -24.5t-165.5 26.5t-114 69.5t-62 92t-20.5 101h-168q0 -63 18 -124t59 -119t101 -101.5t150 -70t200 -26.5t200.5 25t150.5 67t100.5 98t58.5 115.5t18 122.5zM492 1569l-166 243h151l107 -151h14l107 151h151l-166 -243h-198z" />
    <glyph glyph-name="scaron" unicode="&#x161;" horiz-adv-x="937" 
d="M866 299q0 68 -21.5 118.5t-57.5 80t-83 49.5t-99 30t-104 17.5t-99 15.5t-83 21t-57.5 37.5t-21.5 60.5q0 53 34 89.5t83 51.5t108 15q96 0 163.5 -40t67.5 -118v-16h156v16q0 134 -108 215.5t-281 81.5t-281 -81.5t-108 -215.5q0 -79 34.5 -131t89.5 -75.5t122 -36
t134 -21.5t122 -24t89.5 -50.5t34.5 -93.5q0 -47 -21 -83t-56 -56.5t-76 -30.5t-86 -10q-108 0 -179.5 45.5t-72.5 136.5h-156q1 -146 114 -234t294 -88t293 88.5t112 235.5zM358 1223l-165 243h151l107 -151h14l106 151h152l-166 -243h-199z" />
    <glyph glyph-name="Tcaron" unicode="&#x164;" horiz-adv-x="1105" 
d="M1077 1434v-152h-440v-1282h-168v1282h-440v152h1048zM453 1567l-166 243h151l107 -151h14l107 151h151l-166 -243h-198z" />
    <glyph glyph-name="tcaron" unicode="&#x165;" horiz-adv-x="665" 
d="M172 307q0 -127 82.5 -217t222.5 -90h146v152h-129q-65 0 -109.5 45.5t-44.5 111.5v539h283v151h-283v435h-168v-435h-145v-151h145v-541zM657 1812l-16 -528h-133l-19 528h168z" />
    <glyph glyph-name="Uring" unicode="&#x16e;" horiz-adv-x="1400" 
d="M1087 590q0 -66 -13 -130t-43 -125t-74 -106.5t-110 -73.5t-147 -28t-147 28t-110 73.5t-74 106.5t-43 125t-13 130v844h-168v-846q0 -80 17.5 -161t59.5 -163.5t103.5 -145.5t158.5 -103t216 -40t216 39.5t158.5 102.5t103.5 145t59.5 163.5t17.5 162.5v846h-168v-844z
M696 1649q62 0 92.5 39t30.5 90t-30.5 89t-92.5 38q-61 0 -91 -38t-30 -89t30 -90t91 -39zM696 2015q63 0 111.5 -21t76 -56t41 -75.5t13.5 -84.5q0 -45 -13.5 -85.5t-41 -75.5t-76 -56t-111.5 -21q-62 0 -110 21t-75 56t-40.5 75.5t-13.5 85.5q0 95 59.5 166t179.5 71z" />
    <glyph glyph-name="uring" unicode="&#x16f;" horiz-adv-x="1165" 
d="M117 426q0 -98 29 -185.5t97 -159t167 -95.5q161 -39 295.5 48.5t175.5 260.5h28q-39 -119 -39 -221v-74h168v999h-168v-325q0 -120 -14 -248q-23 -157 -113 -245.5t-233 -63.5q-225 33 -225 327v555h-168v-573zM580 1368q62 0 92 39t30 90t-30 89t-92 38q-61 0 -91 -38
t-30 -89t30 -90t91 -39zM580 1735q63 0 111.5 -21t75.5 -56.5t40.5 -76t13.5 -84.5q0 -45 -13.5 -85.5t-40.5 -75t-75.5 -55.5t-111.5 -21t-110.5 21t-75 55.5t-41 75.5t-13.5 85q0 95 60 166.5t180 71.5z" />
    <glyph glyph-name="Uhungarumlaut" unicode="&#x170;" horiz-adv-x="1400" 
d="M1087 590q0 -66 -13 -130t-43 -125t-74 -106.5t-110 -73.5t-147 -28t-147 28t-110 73.5t-74 106.5t-43 125t-13 130v844h-168v-846q0 -80 17.5 -161t59.5 -163.5t103.5 -145.5t158.5 -103t216 -40t216 39.5t158.5 102.5t103.5 145t59.5 163.5t17.5 162.5v846h-168v-844z
M1034 1812l-137 -268h-145l127 268h155zM762 1812l-137 -268h-146l127 268h156z" />
    <glyph glyph-name="uhungarumlaut" unicode="&#x171;" horiz-adv-x="1165" 
d="M117 426q0 -98 29 -185.5t97 -159t167 -95.5q161 -39 295.5 48.5t175.5 260.5h28q-39 -119 -39 -221v-74h168v999h-168v-325q0 -120 -14 -248q-23 -157 -113 -245.5t-233 -63.5q-225 33 -225 327v555h-168v-573zM913 1466l-137 -268h-145l127 268h155zM641 1466
l-137 -268h-146l127 268h156z" />
    <glyph glyph-name="Ydieresis" unicode="&#x178;" horiz-adv-x="1146" 
d="M631 897q-13 -22 -23.5 -46t-15.5 -37l-4 -13h-29q-16 47 -45 96l-317 537h-177l469 -791v-643h168v641l469 793h-176zM401 1628q-39 0 -67.5 27t-28.5 65t28.5 65t67.5 27q36 0 64.5 -27.5t28.5 -64.5t-28.5 -64.5t-64.5 -27.5zM745 1628q-40 0 -68 27t-28 65t28 65
t68 27q36 0 64.5 -27.5t28.5 -64.5t-28.5 -64.5t-64.5 -27.5z" />
    <glyph glyph-name="Zcaron" unicode="&#x17d;" horiz-adv-x="1220" 
d="M268 174q53 27 123 119l744 999v142h-1016v-152h827v-25q-6 -2 -16 -7.5t-41.5 -32.5t-61.5 -66l-751 -1010v-141h1048v152h-856v22zM512 1569l-166 243h152l106 -151h14l107 151h152l-166 -243h-199z" />
    <glyph glyph-name="zcaron" unicode="&#x17e;" horiz-adv-x="950" 
d="M666 834q-47 -8 -123 -95l-471 -594v-145h786v139h-594v27q32 6 115 98l479 590v145h-754v-139h562v-26zM383 1223l-166 243h152l106 -151h14l107 151h152l-166 -243h-199z" />
    <glyph glyph-name="Oslashacute" unicode="&#x1fe;" horiz-adv-x="1495" 
d="M750 127q101 0 184.5 35.5t139 94t93.5 135.5t55 159t17 166t-17 166t-55 159t-93.5 135.5t-139 94t-184.5 35.5q-102 0 -186 -35.5t-139 -93.5t-93.5 -136t-55 -159.5t-16.5 -165.5t16.5 -165.5t55 -159.5t93.5 -136t139 -93.5t186 -35.5zM750 1458q137 0 249.5 -44.5
t186.5 -117.5t125 -171t73.5 -200.5t22.5 -209.5q0 -106 -22.5 -208t-73.5 -199t-125 -170.5t-186.5 -118t-249.5 -44.5t-249.5 44.5t-187 118t-125.5 170.5t-73.5 199t-22.5 208q0 107 22.5 209.5t73.5 200t125.5 171t187 118t249.5 44.5zM1386 1444l-1093 -1454h-184
l1095 1454h182zM963 1812l-138 -268h-145l127 268h156z" />
    <glyph glyph-name="oslashacute" unicode="&#x1ff;" horiz-adv-x="1089" 
d="M545 104q68 0 123.5 23.5t91.5 62.5t60.5 91t35 107t10.5 112t-10.5 111.5t-35 106.5t-60.5 91t-91.5 62.5t-123.5 23.5q-85 0 -149.5 -35t-101.5 -94t-55 -126t-18 -140t18 -140.5t55 -126t101.5 -94t149.5 -35.5zM545 1024q99 0 180 -31.5t134 -83t89.5 -120.5
t52 -141.5t15.5 -147.5t-15.5 -147.5t-52 -141.5t-89.5 -121t-134 -83.5t-180 -31.5t-180.5 31.5t-134.5 83.5t-89 121t-51.5 141t-15.5 148t15.5 148t51.5 141t89 120.5t134.5 83t180.5 31.5zM975 1010l-725 -1020h-135l725 1020h135zM756 1466l-138 -268h-145l127 268h156
z" />
    <glyph glyph-name="circumflex" unicode="&#x2c6;" horiz-adv-x="694" 
d="M446 1812l166 -243h-151l-107 153h-14l-107 -153h-151l166 243h198z" />
    <glyph glyph-name="caron" unicode="&#x2c7;" horiz-adv-x="694" 
d="M248 1569l-166 243h151l107 -151h14l107 151h151l-166 -243h-198z" />
    <glyph glyph-name="breve" unicode="&#x2d8;" horiz-adv-x="696" 
d="M602 1812q0 -46 -14.5 -88.5t-43 -78.5t-79.5 -58t-117 -22t-117 22t-79.5 58t-43 78.5t-14.5 88.5h123q0 -52 33 -92.5t98 -40.5t98 40.5t33 92.5h123z" />
    <glyph glyph-name="dotaccent" unicode="&#x2d9;" horiz-adv-x="376" 
d="M190 1628q-39 0 -67.5 27t-28.5 65t28.5 65t67.5 27q36 0 64.5 -27.5t28.5 -64.5t-28.5 -64.5t-64.5 -27.5z" />
    <glyph glyph-name="ring" unicode="&#x2da;" horiz-adv-x="645" 
d="M322 1649q62 0 92 39t30 90t-30 89t-92 38q-61 0 -91 -38t-30 -89t30 -90t91 -39zM322 2015q63 0 111.5 -21t75.5 -56t40.5 -75.5t13.5 -84.5q0 -45 -13.5 -85.5t-40.5 -75.5t-75.5 -56t-111.5 -21q-62 0 -110 21t-75.5 56t-41 76t-13.5 85q0 95 60 166t180 71z" />
    <glyph glyph-name="hungarumlaut" unicode="&#x2dd;" horiz-adv-x="733" 
d="M639 1812l-137 -268h-146l127 268h156zM367 1812l-138 -268h-145l127 268h156z" />
    <glyph glyph-name="endash" unicode="&#x2013;" horiz-adv-x="1263" 
d="M135 614h993v-139h-993v139z" />
    <glyph glyph-name="emdash" unicode="&#x2014;" horiz-adv-x="1937" 
d="M135 614h1667v-139h-1667v139z" />
    <glyph glyph-name="quoteleft" unicode="&#x2018;" horiz-adv-x="501" 
d="M164 1356q0 -42 31 -72.5t73 -30.5q43 0 75 30.5t32 72.5t-32 72t-75 30q-42 0 -73 -30t-31 -72zM236 1454q-16 40 12 85t86 58v64q-118 -15 -175 -116q-48 -85 -26 -175q20 -85 91 -109q21 -7 44 -8z" />
    <glyph glyph-name="quoteright" unicode="&#x2019;" horiz-adv-x="501" 
d="M338 1653q0 42 -31.5 72t-73.5 30q-43 0 -74.5 -30t-31.5 -72t31.5 -72.5t74.5 -30.5q42 0 73.5 30.5t31.5 72.5zM266 1554q16 -40 -12 -85t-86 -58v-63q118 15 174 115q48 84 27 174q-20 85 -91 110q-21 7 -45 8z" />
    <glyph glyph-name="quotedblleft" unicode="&#x201c;" horiz-adv-x="782" 
d="M444 1356q0 -42 31.5 -72.5t73.5 -30.5q43 0 74.5 30.5t31.5 72.5t-31.5 72t-74.5 30q-42 0 -73.5 -30t-31.5 -72zM516 1454q-16 40 12 85t86 58v64q-118 -15 -175 -116q-47 -85 -26 -175q21 -85 92 -109q21 -7 44 -8zM164 1356q0 -42 31 -72.5t73 -30.5q43 0 75 30.5
t32 72.5t-32 72t-75 30q-42 0 -73 -30t-31 -72zM236 1454q-16 40 12 85t86 58v64q-118 -15 -175 -116q-48 -85 -26 -175q20 -85 91 -109q21 -7 44 -8z" />
    <glyph glyph-name="quotedblright" unicode="&#x201d;" horiz-adv-x="782" 
d="M618 1653q0 42 -31 72t-73 30q-43 0 -74.5 -30t-31.5 -72t31.5 -72.5t74.5 -30.5q42 0 73 30.5t31 72.5zM547 1554q16 -40 -12 -85t-86 -58v-63q118 15 174 115q48 84 27 174q-20 85 -91 110q-21 7 -45 8zM338 1653q0 42 -31.5 72t-73.5 30q-43 0 -74.5 -30t-31.5 -72
t31.5 -72.5t74.5 -30.5q42 0 73.5 30.5t31.5 72.5zM266 1554q16 -40 -12 -85t-86 -58v-63q118 15 174 115q48 84 27 174q-20 85 -91 110q-21 7 -45 8z" />
    <glyph glyph-name="quotedblbase" unicode="&#x201e;" horiz-adv-x="784" 
d="M621 78q0 42 -31.5 72t-73.5 30q-43 0 -74.5 -30t-31.5 -72t31.5 -72.5t74.5 -30.5q42 0 73.5 30.5t31.5 72.5zM549 -20q16 -40 -12 -85.5t-86 -58.5v-63q118 15 174 115q48 84 27 174q-20 85 -91 110q-21 7 -45 8zM338 78q0 42 -31.5 72t-73.5 30q-43 0 -74.5 -30
t-31.5 -72t31.5 -72.5t74.5 -30.5q42 0 73.5 30.5t31.5 72.5zM266 -20q16 -40 -12 -85.5t-86 -58.5v-63q118 15 174 115q48 84 27 174q-20 85 -91 110q-21 7 -45 8z" />
    <glyph glyph-name="bullet" unicode="&#x2022;" horiz-adv-x="595" 
d="M301 324q-77 0 -133.5 53.5t-56.5 128.5q0 76 56.5 129t133.5 53q73 0 128.5 -53.5t55.5 -128.5q0 -74 -55.5 -128t-128.5 -54z" />
    <glyph glyph-name="guilsinglleft" unicode="&#x2039;" horiz-adv-x="786" 
d="M705 0q-353 410 -357 412q-31 35 -61.5 54t-42.5 19v27q12 0 42 20t62 56l357 411h-189l-434 -499l434 -500h189z" />
    <glyph glyph-name="guilsinglright" unicode="&#x203a;" horiz-adv-x="784" 
d="M82 0h186l434 500l-434 499h-186q350 -407 354 -411q33 -36 64 -56t43 -20v-27q-12 0 -43 -19t-64 -54z" />
    <glyph glyph-name="Euro" unicode="&#x20ac;" horiz-adv-x="1556" 
d="M1276 420q-24 -57 -60 -106.5t-89 -93t-128.5 -68.5t-164.5 -25q-104 0 -189 35.5t-142 94.5t-96 137t-56 160t-17 167q0 83 17 164t56 158t95.5 135t142 93.5t189.5 35.5q89 0 164.5 -25t128.5 -68t89 -92.5t60 -107.5h180q-20 59 -49 114.5t-81.5 117.5t-118 107
t-162 75t-209.5 30q-139 0 -253 -44.5t-190 -117.5t-128.5 -170t-75.5 -199t-23 -208t23 -209t75.5 -200.5t128 -171t190 -118.5t253.5 -45q113 0 209.5 30t162 75.5t118 107.5t81.5 117.5t49 114.5h-180zM49 903v-108h928v108h-928zM51 639v-109h926v109h-926z" />
    <glyph glyph-name="uni2117" unicode="&#x2117;" horiz-adv-x="952" 
d="M524 1112q27 0 46.5 15t19.5 42t-19.5 41.5t-46.5 14.5h-108v-113h108zM659 1169q0 -57 -39 -86.5t-92 -29.5h-112v-205h-70v438h182q49 0 90 -29t41 -88zM475 743q85 0 150.5 29.5t102.5 78t55 104t18 114.5t-18 114.5t-55 104t-102.5 78t-150.5 29.5t-149.5 -29.5
t-101 -78t-54.5 -104t-18 -114.5t18 -114.5t54.5 -104t101 -78t149.5 -29.5zM475 1458q104 0 183 -35t123.5 -93t66.5 -124t22 -137t-22 -137t-66.5 -124t-123.5 -93t-183 -35q-103 0 -182 35t-123 93t-66 124t-22 137t22 137t66 124t123 93t182 35z" />
    <glyph glyph-name="trademark" unicode="&#x2122;" horiz-adv-x="1220" 
d="M467 1434v-74h-166v-498h-82v498h-168v74h416zM1098 1434v-572h-82v416l-172 -416h-125l-170 416v-416h-82v572h100l205 -498h19l204 498h103z" />
    <glyph glyph-name="minus" unicode="&#x2212;" horiz-adv-x="1150" 
d="M147 758h857v-140h-857v140z" />
    <glyph glyph-name="approxequal" unicode="&#x2248;" horiz-adv-x="1148" 
d="M858 1044q0 -50 -2 -77.5t-9.5 -59.5t-26 -46.5t-48.5 -14.5q-32 0 -89.5 30.5t-112 66.5t-120 66.5t-110.5 30.5q-52 0 -88.5 -20.5t-56.5 -50.5t-31 -80.5t-14 -94.5t-3 -108h144q0 41 1 63.5t5 52.5t12.5 45.5t25 26.5t40.5 11q32 0 90 -30.5t112.5 -67t119.5 -67
t110 -30.5q43 0 75.5 13t53 39t34 56t20 74t9 82t2.5 90h-143zM858 596q0 -33 -0.5 -52t-3 -45.5t-8 -41.5t-14.5 -30t-24.5 -21.5t-35.5 -6.5q-32 0 -89.5 30.5t-112 67t-120 67t-110.5 30.5q-52 0 -88.5 -20.5t-56.5 -50.5t-31 -80.5t-14 -94.5t-3 -108h144q0 40 1 62.5
t5 52t12.5 45t25 27t40.5 11.5q32 0 90 -30.5t112.5 -67.5t119.5 -67.5t110 -30.5q43 0 75.5 13t53 39t34 56t20 74t9 82t2.5 90h-143z" />
    <glyph glyph-name="notequal" unicode="&#x2260;" horiz-adv-x="1124" 
d="M150 557h825v-139h-825v139zM150 950h825v-139h-825v139zM797 1114h133l-608 -864h-134z" />
    <glyph glyph-name="lessequal" unicode="&#x2264;" horiz-adv-x="1120" 
d="M973 139h-826v-139h826v139zM973 492v-152l-826 313v209l826 316v-152q-554 -215 -574 -221q-27 -11 -57 -20.5t-46 -12.5l-17 -4v-20q59 -12 120 -35z" />
    <glyph glyph-name="greaterequal" unicode="&#x2265;" horiz-adv-x="1120" 
d="M147 139h824v-139h-824v139zM147 489q556 216 574 222q27 10 57.5 19.5t47.5 13.5l16 4v18q-62 14 -121 37l-574 221v154l826 -316v-209l-826 -315v151z" />
    <glyph glyph-name="O.ss01" horiz-adv-x="1638" 
d="M819 -25q-151 0 -288.5 59t-236.5 158.5t-157.5 237t-58.5 289.5q0 150 58.5 287t157.5 236t236.5 157.5t288.5 58.5q150 0 287.5 -58.5t237 -157.5t158.5 -236t59 -287q0 -152 -59 -290t-158.5 -237t-237 -158t-287.5 -59zM819 127q156 0 288 79t209 215.5t77 297.5
q0 159 -77 294.5t-209 214.5t-288 79q-157 0 -289 -79t-208 -214t-76 -295q0 -121 45 -230.5t121.5 -189t182.5 -126t224 -46.5z" />
    <glyph glyph-name="Oacute.ss01" horiz-adv-x="1638" 
d="M1030 1812l-137 -268h-145l126 268h156zM819 -25q-151 0 -288.5 59t-236.5 158.5t-157.5 237t-58.5 289.5q0 150 58.5 287t157.5 236t236.5 157.5t288.5 58.5q150 0 287.5 -58.5t237 -157.5t158.5 -236t59 -287q0 -152 -59 -290t-158.5 -237t-237 -158t-287.5 -59z
M819 127q156 0 288 79t209 215.5t77 297.5q0 159 -77 294.5t-209 214.5t-288 79q-157 0 -289 -79t-208 -214t-76 -295q0 -121 45 -230.5t121.5 -189t182.5 -126t224 -46.5z" />
    <glyph glyph-name="Ocircumflex.ss01" horiz-adv-x="1638" 
d="M907 1812l166 -243h-151l-107 153h-14l-107 -153h-151l166 243h198zM819 -25q-151 0 -288.5 59t-236.5 158.5t-157.5 237t-58.5 289.5q0 150 58.5 287t157.5 236t236.5 157.5t288.5 58.5q150 0 287.5 -58.5t237 -157.5t158.5 -236t59 -287q0 -152 -59 -290t-158.5 -237
t-237 -158t-287.5 -59zM819 127q156 0 288 79t209 215.5t77 297.5q0 159 -77 294.5t-209 214.5t-288 79q-157 0 -289 -79t-208 -214t-76 -295q0 -121 45 -230.5t121.5 -189t182.5 -126t224 -46.5z" />
    <glyph glyph-name="Odieresis.ss01" horiz-adv-x="1638" 
d="M641 1628q-39 0 -67.5 27t-28.5 65t28.5 65t67.5 27q36 0 64 -27t28 -65t-28 -65t-64 -27zM985 1628q-40 0 -68 27t-28 65t28 65t68 27q36 0 64 -27t28 -65t-28 -65t-64 -27zM819 -25q-151 0 -288.5 59t-236.5 158.5t-157.5 237t-58.5 289.5q0 150 58.5 287t157.5 236
t236.5 157.5t288.5 58.5q150 0 287.5 -58.5t237 -157.5t158.5 -236t59 -287q0 -152 -59 -290t-158.5 -237t-237 -158t-287.5 -59zM819 127q156 0 288 79t209 215.5t77 297.5q0 159 -77 294.5t-209 214.5t-288 79q-157 0 -289 -79t-208 -214t-76 -295q0 -121 45 -230.5
t121.5 -189t182.5 -126t224 -46.5z" />
    <glyph glyph-name="Ohungarumlaut.ss01" horiz-adv-x="1638" 
d="M1151 1812l-137 -268h-146l127 268h156zM879 1812l-138 -268h-145l127 268h156zM819 -25q-151 0 -288.5 59t-236.5 158.5t-157.5 237t-58.5 289.5q0 150 58.5 287t157.5 236t236.5 157.5t288.5 58.5q150 0 287.5 -58.5t237 -157.5t158.5 -236t59 -287q0 -152 -59 -290
t-158.5 -237t-237 -158t-287.5 -59zM819 127q156 0 288 79t209 215.5t77 297.5q0 159 -77 294.5t-209 214.5t-288 79q-157 0 -289 -79t-208 -214t-76 -295q0 -121 45 -230.5t121.5 -189t182.5 -126t224 -46.5z" />
    <glyph glyph-name="Oslash.ss01" horiz-adv-x="1662" 
d="M1524 1444l-1200 -1454h-185l1202 1454h183zM831 -25q-151 0 -288.5 59t-236.5 158.5t-157.5 237t-58.5 289.5q0 150 58.5 287t157.5 236t236.5 157.5t288.5 58.5q150 0 287.5 -58.5t237 -157.5t158.5 -236t59 -287q0 -152 -59 -290t-158.5 -237t-237 -158t-287.5 -59z
M831 127q156 0 288 79t209 215.5t77 297.5q0 159 -77 294.5t-209 214.5t-288 79q-157 0 -289 -79t-208 -214t-76 -295q0 -121 45 -230.5t121.5 -189t182.5 -126t224 -46.5z" />
    <glyph glyph-name="Oslashacute.ss01" horiz-adv-x="1662" 
d="M1038 1812l-137 -268h-145l127 268h155zM1524 1444l-1200 -1454h-185l1202 1454h183zM831 -25q-151 0 -288.5 59t-236.5 158.5t-157.5 237t-58.5 289.5q0 150 58.5 287t157.5 236t236.5 157.5t288.5 58.5q150 0 287.5 -58.5t237 -157.5t158.5 -236t59 -287
q0 -152 -59 -290t-158.5 -237t-237 -158t-287.5 -59zM831 127q156 0 288 79t209 215.5t77 297.5q0 159 -77 294.5t-209 214.5t-288 79q-157 0 -289 -79t-208 -214t-76 -295q0 -121 45 -230.5t121.5 -189t182.5 -126t224 -46.5z" />
    <glyph glyph-name="A_A.dlig" horiz-adv-x="2631" 
d="M760 1434l516 -1434h-156l-127 358h-690l-127 -358h-156l517 1434h223zM354 498h588l-278 784h-29zM2095 1434l516 -1434h-155l-127 358h-691l-127 -358h-155l516 1434h223zM1690 498h587l-278 784h-29zM868 498h873v-140h-873v140z" />
    <glyph glyph-name="A_E.dlig" horiz-adv-x="1945" 
d="M1128 1434v-1434h-167l2 358h-564l-209 -358h-170l834 1434h274zM477 498h486v784h-31zM1843 1434v-152h-715v-485h648v-148h-648v-497h715v-152h-882l2 1434h880z" />
    <glyph glyph-name="A_V.dlig" horiz-adv-x="1914" 
d="M1716 1434h178l-512 -1434h-266l-506 1434h168l432 -1180q10 -24 17.5 -49.5t9.5 -38.5l2 -14h23q10 47 28 102zM760 1434l516 -1434h-156l-127 358h-690l-127 -358h-156l517 1434h223zM354 498h588l-278 784h-29z" />
    <glyph glyph-name="F_F.dlig" horiz-adv-x="1988" 
d="M1016 1282h-688v-485h573v-148h-573v-649h-168v1434h856v-152zM1933 1282h-686v-485h572v-148h-572v-649h-168v1434h854v-152zM963 1434h219v-152h-219v152z" />
    <glyph glyph-name="F_I.dlig" horiz-adv-x="1333" 
d="M1016 1282h-688v-485h573v-148h-573v-649h-168v1434h856v-152zM1006 1434h168v-1434h-168v1434z" />
    <glyph glyph-name="F_L.dlig" horiz-adv-x="1966" 
d="M1016 1282h-688v-485h573v-148h-573v-649h-168v1434h856v-152zM1243 1434v-1282h682v-152h-850v1434h168zM932 1434h209v-152h-209v152z" />
    <glyph glyph-name="H_E.dlig" horiz-adv-x="2074" 
d="M1257 1434v-1434h-167v649h-762v-649h-168v1434h168v-631l762 -2v633h167zM1972 1434v-152h-715v-485h648v-148h-648v-497h715v-152h-882l2 1434h880z" />
    <glyph glyph-name="N_T.dlig" horiz-adv-x="2394" 
d="M1186 1434h168v-1434h-260l-756 1282h-27q17 -117 17 -250v-1032h-168v1434h262l754 -1282h26q-16 121 -16 254v1028zM2365 1434v-152h-440v-1282h-168v1282h-440v152h1048z" />
    <glyph glyph-name="T_E.dlig" horiz-adv-x="1179" 
d="M1077 1434v-152h-440v-1282h-168v1282h-440v152h1048zM1077 1434v-123h-446v-520h379v-152h-379v-487h446v-152h-604v1434h604z" />
    <glyph glyph-name="T_T.dlig" horiz-adv-x="2154" 
d="M1077 1434v-152h-440v-1282h-168v1282h-440v152h1048zM2126 1434v-152h-440v-1282h-168v1282h-441v152h1049z" />
    <glyph glyph-name="U_B.dlig" horiz-adv-x="2222" 
d="M1087 1434h168v-846q0 -81 -17.5 -162.5t-59.5 -163.5t-103.5 -145t-158.5 -102.5t-216 -39.5t-216 40t-158.5 103t-103.5 145.5t-59.5 163.5t-17.5 161v846h168v-844q0 -66 13 -130t43 -125t74 -106.5t110 -73.5t147 -28t147 28t110 73.5t74 106.5t43 125t13 130v844z
M1624 152q70 0 130.5 15t110.5 45.5t78.5 83t28.5 122.5t-28.5 122.5t-78.5 83t-110.5 45.5t-130.5 15h-369v-532h369zM1622 838q77 0 138.5 21.5t103 73t41.5 126.5q0 111 -82 167t-201 56h-367v-444h367zM2142 381q0 -82 -31.5 -148t-83 -108.5t-121 -71.5t-142 -41
t-148.5 -12h-529v1434h525q84 0 162 -20.5t143.5 -61t105 -109t39.5 -156.5q0 -67 -24.5 -123.5t-65.5 -93.5t-90.5 -60t-103.5 -30v-28q54 -8 105.5 -26.5t98.5 -50.5t82.5 -73.5t56.5 -98.5t21 -122z" />
    <glyph glyph-name="U_D.dlig" horiz-adv-x="2353" 
d="M1087 1434h168v-846q0 -81 -17.5 -162.5t-59.5 -163.5t-103.5 -145t-158.5 -102.5t-216 -39.5t-216 40t-158.5 103t-103.5 145.5t-59.5 163.5t-17.5 161v846h168v-844q0 -66 13 -130t43 -125t74 -106.5t110 -73.5t147 -28t147 28t110 73.5t74 106.5t43 125t13 130v844z
M1589 156q127 0 227 46.5t161 125.5t92.5 178t31.5 211t-31.5 211.5t-92.5 179.5t-161 127t-227 47h-334v-1126h334zM2269 717q0 -168 -50 -303.5t-139.5 -226t-213.5 -139t-273 -48.5h-506v1434h506q145 0 268 -48t214 -137t142.5 -226t51.5 -306z" />
    <glyph glyph-name="U_L.dlig" horiz-adv-x="1976" 
d="M1087 1434h168v-846q0 -81 -17.5 -162.5t-59.5 -163.5t-103.5 -145t-158.5 -102.5t-216 -39.5t-216 40t-158.5 103t-103.5 145.5t-59.5 163.5t-17.5 161v846h168v-844q0 -66 13 -130t43 -125t74 -106.5t110 -73.5t147 -28t147 28t110 73.5t74 106.5t43 125t13 130v844z
M1255 1434v-1282h680v-152h-848v1434h168z" />
    <glyph glyph-name="U_P.dlig" horiz-adv-x="2179" 
d="M1087 1434h168v-846q0 -81 -17.5 -162.5t-59.5 -163.5t-103.5 -145t-158.5 -102.5t-216 -39.5t-216 40t-158.5 103t-103.5 145.5t-59.5 163.5t-17.5 161v846h168v-844q0 -66 13 -130t43 -125t74 -106.5t110 -73.5t147 -28t147 28t110 73.5t74 106.5t43 125t13 130v844z
M1683 797q113 0 195 64t82 179t-82 178.5t-195 63.5h-428v-485h428zM1700 1434q79 0 154 -25t137 -72.5t99.5 -124.5t37.5 -172t-38.5 -172.5t-100.5 -124.5t-137 -72.5t-152 -25.5h-445v-645h-168v1434h613z" />
    <glyph glyph-name="U_R.dlig" horiz-adv-x="2246" 
d="M1087 1434h168v-846q0 -81 -17.5 -162.5t-59.5 -163.5t-103.5 -145t-158.5 -102.5t-216 -39.5t-216 40t-158.5 103t-103.5 145.5t-59.5 163.5t-17.5 161v846h168v-844q0 -66 13 -130t43 -125t74 -106.5t110 -73.5t147 -28t147 28t110 73.5t74 106.5t43 125t13 130v844z
M1683 797q72 0 134 26t103.5 83t41.5 134q0 113 -83 177.5t-196 64.5h-428v-485h428zM1894 729q88 0 151.5 -63.5t63.5 -149.5v-516h-155v512q0 54 -39.5 93.5t-93.5 39.5h-570v-645h-164v1434h613q209 0 319.5 -100.5t110.5 -258.5q0 -61 -21 -114.5t-48.5 -86.5t-64.5 -60
t-59.5 -38t-42.5 -18v-29z" />
    <glyph glyph-name="V_A" horiz-adv-x="1890" 
d="M1130 1434h150l-508 -1434h-240l-512 1434h177l428 -1180q8 -24 14.5 -49.5t8.5 -38.5l3 -14h25q8 47 26 102zM1354 1434l516 -1434h-156l-127 358h-690l-127 -358h-156l516 1434h224zM948 498h588l-281 784h-28z" />
    <glyph glyph-name="a.ss01" horiz-adv-x="1163" 
d="M557 872q-81 0 -143.5 -31.5t-99 -85t-54.5 -118.5t-18 -137t18.5 -137t55 -119t99 -85.5t142.5 -31.5t142.5 31.5t99 85.5t55 119t18.5 137t-18.5 137t-55 118.5t-99 85t-142.5 31.5zM506 -25q-88 0 -161 30t-122.5 80.5t-83.5 118.5t-49.5 142.5t-15.5 153.5
q0 100 25.5 191t76 167t137 121t197.5 45q75 0 136.5 -19.5t104.5 -55t72 -76.5t49 -91h29q-29 97 -29 197v20h168v-999h-168v20q0 45 7 95t15 77l7 27h-29q-100 -244 -366 -244z" />
    <glyph glyph-name="aacute.ss01" horiz-adv-x="1163" 
d="M803 1466l-137 -268h-146l127 268h156zM557 872q-81 0 -143.5 -31.5t-99 -85t-54.5 -118.5t-18 -137t18.5 -137t55 -119t99 -85.5t142.5 -31.5t142.5 31.5t99 85.5t55 119t18.5 137t-18.5 137t-55 118.5t-99 85t-142.5 31.5zM506 -25q-88 0 -161 30t-122.5 80.5
t-83.5 118.5t-49.5 142.5t-15.5 153.5q0 100 25.5 191t76 167t137 121t197.5 45q75 0 136.5 -19.5t104.5 -55t72 -76.5t49 -91h29q-29 97 -29 197v20h168v-999h-168v20q0 45 7 95t15 77l7 27h-29q-100 -244 -366 -244z" />
    <glyph glyph-name="acircumflex.ss01" horiz-adv-x="1163" 
d="M713 1466l166 -243h-152l-106 153h-15l-106 -153h-152l166 243h199zM557 872q-81 0 -143.5 -31.5t-99 -85t-54.5 -118.5t-18 -137t18.5 -137t55 -119t99 -85.5t142.5 -31.5t142.5 31.5t99 85.5t55 119t18.5 137t-18.5 137t-55 118.5t-99 85t-142.5 31.5zM506 -25
q-88 0 -161 30t-122.5 80.5t-83.5 118.5t-49.5 142.5t-15.5 153.5q0 100 25.5 191t76 167t137 121t197.5 45q75 0 136.5 -19.5t104.5 -55t72 -76.5t49 -91h29q-29 97 -29 197v20h168v-999h-168v20q0 45 7 95t15 77l7 27h-29q-100 -244 -366 -244z" />
    <glyph glyph-name="adieresis.ss01" horiz-adv-x="1163" 
d="M428 1282q-39 0 -67.5 27t-28.5 65t28.5 65t67.5 27q36 0 64 -27t28 -65t-28 -65t-64 -27zM772 1282q-40 0 -68 27t-28 65t28 65t68 27q36 0 64 -27t28 -65t-28 -65t-64 -27zM557 872q-81 0 -143.5 -31.5t-99 -85t-54.5 -118.5t-18 -137t18.5 -137t55 -119t99 -85.5
t142.5 -31.5t142.5 31.5t99 85.5t55 119t18.5 137t-18.5 137t-55 118.5t-99 85t-142.5 31.5zM506 -25q-88 0 -161 30t-122.5 80.5t-83.5 118.5t-49.5 142.5t-15.5 153.5q0 100 25.5 191t76 167t137 121t197.5 45q75 0 136.5 -19.5t104.5 -55t72 -76.5t49 -91h29
q-29 97 -29 197v20h168v-999h-168v20q0 45 7 95t15 77l7 27h-29q-100 -244 -366 -244z" />
    <glyph glyph-name="aring.ss01" horiz-adv-x="1163" 
d="M590 1335q62 0 92.5 39t30.5 90t-30.5 89t-92.5 38q-61 0 -91 -38t-30 -89t30 -90t91 -39zM590 1702q63 0 111.5 -21t75.5 -56.5t40.5 -76t13.5 -84.5q0 -45 -13.5 -85.5t-40.5 -75t-75.5 -55.5t-111.5 -21t-110.5 21t-75 55.5t-41 75.5t-13.5 85q0 95 60 166.5t180 71.5
zM557 872q-81 0 -143.5 -31.5t-99 -85t-54.5 -118.5t-18 -137t18.5 -137t55 -119t99 -85.5t142.5 -31.5t142.5 31.5t99 85.5t55 119t18.5 137t-18.5 137t-55 118.5t-99 85t-142.5 31.5zM506 -25q-88 0 -161 30t-122.5 80.5t-83.5 118.5t-49.5 142.5t-15.5 153.5
q0 100 25.5 191t76 167t137 121t197.5 45q75 0 136.5 -19.5t104.5 -55t72 -76.5t49 -91h29q-29 97 -29 197v20h168v-999h-168v20q0 45 7 95t15 77l7 27h-29q-100 -244 -366 -244z" />
    <glyph glyph-name="f.ss01" horiz-adv-x="653" 
d="M27 848h145v-848h168v848h281v151h-594v-151zM436 999q-68 0 -119 35.5t-51 104.5q0 72 50.5 107.5t119.5 35.5h185v152h-248q-52 0 -100.5 -13.5t-90.5 -40.5t-67 -74t-25 -108q0 -27 5 -51t12 -39.5t17.5 -30.5t18 -22t17.5 -16t12 -11v-33z" />
    <glyph glyph-name="g.ss01" horiz-adv-x="1148" 
d="M520 145q-207 0 -333 120.5t-126 318.5q0 197 123 318.5t322 121.5q141 0 240.5 -76.5t125.5 -187.5q7 -23 34 -52.5t49 -60t22 -63.5q0 -198 -126 -318.5t-331 -120.5zM520 276q137 0 225.5 86t88.5 222t-88.5 222.5t-225.5 86.5q-138 0 -226.5 -86.5t-88.5 -222.5
t88.5 -222t226.5 -86zM899 760q-27 104 -27 174q0 27 20 46t50 19h166v-151h-98q-14 0 -23.5 -10t-9.5 -23v-231l-105 16v160h27zM977 600v-563q0 -191 -121.5 -308.5t-320.5 -117.5q-193 0 -317 110.5t-124 290.5h144q0 -123 86 -196.5t211 -73.5q131 0 215 80.5t84 214.5
v563h143z" />
    <glyph glyph-name="k.ss01" horiz-adv-x="1122" 
d="M582 410l331 -412h193l-393 479v29q129 9 217 80.5t88 185.5q0 108 -79 180t-237 72q-80 0 -149 -19t-112.5 -47t-76.5 -63.5t-49 -64.5t-22 -54h-29q31 102 31 213v445h-168v-1434h168v410h287zM295 549q0 154 97.5 253t252.5 99q60 0 103.5 -15t64.5 -40t30 -50t9 -53
q0 -89 -84.5 -141.5t-210.5 -52.5h-262z" />
    <glyph glyph-name="o.ss01" horiz-adv-x="1196" 
d="M598 -25q-143 0 -263.5 70t-190.5 191t-70 264t70 263.5t190.5 190.5t263.5 70t263.5 -70t190.5 -190.5t70 -263.5t-70 -264t-190.5 -191t-263.5 -70zM598 127q150 0 253 108.5t103 264.5t-103 264t-253 108t-253 -108t-103 -264t103 -264.5t253 -108.5z" />
    <glyph glyph-name="oacute.ss01" horiz-adv-x="1196" 
d="M797 1466l-138 -268h-145l127 268h156zM598 -25q-143 0 -263.5 70t-190.5 191t-70 264t70 263.5t190.5 190.5t263.5 70t263.5 -70t190.5 -190.5t70 -263.5t-70 -264t-190.5 -191t-263.5 -70zM598 127q150 0 253 108.5t103 264.5t-103 264t-253 108t-253 -108t-103 -264
t103 -264.5t253 -108.5z" />
    <glyph glyph-name="ocircumflex.ss01" horiz-adv-x="1196" 
d="M700 1466l166 -243h-151l-107 153h-14l-107 -153h-151l166 243h198zM598 -25q-143 0 -263.5 70t-190.5 191t-70 264t70 263.5t190.5 190.5t263.5 70t263.5 -70t190.5 -190.5t70 -263.5t-70 -264t-190.5 -191t-263.5 -70zM598 127q150 0 253 108.5t103 264.5t-103 264
t-253 108t-253 -108t-103 -264t103 -264.5t253 -108.5z" />
    <glyph glyph-name="odieresis.ss01" horiz-adv-x="1196" 
d="M430 1282q-39 0 -67.5 27t-28.5 65t28.5 65t67.5 27q36 0 64 -27t28 -65t-28 -65t-64 -27zM774 1282q-40 0 -68 27t-28 65t28 65t68 27q36 0 64 -27t28 -65t-28 -65t-64 -27zM598 -25q-143 0 -263.5 70t-190.5 191t-70 264t70 263.5t190.5 190.5t263.5 70t263.5 -70
t190.5 -190.5t70 -263.5t-70 -264t-190.5 -191t-263.5 -70zM598 127q150 0 253 108.5t103 264.5t-103 264t-253 108t-253 -108t-103 -264t103 -264.5t253 -108.5z" />
    <glyph glyph-name="ohungarumlaut.ss01" horiz-adv-x="1196" 
d="M958 1466l-137 -268h-145l127 268h155zM686 1466l-137 -268h-146l127 268h156zM598 -25q-143 0 -263.5 70t-190.5 191t-70 264t70 263.5t190.5 190.5t263.5 70t263.5 -70t190.5 -190.5t70 -263.5t-70 -264t-190.5 -191t-263.5 -70zM598 127q150 0 253 108.5t103 264.5
t-103 264t-253 108t-253 -108t-103 -264t103 -264.5t253 -108.5z" />
    <glyph glyph-name="oslash.ss01" horiz-adv-x="1220" 
d="M1108 1010l-848 -1020h-141l848 1020h141zM608 -25q-143 0 -263.5 70t-190.5 191t-70 264t70 263.5t190.5 190.5t263.5 70t264 -70t191 -190.5t70 -263.5t-70 -264t-191 -191t-264 -70zM608 127q150 0 253.5 108.5t103.5 264.5t-103.5 264t-253.5 108t-253 -108
t-103 -264t103 -264.5t253 -108.5z" />
    <glyph glyph-name="oslashacute.ss01" horiz-adv-x="1220" 
d="M834 1466l-138 -268h-145l127 268h156zM1108 1010l-848 -1020h-141l848 1020h141zM608 -25q-143 0 -263.5 70t-190.5 191t-70 264t70 263.5t190.5 190.5t263.5 70t264 -70t191 -190.5t70 -263.5t-70 -264t-191 -191t-264 -70zM608 127q150 0 253.5 108.5t103.5 264.5
t-103.5 264t-253.5 108t-253 -108t-103 -264t103 -264.5t253 -108.5z" />
    <glyph glyph-name="t.ss01" horiz-adv-x="661" 
d="M33 999v-151h145v-518q0 -67 16.5 -124t50.5 -104.5t95 -74.5t143 -27h146v125h-133q-76 0 -113 51.5t-37 122.5v549h283v151h-596zM209 1194q0 -78 -43.5 -136.5t-132.5 -58.5l190 -28v57q78 0 116 50t38 116v240h-168v-240z" />
    <glyph glyph-name="tcaron.ss01" horiz-adv-x="657" 
d="M676 1812l-17 -528h-133l-18 528h168zM27 999v-151h145v-518q0 -67 16.5 -124t50.5 -104.5t95 -74.5t143 -27h146v125h-134q-76 0 -112.5 51t-36.5 123v549h283v151h-596zM203 1194q0 -78 -43.5 -136.5t-132.5 -58.5l190 -28v57q78 0 116 50t38 116v240h-168v-240z" />
    <glyph glyph-name="a_e.dlig" horiz-adv-x="1849" 
d="M819 573q-54 -40 -387 -96q-76 -14 -131 -61.5t-55 -124.5q0 -69 48 -119t116 -59q60 -12 117.5 -3t123.5 48q66 38 106.5 98t53.5 127q8 58 8 100v90zM844 256q-2 -5 -5 -14.5t-16.5 -35.5t-30 -50.5t-46.5 -54.5t-64 -52q-143 -90 -334 -69q-107 11 -185.5 91.5
t-78.5 196.5q0 64 20 114.5t55 83.5t75 53t88 32q73 17 190 33t154 24q35 6 57 12.5t45 18t32 31t3 45.5q-14 70 -86.5 120t-177.5 50q-125 0 -204 -68.5t-79 -165.5h-164q0 73 30.5 140t86.5 119t142 83t190 31q103 0 187.5 -31.5t139 -85.5t84 -125t29.5 -151
q0 -94 -27.5 -187.5t-54.5 -140.5l-27 -47h-28zM1296 885q-74 0 -134 -28t-96.5 -74.5t-57.5 -100t-27 -111.5h631q-3 54 -24 107.5t-58 100.5t-98 76.5t-136 29.5zM977 465q2 -48 12.5 -94t34.5 -93.5t58.5 -82.5t89.5 -57.5t124 -22.5q227 0 295 221h164
q-12 -52 -34.5 -100.5t-60.5 -97t-87 -84t-120.5 -57.5t-154.5 -22q-101 0 -183 31.5t-136 83t-91 121t-53 142t-16 149.5q0 75 16 147t53 141t91 120.5t136 82.5t183 31q122 0 217 -45t152 -123.5t85 -177.5t24 -213h-799z" />
    <glyph glyph-name="f_f.dlig" horiz-adv-x="1189" 
d="M172 1075q0 52 11 101.5t35.5 96.5t61.5 82.5t93 57t125 21.5h125v-152h-129q-76 0 -115 -54.5t-39 -125.5v-103h281v-151h-281v-848h-168v848h-145v151h145v76zM707 1075q0 52 11 101.5t36 96.5t61.5 82.5t92.5 57t124 21.5h125v-152h-129q-76 0 -115 -54.5t-39 -125.5
v-103h281v-151h-281v-848h-167v848h-144v151h144v76z" />
    <glyph glyph-name="f_f_i.dlig" horiz-adv-x="1515" 
d="M172 1075q0 52 11 101.5t35.5 96.5t61.5 82.5t93 57t125 21.5h125v-152h-129q-76 0 -115 -54.5t-39 -125.5v-103h281v-151h-281v-848h-168v848h-145v151h145v76zM707 1075q0 52 11 101.5t36 96.5t61.5 82.5t92.5 57t124 21.5h125v-152h-129q-76 0 -115 -54.5t-39 -125.5
v-103h281v-151h-281v-848h-167v848h-144v151h144v76zM1407 932v-932h-168v811q0 15 -11 26t-26 11h-84v151h221q28 0 48 -19.5t20 -47.5z" />
    <glyph glyph-name="f_f_j.dlig" horiz-adv-x="1521" 
d="M172 1075q0 52 11 101.5t35.5 96.5t61.5 82.5t93 57t125 21.5h125v-152h-129q-76 0 -115 -54.5t-39 -125.5v-103h281v-151h-281v-848h-168v848h-145v151h145v76zM707 1075q0 52 11 101.5t36 96.5t61.5 82.5t92.5 57t124 21.5h125v-152h-129q-76 0 -115 -54.5t-39 -125.5
v-103h281v-151h-281v-848h-167v848h-144v151h144v76zM1413 -279q0 -125 -79 -207.5t-212 -82.5h-151v153h121q68 0 110.5 41t42.5 115v1071q0 15 -11 26t-26 11h-90v151h225q29 0 49.5 -21t20.5 -50v-1207z" />
    <glyph glyph-name="f_f_r.dlig" horiz-adv-x="1816" 
d="M172 1075q0 52 11 101.5t35.5 96.5t61.5 82.5t93 57t125 21.5h125v-152h-129q-76 0 -115 -54.5t-39 -125.5v-103h281v-151h-281v-848h-168v848h-145v151h145v76zM707 1075q0 52 11 101.5t36 96.5t61.5 82.5t92.5 57t124 21.5h125v-152h-129q-76 0 -115 -54.5t-39 -125.5
v-103h281v-151h-281v-848h-167v848h-144v151h144v76zM1776 848q-102 0 -179.5 -36.5t-122 -97.5t-66.5 -132.5t-22 -149.5v-432h-167v819q0 29 -29 29h-100v151h202q33 0 55.5 -19t22.5 -50q0 -36 -7 -97t-15 -104l-7 -43h29q41 142 144.5 226t261.5 87v-151z" />
    <glyph glyph-name="f_f_t.dlig" horiz-adv-x="1744" 
d="M1253 848h-376v-848h-168v848h-369v-848h-168v848h-145v151h145v76q0 52 11 101.5t35.5 96.5t61.5 82.5t93 57t125 21.5h125v-152h-129q-76 0 -115 -54.5t-39 -125.5v-103h369v76q0 52 11 101.5t36 96.5t61.5 82.5t92.5 57t124 21.5h125v-152h-129q-76 0 -114.5 -54
t-38.5 -126v-103h376v435h168v-435h283v-151h-283v-539q0 -66 44.5 -111.5t109.5 -45.5h129v-152h-145q-140 0 -223 90t-83 217v541z" />
    <glyph glyph-name="f_i.dlig" horiz-adv-x="978" 
d="M172 1075q0 52 11 101.5t35.5 96.5t61.5 82.5t93 57t125 21.5h125v-152h-129q-76 0 -115 -54.5t-39 -125.5v-103h281v-151h-281v-848h-168v848h-145v151h145v76zM870 932v-932h-168v811q0 15 -10.5 26t-25.5 11h-84v151h221q29 0 48 -19.5t19 -47.5z" />
    <glyph glyph-name="f_j.dlig" horiz-adv-x="985" 
d="M172 1075q0 52 11 101.5t35.5 96.5t61.5 82.5t93 57t125 21.5h125v-152h-129q-76 0 -115 -54.5t-39 -125.5v-103h281v-151h-281v-848h-168v848h-145v151h145v76zM877 -279q0 -125 -78 -207.5t-211 -82.5h-154v153h121q68 0 111 41t43 115v1071q0 15 -11 26t-26 11h-90
v151h225q29 0 49.5 -21t20.5 -50v-1207z" />
    <glyph glyph-name="f_r.dlig" horiz-adv-x="1280" 
d="M172 1075q0 52 11 101.5t35.5 96.5t61.5 82.5t93 57t125 21.5h125v-152h-129q-76 0 -115 -54.5t-39 -125.5v-103h281v-151h-281v-848h-168v848h-145v151h145v76zM1239 848q-82 0 -148.5 -24.5t-110 -64.5t-73 -94.5t-42.5 -112.5t-13 -120v-432h-168v819q0 13 -8.5 21
t-20.5 8h-102v151h203q34 0 56 -18.5t22 -50.5q0 -36 -7 -97t-13 -104l-7 -43h27q41 142 144.5 226t260.5 87v-151z" />
    <glyph glyph-name="f_t.dlig" horiz-adv-x="1226" 
d="M172 1075q0 52 11 101.5t35.5 96.5t61.5 82.5t93 57t125 21.5h125v-152h-129q-76 0 -115 -54.5t-39 -125.5v-103h395v435h168v-435h283v-151h-283v-539q0 -66 44.5 -111.5t109.5 -45.5h129v-152h-146q-140 0 -222.5 90t-82.5 217v541h-395v-848h-168v848h-145v151h145v76
z" />
    <glyph glyph-name="g_i.dlig" horiz-adv-x="1531" 
d="M539 145q-122 0 -226.5 54t-168.5 155.5t-64 229.5q0 198 123 319t321 121q141 0 241 -76.5t126 -187.5q7 -23 33.5 -52.5t48.5 -60t22 -63.5q0 -198 -126 -318.5t-330 -120.5zM539 285q138 0 225.5 83.5t87.5 215.5t-87.5 215.5t-225.5 83.5q-140 0 -228 -83.5
t-88 -215.5t88 -215.5t228 -83.5zM559 -467q164 0 271.5 49.5t107.5 128.5q0 53 -52 94t-138 62.5t-189 21.5q-167 0 -273 -48.5t-106 -129.5q0 -79 107 -128.5t272 -49.5zM272 -53h-45q-64 0 -106.5 34t-42.5 95q0 62 42 93.5t107 31.5h39v35l273 -50v-41h-244
q-35 0 -58.5 -16t-23.5 -49q0 -32 23.5 -48t58.5 -16h264q232 0 383.5 -85.5t151.5 -219.5q0 -133 -151.5 -219t-381.5 -86q-155 0 -277 36.5t-190.5 101.5t-68.5 147q0 54 25.5 97t66.5 69t79 41t76 22v27zM918 760q-27 100 -27 170q0 29 20.5 49t49.5 20h165v-151h-96
q-15 0 -25 -9.5t-10 -23.5v-231l-104 16v160h27zM1411 934v-934h-168v811q0 15 -11 26t-26 11h-84v151h221q28 0 48 -19.5t20 -45.5zM1227 1374q0 -38 28.5 -65t67.5 -27q37 0 64.5 27t27.5 65t-27.5 65t-64.5 27q-39 0 -67.5 -27t-28.5 -65z" />
    <glyph glyph-name="g_r.dlig" horiz-adv-x="1853" 
d="M539 145q-122 0 -226.5 54t-168.5 155.5t-64 229.5q0 198 123 319t321 121q141 0 241 -76.5t126 -187.5q7 -23 33.5 -52.5t48.5 -60t22 -63.5q0 -198 -126 -318.5t-330 -120.5zM539 285q138 0 225.5 83.5t87.5 215.5t-87.5 215.5t-225.5 83.5q-140 0 -228 -83.5
t-88 -215.5t88 -215.5t228 -83.5zM559 -467q164 0 271.5 49.5t107.5 128.5q0 53 -52 94t-138 62.5t-189 21.5q-167 0 -273 -48.5t-106 -129.5q0 -79 107 -128.5t272 -49.5zM272 -53h-45q-64 0 -106.5 34t-42.5 95q0 62 42 93.5t107 31.5h39v35l273 -50v-41h-244
q-35 0 -58.5 -16t-23.5 -49q0 -32 23.5 -48t58.5 -16h264q232 0 383.5 -85.5t151.5 -219.5q0 -133 -151.5 -219t-381.5 -86q-155 0 -277 36.5t-190.5 101.5t-68.5 147q0 54 25.5 97t66.5 69t79 41t76 22v27zM918 760q-27 100 -27 170q0 29 20.5 49t49.5 20h165v-151h-96
q-15 0 -25 -9.5t-10 -23.5v-231l-104 16v160h27zM1812 848q-102 0 -179.5 -36.5t-122 -97.5t-66 -132.5t-21.5 -149.5v-432h-168v819q0 29 -28 29h-101v151h203q33 0 55.5 -19t22.5 -50q0 -36 -7.5 -97t-14.5 -104l-7 -43h29q41 142 144.5 226t260.5 87v-151z" />
    <glyph glyph-name="r_i.dlig" horiz-adv-x="1118" 
d="M727 999q-157 -3 -260.5 -87t-144.5 -226h-29q29 162 29 244q0 31 -22.5 50t-55.5 19h-203v-151h100q29 0 29 -29v-819h168v432q0 78 21.5 149.5t66 132.5t122 97.5t179.5 36.5v151zM997 934q0 26 -19.5 45.5t-47.5 19.5h-221v-151h84q15 0 25.5 -11t10.5 -26v-811h168
v934zM909 1282q-39 0 -67.5 27t-28.5 65t28.5 65t67.5 27q36 0 64 -27t28 -65t-28 -65t-64 -27z" />
    <glyph glyph-name="r_j.dlig" horiz-adv-x="1118" 
d="M727 999q-157 -3 -260.5 -87t-144.5 -226h-29q29 162 29 244q0 31 -22.5 50t-55.5 19h-203v-151h100q29 0 29 -29v-819h168v432q0 78 21.5 149.5t66 132.5t122 97.5t179.5 36.5v151zM997 928q0 29 -20 50t-49 21h-226v-151h93q14 0 24 -11t10 -26v-1071q0 -64 -44.5 -111
t-106.5 -47h-123v-151h154q129 0 208.5 87t79.5 203v1207zM903 1282q-39 0 -67.5 27t-28.5 65t28.5 65t67.5 27q36 0 64 -27t28 -65t-28 -65t-64 -27z" />
    <glyph glyph-name="t_i.dlig" horiz-adv-x="1019" 
d="M172 848h-145v151h145v435h168v-435h491q28 0 48 -19.5t20 -45.5v-934h-168v811q0 15 -11 26t-26 11h-354v-539q0 -66 44.5 -111.5t109.5 -45.5h129v-152h-146q-140 0 -222.5 90t-82.5 217v541zM715 1374q0 38 28.5 65t67.5 27q36 0 64 -27t28 -65t-28 -65t-64 -27
q-39 0 -67.5 27t-28.5 65z" />
    <glyph glyph-name="t_r.dlig" horiz-adv-x="1345" 
d="M172 848h-145v151h145v435h168v-435h283v-151h-283v-539q0 -66 44.5 -111.5t109.5 -45.5h129v-152h-146q-140 0 -222.5 90t-82.5 217v541zM1305 848q-102 0 -180 -36.5t-122.5 -97.5t-66 -132.5t-21.5 -149.5v-432h-167v819q0 29 -29 29h-101v151h203q33 0 55.5 -19
t22.5 -50q0 -36 -7.5 -97t-14.5 -104l-7 -43h27q43 142 147 226t261 87v-151z" />
    <glyph glyph-name="t_t" horiz-adv-x="1196" 
d="M705 848h-146v151h146v435h167v-435h283v-151h-283v-539q0 -66 44.5 -111.5t109.5 -45.5h129v-152h-143q-140 0 -223.5 90.5t-83.5 216.5v541zM172 848h-145v151h145v435h168v-435h283v-151h-283v-539q0 -66 44.5 -111.5t109.5 -45.5h129v-152h-146q-140 0 -222.5 90
t-82.5 217v541z" />
    </font>
</defs>
</svg>
