<?xml version="1.0" standalone="no"?>
<!DOCTYPE svg PUBLIC "-//W3C//DTD SVG 1.1//EN" "http://www.w3.org/Graphics/SVG/1.1/DTD/svg11.dtd" >
<svg xmlns="http://www.w3.org/2000/svg" xmlns:xlink="http://www.w3.org/1999/xlink" version="1.1">
<metadata>
Created by FontForge 20201107 at Fri Feb 16 19:17:24 2024
 By 
copyright missing
</metadata>
<defs>
<font id="NeueRegrade-Semibold" horiz-adv-x="1196" >
  <font-face 
    font-family="Neue Regrade Semibold"
    font-weight="600"
    font-stretch="normal"
    units-per-em="2048"
    panose-1="0 0 0 0 0 0 0 0 0 0"
    ascent="1638"
    descent="-410"
    x-height="999"
    cap-height="1434"
    bbox="-94 -594 2714 2087"
    underline-thickness="102"
    underline-position="-255"
    unicode-range="U+0020-2265"
  />
<missing-glyph horiz-adv-x="1167" 
d="M956 1741v-2335h-739v2335h739zM778 150h-389v-265h389v265zM700 72v-111h-233v111h233zM778 553h-233v-131h78v53h77v-108h-233v186h-78v-264h389v264zM778 838h-78v-154h-311v-80h389v234zM778 977h-389v-76h156v-88h-156v-76h234v164h155v76zM545 1204v-84h-78v84h78z
M623 1284h-234v-244h389v80h-155v164zM778 1585h-385v-78h152v-86h-156v-78h389v78h-155v86h155v78zM778 -170h-389v-76h164l-164 -110v-76h389v76h-239l163 110h76v76z" />
    <glyph glyph-name=".notdef" horiz-adv-x="1167" 
d="M956 1741v-2335h-739v2335h739zM778 150h-389v-265h389v265zM700 72v-111h-233v111h233zM778 553h-233v-131h78v53h77v-108h-233v186h-78v-264h389v264zM778 838h-78v-154h-311v-80h389v234zM778 977h-389v-76h156v-88h-156v-76h234v164h155v76zM545 1204v-84h-78v84h78z
M623 1284h-234v-244h389v80h-155v164zM778 1585h-385v-78h152v-86h-156v-78h389v78h-155v86h155v78zM778 -170h-389v-76h164l-164 -110v-76h389v76h-239l163 110h76v76z" />
    <glyph glyph-name=".null" horiz-adv-x="0" 
 />
    <glyph glyph-name="nonmarkingreturn" horiz-adv-x="682" 
 />
    <glyph glyph-name="space" unicode=" " horiz-adv-x="555" 
 />
    <glyph glyph-name="space" unicode="&#xa0;" horiz-adv-x="555" 
 />
    <glyph glyph-name="exclam" unicode="!" horiz-adv-x="557" 
d="M170 1434h221l-18 -1065h-185zM283 -25q-56 0 -96 37.5t-40 89.5q0 54 40 91.5t96 37.5q50 0 88.5 -38t38.5 -91q0 -52 -38.5 -89.5t-88.5 -37.5z" />
    <glyph glyph-name="quotedbl" unicode="&#x22;" horiz-adv-x="815" 
d="M334 1434l-23 -551h-176l-22 551h221zM702 1434l-22 -551h-176l-23 551h221z" />
    <glyph glyph-name="numbersign" unicode="#" horiz-adv-x="1394" 
d="M977 1434h209l-279 -1434h-205zM487 1434h207l-276 -1434h-207zM86 573h1157v-180h-1157v180zM152 1036h1157v-182h-1157v182z" />
    <glyph glyph-name="dollar" unicode="$" horiz-adv-x="1218" 
d="M514 1636v-1837h184v1837h-184zM1137 416q0 63 -18 115.5t-46 90.5t-73 69.5t-88.5 51.5t-104 37t-108.5 27t-111 20q-70 12 -117.5 26t-91 38t-65 61t-21.5 88q0 39 17.5 75.5t52.5 69t96 52.5t139 20q81 0 143 -20t96.5 -52.5t52 -69t17.5 -75.5v-14h221v14
q0 60 -18 117.5t-59 112.5t-101 96.5t-151 66.5t-201 25q-109 0 -199 -25t-149.5 -66.5t-100.5 -96t-59 -112.5t-18 -118q0 -55 11.5 -102.5t35 -84t50.5 -65.5t66 -51.5t73.5 -38.5t81 -29.5t80 -21t79.5 -16.5q157 -29 215 -50q151 -55 151 -165q0 -97 -80 -168.5
t-239 -71.5q-82 0 -146 22t-100.5 59t-55 79.5t-18.5 87.5h-221q0 -64 18.5 -125.5t61 -121t103.5 -104t153.5 -71.5t204.5 -27t204.5 26.5t153.5 70t103.5 101t61 118.5t18.5 125z" />
    <glyph glyph-name="percent" unicode="%" horiz-adv-x="1720" 
d="M436 0h-231l1079 1434h232zM418 938q85 0 127.5 53t42.5 123q0 69 -42.5 121.5t-127.5 52.5q-86 0 -129 -52.5t-43 -121.5q0 -71 43 -123.5t129 -52.5zM418 1458q90 0 158.5 -30.5t107.5 -82t58.5 -110t19.5 -121.5t-19.5 -121.5t-58.5 -110t-107.5 -82t-158.5 -30.5
t-159.5 30.5t-108.5 82t-58.5 110t-19.5 121.5t19.5 121.5t58.5 110t108.5 82t159.5 30.5zM1303 147q85 0 128.5 52t43.5 120q0 70 -43.5 122.5t-128.5 52.5t-129 -52.5t-44 -122.5q0 -68 44 -120t129 -52zM1303 664q90 0 159.5 -31t108.5 -82t58.5 -110t19.5 -122
q0 -62 -19.5 -120.5t-58.5 -110t-108.5 -82.5t-159.5 -31t-159 31t-108 82.5t-58.5 110t-19.5 120.5q0 63 19.5 122t58.5 110t108 82t159 31z" />
    <glyph glyph-name="ampersand" unicode="&#x26;" horiz-adv-x="1511" 
d="M782 303l86 127l-110 129q-93 110 -201 107q-46 0 -88.5 -15t-79 -45t-58.5 -81.5t-22 -116.5t22 -115t59 -78.5t79.5 -42.5t87.5 -14q121 0 225 145zM1454 666q-101 0 -164 -23.5t-106 -81.5l-82 -119l383 -442h-246l-252 293l-90 -131q-42 -53 -82.5 -90t-112 -67
t-155.5 -30q-92 0 -172.5 26t-145.5 77.5t-103 137.5t-38 196q0 90 32.5 164.5t84.5 120.5t112.5 71t120.5 25q28 0 53.5 -5.5t39 -12t29.5 -15t20 -10.5l24 24q-98 57 -166 129q-57 57 -90 114t-33 134q0 135 102 221t267 86q170 0 273.5 -86.5t103.5 -222.5h-221
q0 59 -43 93t-109 34q-65 0 -108 -34.5t-43 -92.5q0 -59 86 -158l358 -407l86 118q121 146 387 146v-182z" />
    <glyph glyph-name="quotesingle" unicode="'" horiz-adv-x="479" 
d="M350 1434l-22 -551h-176l-23 551h221z" />
    <glyph glyph-name="parenleft" unicode="(" horiz-adv-x="593" 
d="M594 -426q-136 187 -205.5 432.5t-69.5 497.5q0 253 69 498.5t206 431.5h-209q-139 -194 -213 -439.5t-74 -490.5t74 -490.5t213 -439.5h209z" />
    <glyph glyph-name="parenright" unicode=")" horiz-adv-x="593" 
d="M0 -426q136 187 205 432t69 498q0 254 -68.5 499t-205.5 431h209q139 -194 213 -439.5t74 -490.5t-74 -490.5t-213 -439.5h-209z" />
    <glyph glyph-name="asterisk" unicode="*" horiz-adv-x="768" 
d="M446 1434v-232l230 86l43 -114l-240 -93l144 -237l-105 -64l-133 215l-133 -215l-105 64l146 237l-244 93l43 114l232 -86v232h122z" />
    <glyph glyph-name="plus" unicode="+" horiz-adv-x="1124" 
d="M653 1100v-322h322v-182h-322v-322h-184v322h-319v182h319v322h184z" />
    <glyph glyph-name="comma" unicode="," horiz-adv-x="544" 
d="M385 102q0 53 -38.5 91t-88.5 38q-56 0 -95.5 -37.5t-39.5 -91.5q0 -52 39.5 -89.5t95.5 -37.5q50 0 88.5 37.5t38.5 89.5zM295 -18q9 -52 -25.5 -99t-101.5 -61v-76q137 14 208 126q59 94 44 199q-14 102 -89 142q-33 17 -73 18z" />
    <glyph glyph-name="hyphen" unicode="-" horiz-adv-x="995" 
d="M131 641h733v-182h-733v182z" />
    <glyph glyph-name="period" unicode="." horiz-adv-x="507" 
d="M258 -25q-56 0 -95.5 37.5t-39.5 89.5q0 54 39.5 91.5t95.5 37.5q50 0 88.5 -38t38.5 -91q0 -52 -38.5 -89.5t-88.5 -37.5z" />
    <glyph glyph-name="slash" unicode="/" horiz-adv-x="888" 
d="M889 1434l-692 -1805h-197l692 1805h197z" />
    <glyph glyph-name="zero" unicode="0" horiz-adv-x="1394" 
d="M698 176q82 0 148.5 32.5t110 85.5t73.5 124t42.5 145.5t12.5 153.5t-12.5 153.5t-42.5 145.5t-73.5 124t-110 85t-148.5 32t-149 -32t-110.5 -85t-73.5 -124t-43 -146t-13 -153q0 -99 22 -191.5t66 -172.5t122 -128.5t179 -48.5zM698 1458q128 0 232.5 -44.5t173 -117.5
t115.5 -170.5t67.5 -199.5t20.5 -209t-20.5 -209t-67.5 -199.5t-115.5 -171t-173 -118t-232.5 -44.5t-233 44.5t-174 118t-115.5 171t-67 199.5t-20.5 209t20.5 209t67 199.5t115.5 170.5t174 117.5t233 44.5z" />
    <glyph glyph-name="one" unicode="1" horiz-adv-x="751" 
d="M403 1434q0 -77 -19.5 -144t-59 -123.5t-108.5 -91.5t-159 -39v-207q130 4 220 88.5t124 200.5h33q-31 -110 -31 -241v-877h222v1434h-222z" />
    <glyph glyph-name="two" unicode="2" horiz-adv-x="1251" 
d="M682 201q-57 0 -117.5 -8.5t-92.5 -16.5l-32 -8v33q402 354 496 438q83 76 145 174.5t62 202.5q0 64 -18 125t-58.5 119t-99.5 101.5t-148 70t-196 26.5q-109 0 -198.5 -26.5t-149.5 -70t-101 -101.5t-59.5 -119.5t-18.5 -124.5q0 -33 2 -47h221q-2 16 -2 47
q0 44 17.5 85.5t52.5 77t95.5 57t138.5 21.5t138 -21t94.5 -56.5t51.5 -76.5t17 -85q0 -121 -236 -330l-577 -510v-178h1050v201h-477z" />
    <glyph glyph-name="three" unicode="3" horiz-adv-x="1206" 
d="M1120 434q0 98 -35.5 176t-92 124t-115 71.5t-117.5 32.5q-42 5 -78 0.5t-60 -10t-24 -7.5v35l475 410v168h-923v-201h585l-393 -340v-172h260q127 0 212 -68t85 -196q0 -137 -83 -209t-220 -72q-131 0 -217 65t-86 171v18h-221v-18q0 -186 144.5 -311.5t381.5 -125.5
q238 0 380 129t142 330z" />
    <glyph glyph-name="four" unicode="4" horiz-adv-x="1378" 
d="M920 1233h-29l-619 -780h414q56 0 114.5 -8.5t89.5 -16.5l30 -8v813zM1311 453v-183h-170v-270h-221v270h-857v250l732 914h346v-981h170z" />
    <glyph glyph-name="five" unicode="5" horiz-adv-x="1294" 
d="M1219 498q0 80 -19 155t-61 143t-102 118.5t-148 80.5t-193 29q-243 0 -338 -152h-30q51 97 65 218l19 143h696v201h-877l-106 -701h260q95 127 272 127q87 0 155 -31t107 -82.5t58.5 -110.5t19.5 -122q0 -62 -19.5 -120t-58.5 -108t-106.5 -80t-155.5 -30
q-66 0 -121 17.5t-92 46.5t-63.5 68t-40.5 78.5t-18 82.5h-226q3 -72 24.5 -140.5t66.5 -133t108.5 -113t157 -78t206.5 -29.5q115 0 211 31.5t159 83.5t107 120.5t63.5 141t19.5 146.5z" />
    <glyph glyph-name="six" unicode="6" horiz-adv-x="1366" 
d="M690 176q95 0 169 29t116 77t63 102.5t21 111.5q0 60 -21 115.5t-63 103.5t-116 77t-169 29t-168.5 -29t-115.5 -77t-63 -103.5t-21 -115.5q0 -45 12.5 -89t41 -86t70.5 -74t105 -51.5t139 -19.5zM731 1024q131 0 237 -42t173 -114.5t103 -166.5t36 -201t-37.5 -201.5
t-106.5 -167t-176.5 -114.5t-238.5 -42q-138 0 -252.5 44t-202.5 132.5t-137 233t-49 332.5q0 106 20 208t66.5 199.5t114 171t171 118t230.5 44.5q112 0 209.5 -35.5t165.5 -95t113.5 -132t66.5 -151.5h-211q-35 94 -126.5 153.5t-233.5 59.5q-89 0 -167 -40t-135.5 -114
t-88 -189t-23.5 -255h33q2 61 34.5 124.5t87.5 117.5t140.5 88.5t183.5 34.5z" />
    <glyph glyph-name="seven" unicode="7" horiz-adv-x="1116" 
d="M39 1434v-201h498q56 0 120.5 8.5t100.5 16.5l37 8v-33q-120 -94 -210.5 -248t-140 -328t-73 -339t-23.5 -318h221q0 92 5 178t19.5 190.5t38 199t63.5 195.5t92.5 187t128 167.5t167.5 142.5v174h-1044z" />
    <glyph glyph-name="eight" unicode="8" horiz-adv-x="1302" 
d="M651 176q49 0 96.5 8.5t94 29t81.5 49.5t56.5 74t21.5 99t-21.5 99t-56.5 74t-81.5 49.5t-94 29t-96.5 8.5t-96.5 -8.5t-94 -29t-81.5 -49.5t-56.5 -74t-21.5 -99t21.5 -99t56.5 -74t81.5 -49.5t94 -29t96.5 -8.5zM360 1069q0 -65 46 -109t109 -61.5t136 -17.5
t135.5 17.5t108 61.5t45.5 109t-45.5 109t-108 61.5t-135.5 17.5t-136 -17.5t-109 -61.5t-46 -109zM872 770q145 -33 248 -136t103 -249q0 -178 -156.5 -294t-415.5 -116q-260 0 -415.5 115.5t-155.5 294.5q0 75 29.5 141.5t79 114t111.5 80.5t130 49v33q-121 32 -204 113.5
t-83 197.5q0 148 138.5 246t369.5 98q230 0 369 -98t139 -246q0 -116 -83 -197.5t-204 -113.5v-33z" />
    <glyph glyph-name="nine" unicode="9" horiz-adv-x="1366" 
d="M676 1257q-95 0 -169 -29t-116 -76.5t-63 -102t-21 -111.5q0 -60 21 -115.5t63 -104t116 -77.5t169 -29q76 0 139.5 19.5t105.5 51.5t71 74.5t42 88t13 92.5q0 57 -21.5 111.5t-64 102t-116.5 76.5t-169 29zM635 410q-131 0 -237 42t-173 114.5t-103 166.5t-36 201
t37.5 201.5t107 166.5t176.5 114t238 42q138 0 252.5 -44t202.5 -132t137 -232.5t49 -332.5q0 -106 -20 -208t-66.5 -200t-114 -171t-171 -118t-230.5 -45q-112 0 -209.5 35.5t-165.5 95t-113.5 132t-66.5 151.5h211q35 -94 127 -153.5t235 -59.5q88 0 165.5 40t135 114
t88.5 189t25 255h-33q-2 -61 -34.5 -124.5t-88 -117.5t-141.5 -88t-184 -34z" />
    <glyph glyph-name="colon" unicode=":" horiz-adv-x="548" 
d="M279 -25q-56 0 -96 37.5t-40 89.5q0 54 40 91.5t96 37.5q50 0 88.5 -38t38.5 -91q0 -52 -38.5 -89.5t-88.5 -37.5zM279 768q-56 0 -96 37.5t-40 89.5q0 54 40 91.5t96 37.5q50 0 88.5 -38t38.5 -91q0 -52 -38.5 -89.5t-88.5 -37.5z" />
    <glyph glyph-name="semicolon" unicode=";" horiz-adv-x="585" 
d="M279 768q-56 0 -96 37.5t-40 89.5q0 54 40 91.5t96 37.5q50 0 88.5 -38t38.5 -91q0 -52 -38.5 -89.5t-88.5 -37.5zM406 102q0 53 -38.5 91t-88.5 38q-56 0 -96 -37.5t-40 -91.5q0 -52 40 -89.5t96 -37.5q50 0 88.5 37.5t38.5 89.5zM315 -18q9 -52 -25.5 -99t-101.5 -61
v-76q137 14 208 126q59 94 45 199q-14 102 -89 142q-33 17 -73 18z" />
    <glyph glyph-name="less" unicode="&#x3c;" horiz-adv-x="1124" 
d="M975 375v-197l-825 305v271l825 307v-197q-508 -190 -531 -198q-25 -10 -56.5 -19.5t-49.5 -13.5l-19 -4v-21q66 -12 125 -35z" />
    <glyph glyph-name="equal" unicode="=" horiz-adv-x="1124" 
d="M150 571h825v-182h-825v182zM150 975h825v-182h-825v182z" />
    <glyph glyph-name="greater" unicode="&#x3e;" horiz-adv-x="1124" 
d="M150 375q499 188 530 198q26 10 57.5 19t49.5 12l18 4v21q-68 14 -125 37l-530 198v197l825 -307v-271l-825 -305v197z" />
    <glyph glyph-name="question" unicode="?" horiz-adv-x="1110" 
d="M1049 1077q0 166 -134.5 273.5t-359.5 107.5t-359.5 -107.5t-134.5 -273.5q0 -7 5 -47h219q-2 8 -2 25q0 101 71.5 151.5t200.5 50.5q123 0 197.5 -51t74.5 -151q0 -51 -25 -89.5t-64.5 -65.5t-87.5 -54t-96 -65t-87.5 -88t-64.5 -133t-25 -191h399v182h-22
q-52 0 -101 -7.5t-71 -15.5l-23 -8q-1 45 25 82.5t69.5 66t96 57t105 61.5t96 71t71 94.5t27.5 124.5zM571 -25q-56 0 -95.5 37.5t-39.5 89.5q0 54 39.5 91.5t95.5 37.5q52 0 90.5 -38t38.5 -91q0 -52 -38.5 -89.5t-90.5 -37.5z" />
    <glyph glyph-name="at" unicode="@" horiz-adv-x="1964" 
d="M885 213q66 0 120.5 23.5t90.5 62t60.5 90t35 105.5t10.5 110t-10.5 110t-35 106t-60.5 91t-90.5 62.5t-120.5 23.5q-83 0 -146.5 -35.5t-99.5 -94t-54 -125.5t-18 -138t18 -137.5t54 -125t99.5 -93.5t146.5 -35zM983 1458q180 0 344.5 -70.5t283 -189t189 -283
t70.5 -344.5q0 -200 -84 -312t-225 -112q-66 0 -124.5 24.5t-99.5 80t-41 131.5h-32q-46 -137 -141.5 -220t-252.5 -83q-92 0 -167.5 31.5t-125 83t-83 120.5t-48 141.5t-14.5 147.5q0 76 14.5 148.5t48 142t83 121t125 83t167.5 31.5q156 0 252 -83t142 -220h32
q-20 119 -20 234v45h135v-594q0 -108 39.5 -169.5t112.5 -61.5q81 0 126.5 75t45.5 215q0 154 -59.5 293.5t-160.5 240.5t-240 160.5t-292 59.5q-154 0 -293.5 -59.5t-240.5 -160.5t-160.5 -240.5t-59.5 -293.5q0 -153 59.5 -292.5t160.5 -240.5t240.5 -160.5t293.5 -59.5
q224 0 416 127h203q-54 -49 -106 -87t-131 -81.5t-177 -67.5t-205 -24q-180 0 -344.5 70t-284 189t-190 283t-70.5 344t70.5 344.5t190 283t284 189t344.5 70.5z" />
    <glyph glyph-name="A" unicode="A" horiz-adv-x="1349" 
d="M815 1434l514 -1434h-201l-114 328h-676l-117 -328h-201l515 1434h280zM401 510h547l-258 723h-33z" />
    <glyph glyph-name="B" unicode="B" horiz-adv-x="1325" 
d="M725 201q137 0 220 55t83 172q0 115 -83.5 171t-219.5 56h-346v-454h346zM721 854q106 0 173 48t67 142q0 93 -67 141t-173 48h-342v-379h342zM1251 373q0 -80 -31 -144.5t-83 -106.5t-122.5 -70t-145.5 -40t-156 -12h-555v1434h549q88 0 168.5 -21.5t146.5 -63.5
t105.5 -111.5t39.5 -156.5q0 -71 -26 -128t-70.5 -93t-96 -57.5t-108.5 -28.5v-33q70 -7 135 -31.5t122.5 -67.5t92.5 -112.5t35 -156.5z" />
    <glyph glyph-name="C" unicode="C" horiz-adv-x="1470" 
d="M1161 428q-21 -47 -53 -88.5t-79.5 -80t-116.5 -61t-150 -22.5q-95 0 -174 32.5t-131 86t-88 124.5t-52 146.5t-16 153.5q0 77 16 151.5t52 145t88 123.5t131 85.5t174 32.5q81 0 150 -22.5t116.5 -60.5t79.5 -79.5t53 -88.5h240q-12 36 -28 71.5t-45 82t-63.5 86.5
t-85.5 80t-110 68.5t-138 46t-167 17.5q-141 0 -257.5 -44.5t-194 -117.5t-131 -170.5t-77.5 -200t-24 -208.5t24 -208.5t77.5 -200t131 -171t194 -118t257.5 -44.5q88 0 167 18t138 46.5t110 68.5t85.5 80.5t63.5 86.5t45 82t28 71h-240z" />
    <glyph glyph-name="D" unicode="D" horiz-adv-x="1447" 
d="M659 205q156 0 268.5 70t166 184t53.5 258q0 107 -31.5 200t-91 164t-153.5 111.5t-212 40.5h-280v-1028h280zM1368 717q0 -337 -192.5 -527t-511.5 -190h-506v1434h506q205 0 362.5 -82t249.5 -246t92 -389z" />
    <glyph glyph-name="E" unicode="E" horiz-adv-x="1159" 
d="M1057 1434v-201h-678v-408h610v-194h-610v-430h678v-201h-899v1434h899z" />
    <glyph glyph-name="F" unicode="F" horiz-adv-x="1087" 
d="M1030 1233h-651v-408h536v-194h-536v-631h-221v1434h872v-201z" />
    <glyph glyph-name="G" unicode="G" horiz-adv-x="1515" 
d="M1413 707q0 51 -33.5 84.5t-85.5 33.5h-551v-198h396q17 0 29 -13t12 -30q0 -72 -28.5 -143t-79.5 -130.5t-131.5 -96.5t-176.5 -38q-96 1 -175 33.5t-131.5 86t-88.5 125t-52 146t-16 152.5q0 77 16 151.5t52.5 145t89 123.5t133 85.5t178.5 32.5q85 0 157.5 -24.5
t120.5 -64.5t78.5 -80t47.5 -82h237q-12 34 -27.5 68.5t-44 81t-63 86.5t-86 81t-111 70t-139.5 47t-170 18q-145 0 -263 -43t-196 -115t-131.5 -169t-76.5 -201t-23 -215q0 -180 52 -324.5t139.5 -233.5t195 -135.5t225.5 -46.5q89 0 166.5 21.5t132 55t100.5 79.5
t74.5 90.5t50 93t31.5 81.5t15 61h32q-84 -248 -84 -369v-88h203v707z" />
    <glyph glyph-name="H" unicode="H" horiz-adv-x="1449" 
d="M1292 1434v-1434h-221v629h-692v-629h-221v1434h221v-605h692v605h221z" />
    <glyph glyph-name="I" unicode="I" horiz-adv-x="536" 
d="M158 1434h221v-1434h-221v1434z" />
    <glyph glyph-name="J" unicode="J" horiz-adv-x="796" 
d="M131 1434v-201h291v-793q0 -99 -69.5 -169t-166.5 -70h-157v-201h157q190 0 323.5 135.5t133.5 329.5v969h-512z" />
    <glyph glyph-name="K" unicode="K" horiz-adv-x="1349" 
d="M1321 1434l-678 -709v-33l666 -692h-301l-584 610h-45v-610h-221v1434h221v-625h45l596 625h301z" />
    <glyph glyph-name="L" unicode="L" horiz-adv-x="1083" 
d="M379 1434v-1233h663v-201h-884v1434h221z" />
    <glyph glyph-name="M" unicode="M" horiz-adv-x="1929" 
d="M1403 1434l-422 -1233h-33l-424 1233h-366v-1434h221v999q0 52 -4.5 110.5t-9.5 90.5l-5 33h33l424 -1233h295l424 1233h33q-19 -117 -19 -234v-999h222v1434h-369z" />
    <glyph glyph-name="N" unicode="N" horiz-adv-x="1579" 
d="M1200 463q0 -63 4 -128.5t8 -99.5l5 -34h-31l-686 1233h-342v-1434h221v977q0 61 -4.5 125t-8.5 98l-4 33h31l684 -1233h344v1434h-221v-971z" />
    <glyph glyph-name="O" unicode="O" horiz-adv-x="1511" 
d="M756 176q94 0 172 32.5t129 86t86.5 124.5t51 145.5t15.5 152.5t-15.5 152.5t-51 145.5t-86.5 124t-129 85.5t-172 32.5t-172 -32.5t-129.5 -85.5t-87 -124t-51 -145.5t-15.5 -152.5t15.5 -152.5t51 -145.5t87 -124.5t129.5 -86t172 -32.5zM758 1458q139 0 254 -44.5
t191.5 -118t129 -171t76 -200t23.5 -209.5q0 -105 -23.5 -207.5t-76 -199.5t-129 -170.5t-191.5 -118t-254 -44.5q-140 0 -255.5 44.5t-192.5 118t-130 170.5t-76.5 199.5t-23.5 207.5q0 107 23.5 210t76.5 200t130 170.5t192.5 118t255.5 44.5z" />
    <glyph glyph-name="P" unicode="P" horiz-adv-x="1284" 
d="M786 825q95 0 160.5 56t65.5 149q0 92 -65 147.5t-161 55.5h-407v-408h407zM811 1434q178 0 300 -113t122 -291q0 -179 -122.5 -292t-299.5 -113h-432v-625h-221v1434h653z" />
    <glyph glyph-name="Q" unicode="Q" horiz-adv-x="1515" 
d="M297 731q0 -77 15.5 -151t50 -143.5t85 -122t127 -84t168.5 -31.5q87 0 161.5 31.5t126.5 84.5t89 122t54.5 143.5t17.5 150.5t-15.5 149t-50.5 142.5t-85.5 122t-127.5 84t-170 31.5q-92 0 -168.5 -31.5t-127 -84t-85 -122t-50 -142.5t-15.5 -149zM1030 156
q137 45 264 45h113v-201h-662q-115 0 -214 30.5t-170 84t-126 123.5t-88.5 152.5t-50 166.5t-16.5 170q0 105 23 206t75 197t127 168t189 116t251 44t250.5 -44t189 -116t127 -168t74.5 -197t23 -206q0 -146 -53 -259.5t-135.5 -180t-190.5 -99.5v-32z" />
    <glyph glyph-name="R" unicode="R" horiz-adv-x="1343" 
d="M786 823q96 0 162 56.5t66 148.5q0 94 -66 149.5t-162 55.5h-407v-410h407zM979 723q93 0 160 -67t67 -160v-496h-202v489q0 55 -40 94.5t-96 39.5h-493v-623h-217v1434h653q209 0 316.5 -99.5t107.5 -257.5q0 -63 -23 -118t-54.5 -89t-71 -60.5t-64.5 -37.5t-43 -16v-33
z" />
    <glyph glyph-name="S" unicode="S" horiz-adv-x="1239" 
d="M1153 416q0 63 -18 115.5t-46 90.5t-73 69.5t-88.5 51.5t-104 37t-108.5 27t-111 20q-70 12 -117.5 26t-91 38t-65 61t-21.5 88q0 39 17.5 75.5t52.5 69t96 52.5t139 20q81 0 143 -20t97 -52.5t52.5 -69t17.5 -75.5v-14h221v14q0 60 -18 117.5t-59.5 112.5t-101.5 96.5
t-151 66.5t-201 25q-109 0 -199 -25t-149.5 -66.5t-100.5 -96t-59 -112.5t-18 -118q0 -55 11.5 -102.5t35 -84t50.5 -65.5t66 -51.5t73.5 -38.5t81 -29.5t80 -21t79.5 -16.5q157 -29 215 -50q152 -55 152 -165q0 -97 -80.5 -168.5t-239.5 -71.5q-82 0 -146 22t-100 59
t-54.5 79.5t-18.5 87.5h-221q0 -64 18.5 -125.5t60.5 -121t103 -104t153.5 -71.5t204.5 -27t204.5 26.5t153.5 70t103.5 101t61 118.5t18.5 125z" />
    <glyph glyph-name="T" unicode="T" horiz-adv-x="1138" 
d="M1106 1434v-201h-426v-1233h-221v1233h-426v201h1073z" />
    <glyph glyph-name="U" unicode="U" horiz-adv-x="1433" 
d="M1071 598q0 -77 -20 -149t-60.5 -134.5t-111 -100.5t-162.5 -38q-73 0 -134 25.5t-101 67t-68 97t-40 113.5t-12 119v836h-221v-836q0 -84 19 -167.5t63 -166.5t108.5 -146.5t164 -103t221.5 -39.5t222 39t164 102t108 146t62.5 167t18.5 169v836h-221v-836z" />
    <glyph glyph-name="V" unicode="V" horiz-adv-x="1372" 
d="M1118 1434q-379 -1088 -389 -1121l-29 -112h-28q-9 53 -29 112l-389 1121h-234l492 -1434h348l492 1434h-234z" />
    <glyph glyph-name="W" unicode="W" horiz-adv-x="2199" 
d="M1950 1434q-312 -1102 -320 -1135l-22 -98h-31q-11 55 -23 98l-311 1135h-289l-311 -1133l-20 -100h-31q-11 55 -23 100l-319 1133h-219l377 -1434h346l309 1122q5 21 9.5 48.5t6.5 45.5l2 17h33q9 -62 23 -111l307 -1122h348l377 1434h-219z" />
    <glyph glyph-name="X" unicode="X" horiz-adv-x="1490" 
d="M1460 1434l-508 -711l512 -723h-270l-434 610h-31l-432 -610h-270l512 723l-508 711h272l442 -623l443 623h272z" />
    <glyph glyph-name="Y" unicode="Y" horiz-adv-x="1222" 
d="M668 920q-13 -22 -23 -46t-14 -38l-4 -13h-33q-12 48 -41 97l-305 514h-228l480 -816v-618h221v616l481 818h-227z" />
    <glyph glyph-name="Z" unicode="Z" horiz-adv-x="1247" 
d="M336 227q7 3 19 11t48.5 42t71.5 78l686 904v172h-1050v-201h784v-29q-6 -2 -17 -7.5t-44 -34t-66 -70.5l-700 -920v-172h1097v201h-829v26z" />
    <glyph glyph-name="bracketleft" unicode="[" horiz-adv-x="604" 
d="M348 1272q98 -21 215 -21h41v183h-477v-1860h477v182h-41q-52 0 -105.5 -4.5t-81.5 -9.5l-28 -4v1534z" />
    <glyph glyph-name="backslash" unicode="\" horiz-adv-x="888" 
d="M197 1434l692 -1805h-197l-692 1805h197z" />
    <glyph glyph-name="bracketright" unicode="]" horiz-adv-x="604" 
d="M256 -262q-98 18 -215 18h-41v-182h477v1860h-477v-183h41q52 0 105.5 5.5t81.5 10.5l28 5v-1534z" />
    <glyph glyph-name="asciicircum" unicode="^" horiz-adv-x="1107" 
d="M778 993q-174 430 -176 434q-13 29 -21 64t-10 55l-2 21h-30q-4 -74 -33 -140l-176 -434h-199l303 744h240l303 -744h-199z" />
    <glyph glyph-name="underscore" unicode="_" horiz-adv-x="1275" 
d="M131 -25h1014v-182h-1014v182z" />
    <glyph glyph-name="grave" unicode="`" horiz-adv-x="520" 
d="M94 1837h205l135 -295h-188z" />
    <glyph glyph-name="a" unicode="a" 
d="M809 543q-43 -32 -350 -80q-66 -10 -117 -52.5t-51 -107.5q0 -60 42.5 -102.5t104.5 -53.5q56 -8 108 -0.5t111 39.5q62 34 100 87.5t46 111.5q6 38 6 84v74zM1155 199v-201h-160q-59 0 -93 36t-34 91q0 38 8 78t16 61l9 21h-33q-2 -6 -6 -17t-19 -41.5t-33 -58.5
t-49 -60.5t-65 -54.5q-147 -96 -350 -73q-108 11 -187 90.5t-79 197.5q0 64 20 114.5t55 83.5t75 53t89 32q74 18 189.5 31.5t148.5 19.5q87 18 112 34q38 24 26 69q-14 60 -79 98.5t-159 38.5q-117 0 -185.5 -57t-68.5 -138h-215q0 71 30 137.5t87 120.5t149.5 86.5
t206.5 32.5t205.5 -32.5t148 -87t86 -123.5t29.5 -146v-393q0 -18 12.5 -30.5t32.5 -12.5h80z" />
    <glyph glyph-name="b" unicode="b" horiz-adv-x="1208" 
d="M625 176q131 0 212 91.5t81 232.5t-81 232t-212 91q-129 0 -210 -91t-81 -232t80.5 -232.5t210.5 -91.5zM686 1024q113 0 202.5 -45.5t142.5 -121.5t80.5 -167t27.5 -190q0 -78 -16.5 -152t-52 -142t-87 -119t-126.5 -81.5t-165 -30.5q-75 0 -137 19t-104 52.5t-70 69.5
t-47 79h-33q33 -91 33 -179v-16h-221v1434h221v-390q0 -59 -8 -119t-16 -90l-9 -30h33q19 43 46.5 79t69 69t102.5 52t134 19z" />
    <glyph glyph-name="c" unicode="c" horiz-adv-x="1087" 
d="M795 326q-27 -63 -85.5 -106.5t-148.5 -43.5q-57 0 -103.5 19.5t-77 51.5t-51 74.5t-29.5 87t-9 91.5q0 59 15 114t45.5 103t84.5 77t125 29q90 0 148.5 -43.5t85.5 -107.5h233q-19 70 -54.5 130t-90.5 111.5t-138 81t-184 29.5q-104 0 -188.5 -31.5t-139.5 -83
t-92.5 -120.5t-54 -141.5t-16.5 -147.5t16.5 -147.5t54 -141.5t92.5 -121t139.5 -83.5t188.5 -31.5q101 0 184 29t138 80t90.5 111.5t54.5 130.5h-233z" />
    <glyph glyph-name="d" unicode="d" horiz-adv-x="1200" 
d="M291 500q0 -143 79 -233.5t210 -90.5q129 0 207.5 90.5t78.5 233.5q0 142 -79 232.5t-207 90.5q-131 0 -210 -90t-79 -233zM70 500q0 78 16 152t50.5 142t85.5 119t126 81t166 30q73 0 134 -19t102.5 -52t69 -69t46.5 -79h33q-33 106 -33 239v390h221v-1434h-221v16
q0 39 8 84t16 70l9 25h-33q-19 -43 -47 -79t-70 -69.5t-104 -52.5t-137 -19q-90 0 -164 30.5t-124 81t-84.5 119t-50 142.5t-15.5 152z" />
    <glyph glyph-name="e" unicode="e" horiz-adv-x="1122" 
d="M561 842q-64 0 -116.5 -23t-84.5 -61.5t-51.5 -81.5t-25.5 -90l557 -2q-5 44 -24 87.5t-51.5 82.5t-85.5 63.5t-118 24.5zM276 451q3 -48 19 -95t47 -93.5t87.5 -75.5t131.5 -29q101 0 164 49t92 129h215q-11 -46 -30.5 -91t-57.5 -95.5t-88 -88t-126 -62t-167 -24.5
q-104 0 -188.5 31.5t-140 83.5t-93.5 121t-54.5 141.5t-16.5 147.5t16.5 147.5t54.5 141.5t93.5 120.5t140 83t188.5 31.5q127 0 225.5 -46.5t157 -126t86 -182t21.5 -218.5h-777z" />
    <glyph glyph-name="f" unicode="f" horiz-adv-x="733" 
d="M186 1063q0 53 11.5 104.5t38.5 100.5t66 85.5t98.5 58.5t131.5 22h173v-201h-179q-58 0 -88 -40.5t-30 -96.5v-97h294v-200h-294v-799h-222v799h-161v200h161v64z" />
    <glyph glyph-name="g" unicode="g" horiz-adv-x="1210" 
d="M553 127q-131 0 -238 55t-170 157.5t-63 233.5q0 202 125 326.5t325 124.5q144 0 243.5 -80.5t119.5 -191.5q6 -20 28 -42.5t43.5 -40t38.5 -43.5t17 -53q0 -201 -129 -323.5t-340 -122.5zM553 309q125 0 205 73.5t80 190.5q0 118 -80 193.5t-205 75.5
q-126 0 -206.5 -75.5t-80.5 -193.5q0 -117 80.5 -190.5t206.5 -73.5zM573 -432q149 0 247 41t98 106t-100.5 106.5t-244.5 41.5q-151 0 -247.5 -41t-96.5 -107t96 -106.5t248 -40.5zM287 -57h-58q-68 0 -108.5 33.5t-40.5 93.5q0 59 40.5 91t108.5 32h25v36l299 -61l-2 -41
h-232q-69 0 -69 -51t69 -51h254q155 0 280.5 -40t196 -111t70.5 -159q0 -133 -155 -221t-390 -88q-241 0 -394.5 79t-153.5 202q0 43 18 80t46 61.5t64 42.5t68.5 27t63.5 12v33zM928 752q-31 96 -31 172q0 32 22 53.5t54 21.5h196v-200h-108q-17 0 -28 -11t-11 -28v-187
l-141 27l14 152h33z" />
    <glyph glyph-name="h" unicode="h" 
d="M1087 573q0 67 -17.5 134.5t-53 130t-96 110t-138.5 66.5q-93 22 -185.5 0t-168.5 -95t-104 -186h-31q47 138 47 234v467h-221v-1434h221v319q0 142 8 248q16 133 91.5 212t209.5 65q113 -13 165 -91.5t52 -195.5v-557h221v573z" />
    <glyph glyph-name="i" unicode="i" horiz-adv-x="501" 
d="M391 924q0 32 -22.5 53.5t-53.5 21.5h-276v-200h90q17 0 29 -12t12 -29v-758h221v924zM274 1255q-47 0 -81.5 33.5t-34.5 79.5q0 47 34 80t82 33q45 0 79 -33t34 -80q0 -45 -34 -79t-79 -34z" />
    <glyph glyph-name="j" unicode="j" horiz-adv-x="522" 
d="M412 922q0 32 -23 54.5t-55 22.5h-283v-200h99q17 0 28.5 -12t11.5 -29v-1006q0 -49 -35.5 -85t-82.5 -36h-166v-200h213q137 0 215 89t78 208v1194zM285 1255q-47 0 -83 33.5t-36 79.5q0 47 35.5 80t83.5 33q44 0 78 -33.5t34 -79.5q0 -45 -34.5 -79t-77.5 -34z" />
    <glyph glyph-name="k" unicode="k" horiz-adv-x="1069" 
d="M340 1434v-883h47l412 448h245l-479 -526v-33l465 -442l-270 2l-369 352h-51v-352h-221v1434h221z" />
    <glyph glyph-name="l" unicode="l" horiz-adv-x="458" 
d="M119 1434h221v-1434h-221v1434z" />
    <glyph glyph-name="m" unicode="m" horiz-adv-x="1925" 
d="M1817 588q0 62 -18.5 126.5t-54 125.5t-96.5 108t-137 66q-91 22 -182.5 0t-170.5 -95t-116 -186h-32q1 16 -3.5 42t-19.5 62.5t-39 70t-67.5 63.5t-98.5 43q-91 22 -182 0t-166.5 -95t-107.5 -186h-33q47 119 47 215v51h-221v-999h221v342q0 119 8 225q8 57 28 106
t54.5 91t90 62.5t126.5 11.5q60 -6 104 -31t68 -63t35.5 -81t11.5 -92v-571h203v342q0 115 8 225q9 57 29.5 106t54.5 91.5t90 63t127 12.5q110 -11 163.5 -88.5t53.5 -180.5v-571h222v588z" />
    <glyph glyph-name="n" unicode="n" 
d="M1087 573q0 67 -17.5 134.5t-53 130t-96 110t-138.5 66.5q-93 22 -185.5 0t-168.5 -95t-104 -186h-31q47 119 47 215v51h-221v-999h221v319q0 142 8 248q16 133 91.5 212t209.5 65q113 -13 165 -91.5t52 -195.5v-557h221v573z" />
    <glyph glyph-name="o" unicode="o" horiz-adv-x="1112" 
d="M557 141q77 0 136 32t92.5 85.5t50 114.5t16.5 127t-16.5 126.5t-50 114t-92.5 85.5t-136 32t-136 -32t-92.5 -85.5t-50 -114t-16.5 -126.5t16.5 -127t50 -114.5t92.5 -85.5t136 -32zM557 1024q102 0 185.5 -31.5t138 -83t92 -120.5t53.5 -141.5t16 -147.5t-16 -147.5
t-53.5 -141.5t-92 -121t-138 -83.5t-185.5 -31.5t-186 31.5t-139 83.5t-92.5 121t-53.5 141.5t-16 147.5t16 147.5t53.5 141.5t92.5 120.5t139 83t186 31.5z" />
    <glyph glyph-name="p" unicode="p" horiz-adv-x="1206" 
d="M915 500q0 142 -79.5 232.5t-210.5 90.5t-211 -90.5t-80 -232.5t80.5 -233t210.5 -91q131 0 210.5 90.5t79.5 233.5zM1137 500q0 -78 -16.5 -152t-52 -142.5t-87 -119t-128 -81t-167.5 -30.5q-73 0 -134 19t-102.5 52.5t-69 69.5t-46.5 79h-33q33 -107 33 -240v-524h-221
v1568h221v-14q0 -40 -8 -85t-16 -70l-9 -25h33q99 219 358 219q90 0 164.5 -30t126 -81t86.5 -119t51.5 -142t16.5 -152z" />
    <glyph glyph-name="q" unicode="q" horiz-adv-x="1206" 
d="M582 823q-131 0 -211 -90.5t-80 -232.5t80.5 -233t210.5 -91q131 0 210.5 90.5t79.5 233.5q0 142 -79.5 232.5t-210.5 90.5zM520 -25q-113 0 -201.5 46t-141.5 122t-80 167t-27 190q0 77 16 151t51.5 142t86.5 119t125.5 81.5t164.5 30.5q259 0 358 -219h33
q-33 90 -33 180v14h222v-1568h-222v524q0 59 8 119t16 90l9 31h-33q-19 -43 -46.5 -79t-69 -69.5t-102.5 -52.5t-134 -19z" />
    <glyph glyph-name="r" unicode="r" horiz-adv-x="843" 
d="M803 999q-162 -1 -271 -91.5t-153 -245.5h-31q31 172 31 258q0 38 -25 58.5t-65 20.5h-248v-200h111q32 0 32 -33v-766h222v383q0 61 13 119t43.5 112.5t75 95t113 65t152.5 24.5v200z" />
    <glyph glyph-name="s" unicode="s" horiz-adv-x="974" 
d="M913 311q0 85 -34.5 143t-90 86.5t-122.5 44.5t-134 23.5t-122.5 17t-90 31.5t-34.5 60q0 61 59 93t141 32q90 0 148.5 -32.5t58.5 -94.5v-17h203v17q0 134 -110 221.5t-302 87.5q-195 0 -305 -87.5t-110 -221.5q0 -81 34.5 -134.5t90 -78.5t122.5 -38.5t134 -21
t122.5 -19.5t90 -40.5t34.5 -77.5q0 -73 -64 -110t-149 -37q-104 0 -167.5 37.5t-63.5 113.5h-203q0 -143 115 -238.5t317 -95.5q200 0 316 96t116 240z" />
    <glyph glyph-name="t" unicode="t" horiz-adv-x="745" 
d="M186 319q0 -83 34.5 -154t109 -118t176.5 -47h199v201h-179q-50 0 -84 35t-34 86v477h297v200h-297v435h-222v-435h-161v-200h161v-480z" />
    <glyph glyph-name="u" unicode="u" 
d="M109 426q0 -67 17.5 -134.5t53 -129.5t96 -109.5t138.5 -66.5q95 -22 187 0t167.5 94.5t103.5 185.5h31q-47 -119 -47 -215v-51h221v999h-221v-319q0 -142 -8 -248q-15 -132 -91 -211t-210 -65q-113 13 -165 91t-52 195v557h-221v-573z" />
    <glyph glyph-name="v" unicode="v" horiz-adv-x="1040" 
d="M569 348q-12 -34 -20.5 -70.5t-10.5 -56.5l-3 -20h-31q-10 71 -37 147l-234 651h-219l348 -999h314l350 999h-219z" />
    <glyph glyph-name="w" unicode="w" horiz-adv-x="1804" 
d="M1343 328q-10 -34 -18 -65.5t-11 -46.5l-3 -15h-31q-10 51 -33 127l-200 671h-283q-199 -653 -203 -665l-35 -133h-30q-10 57 -33 133l-207 665h-231l307 -999h321l207 672q9 32 15.5 63.5t8.5 47.5l3 16h33q8 -55 28 -127l203 -672h324l305 999h-232z" />
    <glyph glyph-name="x" unicode="x" horiz-adv-x="1054" 
d="M1034 999l-321 -485l327 -514h-237l-260 403h-31l-260 -403h-238l328 514l-322 485h240l268 -395l271 395h235z" />
    <glyph glyph-name="y" unicode="y" horiz-adv-x="1054" 
d="M586 348q-17 -43 -28 -79.5t-13 -52.5l-2 -15h-31q-4 51 -43 147l-240 651h-215l363 -999h88l-105 -281q-34 -100 -137 -100h-188v-188h180q135 0 220.5 68t119.5 163l485 1337h-215z" />
    <glyph glyph-name="z" unicode="z" horiz-adv-x="987" 
d="M625 786q-62 -13 -140 -100q-23 -24 -126 -149t-195 -238l-92 -113v-186h831v182h-569v31q9 2 20 8t19.5 12t22.5 19t20.5 20t23 24t21.5 23q17 18 123.5 141.5t204.5 237.5l98 115v186h-783v-182h521v-31z" />
    <glyph glyph-name="braceleft" unicode="{" horiz-adv-x="700" 
d="M244 520q108 0 163.5 71t55.5 165v211q0 48 13.5 93.5t40.5 85t74.5 63.5t108.5 24v201q-95 0 -173 -30t-130 -80t-88 -116t-51.5 -135t-15.5 -141v-191q0 -68 -38 -118t-114 -50v-139q76 0 114 -50t38 -118v-192q0 -71 15.5 -140t51.5 -135t87.5 -115.5t130 -79.5
t173.5 -30v201q-61 0 -108.5 24t-74.5 63.5t-40.5 85.5t-13.5 95v211q0 93 -55.5 163t-163.5 70v33z" />
    <glyph glyph-name="bar" unicode="|" horiz-adv-x="663" 
d="M240 1434h184v-1860h-184v1860z" />
    <glyph glyph-name="braceright" unicode="}" horiz-adv-x="702" 
d="M459 487q-108 0 -163.5 -70.5t-55.5 -164.5v-211q0 -48 -13.5 -93.5t-41 -85t-75 -63.5t-108.5 -24v-201q95 0 173.5 30t130.5 80t87.5 116t51.5 135t16 141v190q0 68 37.5 118t113.5 50v139q-76 0 -113.5 50t-37.5 118v193q0 71 -16 140t-51.5 134.5t-87.5 115.5
t-130.5 80t-173.5 30v-201q61 0 108.5 -24t75 -63.5t41 -85.5t13.5 -95v-211q0 -93 55.5 -163.5t163.5 -70.5v-33z" />
    <glyph glyph-name="asciitilde" unicode="~" horiz-adv-x="1191" 
d="M858 879q0 -36 -1 -56t-5 -46t-12 -39.5t-23 -23t-37 -9.5q-32 0 -88 26.5t-109 58t-116.5 58t-108.5 26.5q-41 0 -74 -12t-54.5 -30.5t-37 -50t-23.5 -60.5t-12.5 -72.5t-5.5 -75.5t-1 -79h184q0 31 0.5 46.5t2.5 40t7 36.5t13 25t22 18.5t33 5.5q38 0 116 -42
t162.5 -84t140.5 -42q41 0 74 12t55 31t37.5 50t24 61t13.5 72.5t6 75.5t1 79h-184z" />
    <glyph glyph-name="sterling" unicode="&#xa3;" horiz-adv-x="1269" 
d="M1006 256q0 -26 -15.5 -40.5t-42.5 -14.5h-381q-52 0 -138 -8.5t-146 -16.5l-60 -8v33q85 34 140.5 94.5t75.5 134.5t14.5 154t-35.5 159h497v134h-518q-12 37 -13.5 79t6.5 84.5t30 81.5t54.5 69t82.5 48t111 18q53 0 97 -14.5t73 -36.5t50.5 -50t32 -53t15.5 -48h215
q-5 45 -22 94t-54.5 105.5t-89.5 100.5t-134.5 73.5t-182.5 29.5q-86 0 -160.5 -20.5t-129 -56t-97 -83t-68.5 -101t-39.5 -109.5t-13 -110t13.5 -101h-111v-134h142q48 -111 51 -220t-47 -197t-150 -125v-201h957q174 18 174 184v174h-184v-102z" />
    <glyph glyph-name="yen" unicode="&#xa5;" horiz-adv-x="1263" 
d="M688 920q-13 -22 -23 -46t-14 -38l-4 -13h-33q-12 48 -41 97l-305 514h-227l479 -816v-618h221v616l482 818h-228zM238 711v-133h798v133h-798zM238 430v-133h798v133h-798z" />
    <glyph glyph-name="section" unicode="&#xa7;" horiz-adv-x="1040" 
d="M520 592q57 0 108 12.5t88.5 43.5t37.5 75q0 45 -37.5 76t-88 43t-108.5 12t-108 -12t-87.5 -43t-37.5 -76q0 -44 37 -75t88 -43.5t108 -12.5zM526 1036q197 0 321 -72.5t124 -203.5q0 -54 -27.5 -97t-66 -67t-83.5 -40.5t-76.5 -22t-49.5 -5.5v-32q40 -1 81.5 -12.5
t81.5 -35.5t65.5 -68t25.5 -101q0 -128 -110 -216t-290 -88q-182 0 -292.5 87.5t-110.5 216.5v18h217v-18q0 -57 52 -89t132 -32t132.5 32t52.5 89q0 59 -52 90.5t-133 31.5q-82 0 -159.5 17.5t-144 51.5t-106.5 92t-40 132q0 54 27.5 96.5t65.5 65.5t83.5 38.5t76.5 20.5
t50 5v32q-36 2 -78 16.5t-82.5 39.5t-67 66.5t-26.5 90.5q0 126 110.5 209.5t296.5 83.5t297 -83.5t111 -209.5v-24h-217v14q0 57 -54 89t-137 32t-136.5 -32t-53.5 -89q0 -55 54 -87t136 -32z" />
    <glyph glyph-name="dieresis" unicode="&#xa8;" horiz-adv-x="827" 
d="M227 1612q-47 0 -81.5 33t-34.5 79q0 47 34 80t82 33q45 0 79 -33t34 -80q0 -45 -34 -78.5t-79 -33.5zM604 1612q-46 0 -81.5 33.5t-35.5 78.5q0 47 35.5 80t81.5 33q45 0 79 -33t34 -80q0 -45 -34 -78.5t-79 -33.5z" />
    <glyph glyph-name="copyright" unicode="&#xa9;" horiz-adv-x="1662" 
d="M604 719q0 40 8 78.5t26 75.5t44 64.5t66.5 44.5t89.5 17q71 0 119 -33.5t71 -82.5h176q-11 30 -25.5 59.5t-45 67.5t-68.5 66t-97.5 47.5t-129.5 19.5q-101 0 -180 -38.5t-124.5 -101.5t-68.5 -136t-23 -150t23 -150t68.5 -136t124.5 -101.5t180 -38.5q70 0 129.5 19.5
t97.5 47.5t68 65.5t44.5 67.5t24.5 60h-174q-24 -49 -72.5 -82t-117.5 -33q-61 0 -108 25.5t-73.5 67.5t-39.5 90t-13 100zM831 109q166 0 307 81t222.5 221t81.5 306t-81.5 306t-222.5 221t-307 81t-306.5 -81t-222 -221t-81.5 -306t81.5 -306t222 -221t306.5 -81z
M831 1458q153 0 291.5 -58.5t239 -157.5t160 -236.5t59.5 -288.5t-59.5 -288.5t-160 -237t-239 -158t-291.5 -58.5t-291.5 58.5t-238.5 158t-159.5 237t-59.5 288.5t59.5 288.5t159.5 236.5t238.5 157.5t291.5 58.5z" />
    <glyph glyph-name="guillemotleft" unicode="&#xab;" horiz-adv-x="1300" 
d="M760 0q-348 404 -352 406q-35 39 -67.5 58t-45.5 19v31q12 0 44.5 22t68.5 60l352 403h-246l-432 -499l432 -500h246zM1219 0q-349 404 -351 406q-35 39 -67.5 58t-46.5 19v31q12 0 44.5 20t69.5 58l351 407h-242l-434 -499l434 -500h242z" />
    <glyph glyph-name="registered" unicode="&#xae;" horiz-adv-x="954" 
d="M477 754q82 0 146 28.5t100.5 75t55 100.5t18.5 111t-18.5 111t-55 100.5t-100.5 75t-146 28.5t-145.5 -28.5t-99.5 -75t-54 -100.5t-18 -111t18 -111t54 -100.5t99.5 -75t145.5 -28.5zM477 1458q103 0 182 -35t124 -92.5t67 -124t22 -137.5t-22 -137.5t-67 -124
t-124 -92.5t-182 -35t-182 35t-124 92.5t-67 124t-22 137.5t22 137.5t67 124t124 92.5t182 35zM508 1114q24 0 38.5 13t14.5 34q0 23 -14.5 36t-38.5 13h-105v-96h105zM565 1073q29 0 46.5 -18.5t17.5 -46.5v-148h-72v150q0 14 -11 24t-26 10h-119v-184h-77v420h192
q60 0 91.5 -28t31.5 -74q0 -28 -16 -50.5t-30.5 -31.5t-27.5 -13v-10z" />
    <glyph glyph-name="plusminus" unicode="&#xb1;" horiz-adv-x="1112" 
d="M143 160h826v-160h-826v160zM647 1073v-295h322v-180h-322v-293h-184v293h-320v180h320v295h184z" />
    <glyph glyph-name="acute" unicode="&#xb4;" horiz-adv-x="520" 
d="M426 1837l-152 -295h-188l135 295h205z" />
    <glyph glyph-name="periodcentered" unicode="&#xb7;" horiz-adv-x="509" 
d="M258 369q-59 0 -101 39t-42 96t42 97t101 40q55 0 96 -40.5t41 -96.5t-41 -95.5t-96 -39.5z" />
    <glyph glyph-name="guillemotright" unicode="&#xbb;" horiz-adv-x="1300" 
d="M543 0h243l433 500l-433 499h-243q346 -399 350 -403q35 -38 69 -60t46 -22v-31q-14 0 -47 -19t-68 -58zM82 0h244l434 500l-434 499h-244q350 -403 352 -407q35 -38 68 -58t45 -20v-31q-13 0 -45.5 -19t-67.5 -58z" />
    <glyph glyph-name="Aacute" unicode="&#xc1;" horiz-adv-x="1349" 
d="M815 1434l514 -1434h-201l-114 328h-676l-117 -328h-201l515 1434h280zM401 510h547l-258 723h-33zM930 1835l-152 -295h-188l135 295h205z" />
    <glyph glyph-name="Acircumflex" unicode="&#xc2;" horiz-adv-x="1349" 
d="M815 1434l514 -1434h-201l-114 328h-676l-117 -328h-201l515 1434h280zM401 510h547l-258 723h-33zM799 1835l178 -256h-193l-102 147h-14l-103 -147h-192l178 256h248z" />
    <glyph glyph-name="Adieresis" unicode="&#xc4;" horiz-adv-x="1349" 
d="M815 1434l514 -1434h-201l-114 328h-676l-117 -328h-201l515 1434h280zM401 510h547l-258 723h-33zM487 1612q-47 0 -81.5 33t-34.5 79q0 47 34 80t82 33q45 0 79 -33t34 -80q0 -45 -34 -78.5t-79 -33.5zM864 1612q-46 0 -81 33.5t-35 78.5q0 47 35 80t81 33q45 0 79 -33
t34 -80q0 -45 -34 -78.5t-79 -33.5z" />
    <glyph glyph-name="Aring" unicode="&#xc5;" horiz-adv-x="1349" 
d="M815 1434l514 -1434h-201l-114 328h-676l-117 -328h-201l515 1434h280zM401 510h547l-258 723h-33zM680 1712q58 0 86.5 35t28.5 84q0 47 -28.5 82t-86.5 35q-57 0 -85 -35t-28 -82q0 -49 28 -84t85 -35zM680 2087q68 0 120.5 -23t82.5 -61t44.5 -81.5t14.5 -90.5
q0 -48 -14.5 -91.5t-44.5 -81.5t-82.5 -60.5t-120.5 -22.5q-130 0 -195 76.5t-65 179.5q0 47 14.5 90.5t44.5 81.5t82 61t119 23z" />
    <glyph glyph-name="Eacute" unicode="&#xc9;" horiz-adv-x="1159" 
d="M1057 1434v-201h-678v-408h610v-194h-610v-430h678v-201h-899v1434h899zM838 1837l-152 -295h-188l135 295h205z" />
    <glyph glyph-name="Ecircumflex" unicode="&#xca;" horiz-adv-x="1159" 
d="M1057 1434v-201h-678v-408h610v-194h-610v-430h678v-201h-899v1434h899zM731 1837l178 -256h-192l-103 148h-14l-102 -148h-193l178 256h248z" />
    <glyph glyph-name="Edieresis" unicode="&#xcb;" horiz-adv-x="1159" 
d="M1057 1434v-201h-678v-408h610v-194h-610v-430h678v-201h-899v1434h899zM432 1612q-47 0 -82 33t-35 79q0 47 34.5 80t82.5 33q45 0 79 -33t34 -80q0 -45 -34 -78.5t-79 -33.5zM809 1612q-46 0 -81.5 33.5t-35.5 78.5q0 47 35.5 80t81.5 33q45 0 79 -33t34 -80
q0 -45 -34 -78.5t-79 -33.5z" />
    <glyph glyph-name="Igrave" unicode="&#xcc;" horiz-adv-x="536" 
d="M158 1434h221v-1434h-221v1434zM20 1835h205l135 -295h-188z" />
    <glyph glyph-name="Iacute" unicode="&#xcd;" horiz-adv-x="536" 
d="M158 1434h221v-1434h-221v1434zM516 1835l-151 -295h-189l135 295h205z" />
    <glyph glyph-name="Icircumflex" unicode="&#xce;" horiz-adv-x="536" 
d="M158 1434h221v-1434h-221v1434zM391 1835l178 -256h-192l-103 147h-14l-102 -147h-193l178 256h248z" />
    <glyph glyph-name="Idieresis" unicode="&#xcf;" horiz-adv-x="536" 
d="M158 1434h221v-1434h-221v1434zM80 1610q-47 0 -82 33t-35 79q0 47 34.5 80t82.5 33q45 0 79 -33t34 -80q0 -45 -34 -78.5t-79 -33.5zM457 1610q-46 0 -81.5 33.5t-35.5 78.5q0 47 35.5 80t81.5 33q45 0 78.5 -33t33.5 -80q0 -45 -33.5 -78.5t-78.5 -33.5z" />
    <glyph glyph-name="Oacute" unicode="&#xd3;" horiz-adv-x="1511" 
d="M756 176q94 0 172 32.5t129 86t86.5 124.5t51 145.5t15.5 152.5t-15.5 152.5t-51 145.5t-86.5 124t-129 85.5t-172 32.5t-172 -32.5t-129.5 -85.5t-87 -124t-51 -145.5t-15.5 -152.5t15.5 -152.5t51 -145.5t87 -124.5t129.5 -86t172 -32.5zM758 1458q139 0 254 -44.5
t191.5 -118t129 -171t76 -200t23.5 -209.5q0 -105 -23.5 -207.5t-76 -199.5t-129 -170.5t-191.5 -118t-254 -44.5q-140 0 -255.5 44.5t-192.5 118t-130 170.5t-76.5 199.5t-23.5 207.5q0 107 23.5 210t76.5 200t130 170.5t192.5 118t255.5 44.5zM997 1837l-151 -295h-189
l136 295h204z" />
    <glyph glyph-name="Ocircumflex" unicode="&#xd4;" horiz-adv-x="1511" 
d="M756 176q94 0 172 32.5t129 86t86.5 124.5t51 145.5t15.5 152.5t-15.5 152.5t-51 145.5t-86.5 124t-129 85.5t-172 32.5t-172 -32.5t-129.5 -85.5t-87 -124t-51 -145.5t-15.5 -152.5t15.5 -152.5t51 -145.5t87 -124.5t129.5 -86t172 -32.5zM758 1458q139 0 254 -44.5
t191.5 -118t129 -171t76 -200t23.5 -209.5q0 -105 -23.5 -207.5t-76 -199.5t-129 -170.5t-191.5 -118t-254 -44.5q-140 0 -255.5 44.5t-192.5 118t-130 170.5t-76.5 199.5t-23.5 207.5q0 107 23.5 210t76.5 200t130 170.5t192.5 118t255.5 44.5zM883 1837l178 -256h-193
l-102 148h-14l-103 -148h-192l178 256h248z" />
    <glyph glyph-name="Odieresis" unicode="&#xd6;" horiz-adv-x="1511" 
d="M756 176q94 0 172 32.5t129 86t86.5 124.5t51 145.5t15.5 152.5t-15.5 152.5t-51 145.5t-86.5 124t-129 85.5t-172 32.5t-172 -32.5t-129.5 -85.5t-87 -124t-51 -145.5t-15.5 -152.5t15.5 -152.5t51 -145.5t87 -124.5t129.5 -86t172 -32.5zM758 1458q139 0 254 -44.5
t191.5 -118t129 -171t76 -200t23.5 -209.5q0 -105 -23.5 -207.5t-76 -199.5t-129 -170.5t-191.5 -118t-254 -44.5q-140 0 -255.5 44.5t-192.5 118t-130 170.5t-76.5 199.5t-23.5 207.5q0 107 23.5 210t76.5 200t130 170.5t192.5 118t255.5 44.5zM567 1612q-47 0 -81.5 33
t-34.5 79q0 47 34 80t82 33q45 0 79 -33t34 -80q0 -45 -34 -78.5t-79 -33.5zM944 1612q-46 0 -81.5 33.5t-35.5 78.5q0 47 35.5 80t81.5 33q45 0 79 -33t34 -80q0 -45 -34 -78.5t-79 -33.5z" />
    <glyph glyph-name="multiply" unicode="&#xd7;" horiz-adv-x="1058" 
d="M887 911l-230 -227l228 -227l-129 -129l-228 227l-225 -227l-131 129l227 229l-227 225l129 129l227 -227l228 227z" />
    <glyph glyph-name="Oslash" unicode="&#xd8;" horiz-adv-x="1531" 
d="M766 176q94 0 172 32.5t129.5 86t87 124.5t51 145.5t15.5 152.5t-15.5 152.5t-51 145.5t-87 124t-129.5 85.5t-172 32.5t-172 -32.5t-129.5 -85.5t-87 -124t-51 -145.5t-15.5 -152.5t15.5 -152.5t51 -145.5t87 -124.5t129.5 -86t172 -32.5zM768 1458q139 0 254 -44.5
t191.5 -118t129 -171t76 -200t23.5 -209.5q0 -105 -23.5 -207.5t-76 -199.5t-129 -170.5t-191.5 -118t-254 -44.5q-140 0 -255.5 44.5t-192.5 118t-130 170.5t-76.5 199.5t-23.5 207.5q0 107 23.5 210t76.5 200t130 170.5t192.5 118t255.5 44.5zM1436 1448l-1102 -1462h-238
l1104 1462h236z" />
    <glyph glyph-name="Uacute" unicode="&#xda;" horiz-adv-x="1433" 
d="M1071 598q0 -77 -20 -149t-60.5 -134.5t-111 -100.5t-162.5 -38q-73 0 -134 25.5t-101 67t-68 97t-40 113.5t-12 119v836h-221v-836q0 -84 19 -167.5t63 -166.5t108.5 -146.5t164 -103t221.5 -39.5t222 39t164 102t108 146t62.5 167t18.5 169v836h-221v-836zM950 1837
l-151 -295h-189l135 295h205z" />
    <glyph glyph-name="Udieresis" unicode="&#xdc;" horiz-adv-x="1433" 
d="M1071 598q0 -77 -20 -149t-60.5 -134.5t-111 -100.5t-162.5 -38q-73 0 -134 25.5t-101 67t-68 97t-40 113.5t-12 119v836h-221v-836q0 -84 19 -167.5t63 -166.5t108.5 -146.5t164 -103t221.5 -39.5t222 39t164 102t108 146t62.5 167t18.5 169v836h-221v-836zM551 1612
q-47 0 -82 33t-35 79q0 47 34.5 80t82.5 33q45 0 79 -33t34 -80q0 -45 -34 -78.5t-79 -33.5zM928 1612q-46 0 -81.5 33.5t-35.5 78.5q0 47 35.5 80t81.5 33q45 0 78.5 -33t33.5 -80q0 -45 -33.5 -78.5t-78.5 -33.5z" />
    <glyph glyph-name="Yacute" unicode="&#xdd;" horiz-adv-x="1222" 
d="M668 920q-13 -22 -23 -46t-14 -38l-4 -13h-33q-12 48 -41 97l-305 514h-228l480 -816v-618h221v616l481 818h-227zM874 1837l-151 -295h-188l135 295h204z" />
    <glyph glyph-name="aacute" unicode="&#xe1;" 
d="M809 543q-43 -32 -350 -80q-66 -10 -117 -52.5t-51 -107.5q0 -60 42.5 -102.5t104.5 -53.5q56 -8 108 -0.5t111 39.5q62 34 100 87.5t46 111.5q6 38 6 84v74zM1155 199v-201h-160q-59 0 -93 36t-34 91q0 38 8 78t16 61l9 21h-33q-2 -6 -6 -17t-19 -41.5t-33 -58.5
t-49 -60.5t-65 -54.5q-147 -96 -350 -73q-108 11 -187 90.5t-79 197.5q0 64 20 114.5t55 83.5t75 53t89 32q74 18 189.5 31.5t148.5 19.5q87 18 112 34q38 24 26 69q-14 60 -79 98.5t-159 38.5q-117 0 -185.5 -57t-68.5 -138h-215q0 71 30 137.5t87 120.5t149.5 86.5
t206.5 32.5t205.5 -32.5t148 -87t86 -123.5t29.5 -146v-393q0 -18 12.5 -30.5t32.5 -12.5h80zM821 1481l-151 -295h-189l135 295h205z" />
    <glyph glyph-name="acircumflex" unicode="&#xe2;" 
d="M809 543q-43 -32 -350 -80q-66 -10 -117 -52.5t-51 -107.5q0 -60 42.5 -102.5t104.5 -53.5q56 -8 108 -0.5t111 39.5q62 34 100 87.5t46 111.5q6 38 6 84v74zM1155 199v-201h-160q-59 0 -93 36t-34 91q0 38 8 78t16 61l9 21h-33q-2 -6 -6 -17t-19 -41.5t-33 -58.5
t-49 -60.5t-65 -54.5q-147 -96 -350 -73q-108 11 -187 90.5t-79 197.5q0 64 20 114.5t55 83.5t75 53t89 32q74 18 189.5 31.5t148.5 19.5q87 18 112 34q38 24 26 69q-14 60 -79 98.5t-159 38.5q-117 0 -185.5 -57t-68.5 -138h-215q0 71 30 137.5t87 120.5t149.5 86.5
t206.5 32.5t205.5 -32.5t148 -87t86 -123.5t29.5 -146v-393q0 -18 12.5 -30.5t32.5 -12.5h80zM709 1481l178 -256h-193l-102 147h-14l-103 -147h-192l178 256h248z" />
    <glyph glyph-name="adieresis" unicode="&#xe4;" 
d="M809 543q-43 -32 -350 -80q-66 -10 -117 -52.5t-51 -107.5q0 -60 42.5 -102.5t104.5 -53.5q56 -8 108 -0.5t111 39.5q62 34 100 87.5t46 111.5q6 38 6 84v74zM1155 199v-201h-160q-59 0 -93 36t-34 91q0 38 8 78t16 61l9 21h-33q-2 -6 -6 -17t-19 -41.5t-33 -58.5
t-49 -60.5t-65 -54.5q-147 -96 -350 -73q-108 11 -187 90.5t-79 197.5q0 64 20 114.5t55 83.5t75 53t89 32q74 18 189.5 31.5t148.5 19.5q87 18 112 34q38 24 26 69q-14 60 -79 98.5t-159 38.5q-117 0 -185.5 -57t-68.5 -138h-215q0 71 30 137.5t87 120.5t149.5 86.5
t206.5 32.5t205.5 -32.5t148 -87t86 -123.5t29.5 -146v-393q0 -18 12.5 -30.5t32.5 -12.5h80zM403 1255q-47 0 -81.5 33.5t-34.5 79.5q0 47 34 80t82 33q45 0 79 -33t34 -80q0 -45 -34 -79t-79 -34zM780 1255q-46 0 -81 34t-35 79q0 47 35 80t81 33q45 0 79 -33t34 -80
q0 -45 -34 -79t-79 -34z" />
    <glyph glyph-name="aring" unicode="&#xe5;" 
d="M809 543q-43 -32 -350 -80q-66 -10 -117 -52.5t-51 -107.5q0 -60 42.5 -102.5t104.5 -53.5q56 -8 108 -0.5t111 39.5q62 34 100 87.5t46 111.5q6 38 6 84v74zM1155 199v-201h-160q-59 0 -93 36t-34 91q0 38 8 78t16 61l9 21h-33q-2 -6 -6 -17t-19 -41.5t-33 -58.5
t-49 -60.5t-65 -54.5q-147 -96 -350 -73q-108 11 -187 90.5t-79 197.5q0 64 20 114.5t55 83.5t75 53t89 32q74 18 189.5 31.5t148.5 19.5q87 18 112 34q38 24 26 69q-14 60 -79 98.5t-159 38.5q-117 0 -185.5 -57t-68.5 -138h-215q0 71 30 137.5t87 120.5t149.5 86.5
t206.5 32.5t205.5 -32.5t148 -87t86 -123.5t29.5 -146v-393q0 -18 12.5 -30.5t32.5 -12.5h80zM563 1362q58 0 86.5 35t28.5 84q0 47 -28.5 81.5t-86.5 34.5q-57 0 -84.5 -34.5t-27.5 -81.5q0 -49 27.5 -84t84.5 -35zM563 1737q68 0 120.5 -23t82.5 -61t44.5 -81.5
t14.5 -90.5q0 -48 -14.5 -91.5t-44.5 -81.5t-82.5 -60.5t-120.5 -22.5q-130 0 -195 76.5t-65 179.5q0 47 14.5 90.5t44.5 81.5t82 61t119 23z" />
    <glyph glyph-name="eacute" unicode="&#xe9;" horiz-adv-x="1122" 
d="M561 842q-64 0 -116.5 -23t-84.5 -61.5t-51.5 -81.5t-25.5 -90l557 -2q-5 44 -24 87.5t-51.5 82.5t-85.5 63.5t-118 24.5zM276 451q3 -48 19 -95t47 -93.5t87.5 -75.5t131.5 -29q101 0 164 49t92 129h215q-11 -46 -30.5 -91t-57.5 -95.5t-88 -88t-126 -62t-167 -24.5
q-104 0 -188.5 31.5t-140 83.5t-93.5 121t-54.5 141.5t-16.5 147.5t16.5 147.5t54.5 141.5t93.5 120.5t140 83t188.5 31.5q127 0 225.5 -46.5t157 -126t86 -182t21.5 -218.5h-777zM811 1483l-152 -295h-188l135 295h205z" />
    <glyph glyph-name="ecircumflex" unicode="&#xea;" horiz-adv-x="1122" 
d="M561 842q-64 0 -116.5 -23t-84.5 -61.5t-51.5 -81.5t-25.5 -90l557 -2q-5 44 -24 87.5t-51.5 82.5t-85.5 63.5t-118 24.5zM276 451q3 -48 19 -95t47 -93.5t87.5 -75.5t131.5 -29q101 0 164 49t92 129h215q-11 -46 -30.5 -91t-57.5 -95.5t-88 -88t-126 -62t-167 -24.5
q-104 0 -188.5 31.5t-140 83.5t-93.5 121t-54.5 141.5t-16.5 147.5t16.5 147.5t54.5 141.5t93.5 120.5t140 83t188.5 31.5q127 0 225.5 -46.5t157 -126t86 -182t21.5 -218.5h-777zM686 1481l178 -256h-192l-103 147h-14l-102 -147h-193l178 256h248z" />
    <glyph glyph-name="edieresis" unicode="&#xeb;" horiz-adv-x="1122" 
d="M561 842q-64 0 -116.5 -23t-84.5 -61.5t-51.5 -81.5t-25.5 -90l557 -2q-5 44 -24 87.5t-51.5 82.5t-85.5 63.5t-118 24.5zM276 451q3 -48 19 -95t47 -93.5t87.5 -75.5t131.5 -29q101 0 164 49t92 129h215q-11 -46 -30.5 -91t-57.5 -95.5t-88 -88t-126 -62t-167 -24.5
q-104 0 -188.5 31.5t-140 83.5t-93.5 121t-54.5 141.5t-16.5 147.5t16.5 147.5t54.5 141.5t93.5 120.5t140 83t188.5 31.5q127 0 225.5 -46.5t157 -126t86 -182t21.5 -218.5h-777zM371 1257q-47 0 -82 33.5t-35 79.5q0 47 34.5 80t82.5 33q45 0 78.5 -33t33.5 -80
q0 -46 -33.5 -79.5t-78.5 -33.5zM748 1257q-46 0 -81.5 34t-35.5 79q0 47 35.5 80t81.5 33q45 0 78.5 -33t33.5 -80q0 -46 -34 -79.5t-78 -33.5z" />
    <glyph glyph-name="iacute" unicode="&#xed;" horiz-adv-x="509" 
d="M500 1481l-152 -295h-188l135 295h205zM391 924q0 32 -22.5 53.5t-53.5 21.5h-276v-200h90q17 0 29 -12t12 -29v-758h221v924z" />
    <glyph glyph-name="icircumflex" unicode="&#xee;" horiz-adv-x="509" 
d="M367 1481l178 -256h-193l-102 147h-14l-103 -147h-192l178 256h248zM391 924q0 32 -22.5 53.5t-53.5 21.5h-276v-200h90q17 0 29 -12t12 -29v-758h221v924z" />
    <glyph glyph-name="idieresis" unicode="&#xef;" horiz-adv-x="509" 
d="M57 1255q-47 0 -81.5 33.5t-34.5 79.5q0 47 34 80t82 33q45 0 79 -33t34 -80q0 -45 -34 -79t-79 -34zM434 1255q-46 0 -81.5 34t-35.5 79q0 47 35.5 80t81.5 33q45 0 79 -33t34 -80q0 -45 -34 -79t-79 -34zM391 924q0 32 -22.5 53.5t-53.5 21.5h-276v-200h90q17 0 29 -12
t12 -29v-758h221v924z" />
    <glyph glyph-name="oacute" unicode="&#xf3;" horiz-adv-x="1112" 
d="M557 141q77 0 136 32t92.5 85.5t50 114.5t16.5 127t-16.5 126.5t-50 114t-92.5 85.5t-136 32t-136 -32t-92.5 -85.5t-50 -114t-16.5 -126.5t16.5 -127t50 -114.5t92.5 -85.5t136 -32zM557 1024q102 0 185.5 -31.5t138 -83t92 -120.5t53.5 -141.5t16 -147.5t-16 -147.5
t-53.5 -141.5t-92 -121t-138 -83.5t-185.5 -31.5t-186 31.5t-139 83.5t-92.5 121t-53.5 141.5t-16 147.5t16 147.5t53.5 141.5t92.5 120.5t139 83t186 31.5zM801 1481l-152 -295h-188l135 295h205z" />
    <glyph glyph-name="ocircumflex" unicode="&#xf4;" horiz-adv-x="1112" 
d="M557 141q77 0 136 32t92.5 85.5t50 114.5t16.5 127t-16.5 126.5t-50 114t-92.5 85.5t-136 32t-136 -32t-92.5 -85.5t-50 -114t-16.5 -126.5t16.5 -127t50 -114.5t92.5 -85.5t136 -32zM557 1024q102 0 185.5 -31.5t138 -83t92 -120.5t53.5 -141.5t16 -147.5t-16 -147.5
t-53.5 -141.5t-92 -121t-138 -83.5t-185.5 -31.5t-186 31.5t-139 83.5t-92.5 121t-53.5 141.5t-16 147.5t16 147.5t53.5 141.5t92.5 120.5t139 83t186 31.5zM662 1481l178 -256h-193l-102 147h-15l-102 -147h-192l178 256h248z" />
    <glyph glyph-name="odieresis" unicode="&#xf6;" horiz-adv-x="1112" 
d="M557 141q77 0 136 32t92.5 85.5t50 114.5t16.5 127t-16.5 126.5t-50 114t-92.5 85.5t-136 32t-136 -32t-92.5 -85.5t-50 -114t-16.5 -126.5t16.5 -127t50 -114.5t92.5 -85.5t136 -32zM557 1024q102 0 185.5 -31.5t138 -83t92 -120.5t53.5 -141.5t16 -147.5t-16 -147.5
t-53.5 -141.5t-92 -121t-138 -83.5t-185.5 -31.5t-186 31.5t-139 83.5t-92.5 121t-53.5 141.5t-16 147.5t16 147.5t53.5 141.5t92.5 120.5t139 83t186 31.5zM367 1255q-47 0 -82 33.5t-35 79.5q0 47 34.5 80t82.5 33q45 0 78.5 -33t33.5 -80q0 -46 -33.5 -79.5t-78.5 -33.5z
M743 1255q-46 0 -81 34t-35 79q0 47 35 80t81 33q45 0 79 -33t34 -80q0 -45 -34 -79t-79 -34z" />
    <glyph glyph-name="divide" unicode="&#xf7;" horiz-adv-x="1124" 
d="M150 709h825v-183h-825v183zM563 158q-51 0 -87 33.5t-36 80.5q0 49 36 83t87 34q47 0 82 -34t35 -83q0 -47 -35.5 -80.5t-81.5 -33.5zM563 846q-51 0 -87 34t-36 81q0 49 36 82.5t87 33.5q47 0 82 -33.5t35 -82.5q0 -47 -35.5 -81t-81.5 -34z" />
    <glyph glyph-name="oslash" unicode="&#xf8;" horiz-adv-x="1112" 
d="M557 141q77 0 136 32t92.5 85.5t50 114.5t16.5 127t-16.5 126.5t-50 114t-92.5 85.5t-136 32t-136 -32t-92.5 -85.5t-50 -114t-16.5 -126.5t16.5 -127t50 -114.5t92.5 -85.5t136 -32zM557 1024q102 0 185.5 -31.5t138 -83t92 -120.5t53.5 -141.5t16 -147.5t-16 -147.5
t-53.5 -141.5t-92 -121t-138 -83.5t-185.5 -31.5t-186 31.5t-139 83.5t-92.5 121t-53.5 141.5t-16 147.5t16 147.5t53.5 141.5t92.5 120.5t139 83t186 31.5zM1008 1014l-734 -1028h-165l733 1028h166z" />
    <glyph glyph-name="uacute" unicode="&#xfa;" 
d="M109 426q0 -67 17.5 -134.5t53 -129.5t96 -109.5t138.5 -66.5q95 -22 187 0t167.5 94.5t103.5 185.5h31q-47 -119 -47 -215v-51h221v999h-221v-319q0 -142 -8 -248q-15 -132 -91 -211t-210 -65q-113 13 -165 91t-52 195v557h-221v-573zM831 1481l-151 -295h-188l135 295
h204z" />
    <glyph glyph-name="ucircumflex" unicode="&#xfb;" 
d="M109 426q0 -67 17.5 -134.5t53 -129.5t96 -109.5t138.5 -66.5q95 -22 187 0t167.5 94.5t103.5 185.5h31q-47 -119 -47 -215v-51h221v999h-221v-319q0 -142 -8 -248q-15 -132 -91 -211t-210 -65q-113 13 -165 91t-52 195v557h-221v-573zM727 1481l178 -256h-192l-103 147
h-14l-102 -147h-193l178 256h248z" />
    <glyph glyph-name="udieresis" unicode="&#xfc;" 
d="M109 426q0 -67 17.5 -134.5t53 -129.5t96 -109.5t138.5 -66.5q95 -22 187 0t167.5 94.5t103.5 185.5h31q-47 -119 -47 -215v-51h221v999h-221v-319q0 -142 -8 -248q-15 -132 -91 -211t-210 -65q-113 13 -165 91t-52 195v557h-221v-573zM420 1255q-47 0 -82 33.5t-35 79.5
q0 47 34.5 80t82.5 33q45 0 78.5 -33t33.5 -80q0 -46 -34 -79.5t-78 -33.5zM797 1255q-46 0 -81.5 34t-35.5 79q0 47 35.5 80t81.5 33q45 0 78.5 -33t33.5 -80q0 -46 -33.5 -79.5t-78.5 -33.5z" />
    <glyph glyph-name="yacute" unicode="&#xfd;" horiz-adv-x="1054" 
d="M586 348q-17 -43 -28 -79.5t-13 -52.5l-2 -15h-31q-4 51 -43 147l-240 651h-215l363 -999h88l-105 -281q-34 -100 -137 -100h-188v-188h180q135 0 220.5 68t119.5 163l485 1337h-215zM764 1481l-152 -295h-188l135 295h205z" />
    <glyph glyph-name="ydieresis" unicode="&#xff;" horiz-adv-x="1054" 
d="M586 348q-17 -43 -28 -79.5t-13 -52.5l-2 -15h-31q-4 51 -43 147l-240 651h-215l363 -999h88l-105 -281q-34 -100 -137 -100h-188v-188h180q135 0 220.5 68t119.5 163l485 1337h-215zM344 1255q-47 0 -82 33.5t-35 79.5q0 47 34.5 80t82.5 33q45 0 79 -33t34 -80
q0 -45 -34 -79t-79 -34zM721 1255q-46 0 -81.5 34t-35.5 79q0 47 35.5 80t81.5 33q45 0 79 -33t34 -80q0 -45 -34 -79t-79 -34z" />
    <glyph glyph-name="Ccaron" unicode="&#x10c;" horiz-adv-x="1470" 
d="M1161 428q-21 -47 -53 -88.5t-79.5 -80t-116.5 -61t-150 -22.5q-95 0 -174 32.5t-131 86t-88 124.5t-52 146.5t-16 153.5q0 77 16 151.5t52 145t88 123.5t131 85.5t174 32.5q81 0 150 -22.5t116.5 -60.5t79.5 -79.5t53 -88.5h240q-12 36 -28 71.5t-45 82t-63.5 86.5
t-85.5 80t-110 68.5t-138 46t-167 17.5q-141 0 -257.5 -44.5t-194 -117.5t-131 -170.5t-77.5 -200t-24 -208.5t24 -208.5t77.5 -200t131 -171t194 -118t257.5 -44.5q88 0 167 18t138 46.5t110 68.5t85.5 80.5t63.5 86.5t45 82t28 71h-240zM639 1581l-178 256h192l103 -149
h14l102 149h193l-178 -256h-248z" />
    <glyph glyph-name="ccaron" unicode="&#x10d;" horiz-adv-x="1087" 
d="M795 326q-27 -63 -85.5 -106.5t-148.5 -43.5q-57 0 -103.5 19.5t-77 51.5t-51 74.5t-29.5 87t-9 91.5q0 59 15 114t45.5 103t84.5 77t125 29q90 0 148.5 -43.5t85.5 -107.5h233q-19 70 -54.5 130t-90.5 111.5t-138 81t-184 29.5q-104 0 -188.5 -31.5t-139.5 -83
t-92.5 -120.5t-54 -141.5t-16.5 -147.5t16.5 -147.5t54 -141.5t92.5 -121t139.5 -83.5t188.5 -31.5q101 0 184 29t138 80t90.5 111.5t54.5 130.5h-233zM432 1225l-178 256h192l103 -150h14l103 150h192l-178 -256h-248z" />
    <glyph glyph-name="Dcaron" unicode="&#x10e;" horiz-adv-x="1447" 
d="M659 205q156 0 268.5 70t166 184t53.5 258q0 107 -31.5 200t-91 164t-153.5 111.5t-212 40.5h-280v-1028h280zM1368 717q0 -337 -192.5 -527t-511.5 -190h-506v1434h506q205 0 362.5 -82t249.5 -246t92 -389zM514 1581l-178 256h192l103 -149h14l103 149h192l-178 -256
h-248z" />
    <glyph glyph-name="dcaron" unicode="&#x10f;" horiz-adv-x="1355" 
d="M291 500q0 -143 79 -233.5t210 -90.5q129 0 207.5 90.5t78.5 233.5q0 142 -79 232.5t-207 90.5q-131 0 -210 -90t-79 -233zM70 500q0 78 16 152t50.5 142t85.5 119t126 81t166 30q73 0 134 -19t102.5 -52t69 -69t46.5 -79h33q-33 106 -33 239v390h221v-1434h-221v16
q0 39 8 84t16 70l9 25h-33q-19 -43 -47 -79t-70 -69.5t-104 -52.5t-137 -19q-90 0 -164 30.5t-124 81t-84.5 119t-50 142.5t-15.5 152zM1430 1434l-23 -551h-176l-23 551h222z" />
    <glyph glyph-name="Ebreve" unicode="&#x114;" horiz-adv-x="1159" 
d="M1057 1434v-201h-678v-408h610v-194h-610v-430h678v-201h-899v1434h899zM879 1837q0 -49 -15.5 -94t-46.5 -84.5t-86 -63.5t-127 -24q-71 0 -125 24t-84.5 63.5t-45.5 84.5t-15 94h153q0 -46 29.5 -83.5t87.5 -37.5q60 0 90.5 37t30.5 84h154z" />
    <glyph glyph-name="Ecaron" unicode="&#x11a;" horiz-adv-x="1159" 
d="M1057 1434v-201h-678v-408h610v-194h-610v-430h678v-201h-899v1434h899zM477 1581l-178 256h193l102 -149h14l103 149h192l-178 -256h-248z" />
    <glyph glyph-name="ecaron" unicode="&#x11b;" horiz-adv-x="1122" 
d="M561 842q-64 0 -116.5 -23t-84.5 -61.5t-51.5 -81.5t-25.5 -90l557 -2q-5 44 -24 87.5t-51.5 82.5t-85.5 63.5t-118 24.5zM276 451q3 -48 19 -95t47 -93.5t87.5 -75.5t131.5 -29q101 0 164 49t92 129h215q-11 -46 -30.5 -91t-57.5 -95.5t-88 -88t-126 -62t-167 -24.5
q-104 0 -188.5 31.5t-140 83.5t-93.5 121t-54.5 141.5t-16.5 147.5t16.5 147.5t54.5 141.5t93.5 120.5t140 83t188.5 31.5q127 0 225.5 -46.5t157 -126t86 -182t21.5 -218.5h-777zM432 1225l-178 256h192l103 -150h14l103 150h192l-178 -256h-248z" />
    <glyph glyph-name="Ibreve" unicode="&#x12c;" horiz-adv-x="536" 
d="M158 1434h221v-1434h-221v1434zM541 1835q0 -49 -15.5 -94t-46.5 -84.5t-86 -63.5t-127 -24q-71 0 -125 24t-84.5 63.5t-45.5 84.5t-15 94h154q0 -47 29 -84t87 -37q60 0 90.5 37t30.5 84h154z" />
    <glyph glyph-name="Idotaccent" unicode="&#x130;" horiz-adv-x="536" 
d="M158 1434h221v-1434h-221v1434zM270 1610q-47 0 -81.5 33t-34.5 79q0 47 34 80t82 33q45 0 79 -33t34 -80q0 -45 -34 -78.5t-79 -33.5z" />
    <glyph glyph-name="Lacute" unicode="&#x139;" horiz-adv-x="1083" 
d="M379 1434v-1233h663v-201h-884v1434h221zM514 1835l-152 -295h-188l135 295h205z" />
    <glyph glyph-name="lacute" unicode="&#x13a;" horiz-adv-x="471" 
d="M119 1434h221v-1434h-221v1434zM487 1837l-151 -295h-189l136 295h204z" />
    <glyph glyph-name="Lcaron" unicode="&#x13d;" horiz-adv-x="1083" 
d="M379 1434v-1233h663v-201h-884v1434h221zM791 1434l-23 -551h-176l-23 551h222z" />
    <glyph glyph-name="lcaron" unicode="&#x13e;" horiz-adv-x="612" 
d="M119 1434h221v-1434h-221v1434zM686 1434l-22 -551h-177l-22 551h221z" />
    <glyph glyph-name="Lslash" unicode="&#x141;" horiz-adv-x="1124" 
d="M420 1434v-1233h663v-201h-884v1434h221zM61 618l615 316v-172l-615 -316v172z" />
    <glyph glyph-name="lslash" unicode="&#x142;" horiz-adv-x="454" 
d="M119 1434h221v-1434h-221v1434zM451 780l-447 -213v170l447 213v-170z" />
    <glyph glyph-name="Ncaron" unicode="&#x147;" horiz-adv-x="1579" 
d="M1200 463q0 -63 4 -128.5t8 -99.5l5 -34h-31l-686 1233h-342v-1434h221v977q0 61 -4.5 125t-8.5 98l-4 33h31l684 -1233h344v1434h-221v-971zM666 1581l-179 256h193l102 -149h15l102 149h193l-179 -256h-247z" />
    <glyph glyph-name="ncaron" unicode="&#x148;" 
d="M1087 573q0 67 -17.5 134.5t-53 130t-96 110t-138.5 66.5q-93 22 -185.5 0t-168.5 -95t-104 -186h-31q47 119 47 215v51h-221v-999h221v319q0 142 8 248q16 133 91.5 212t209.5 65q113 -13 165 -91.5t52 -195.5v-557h221v573zM481 1225l-178 256h193l102 -150h14l103 150
h192l-178 -256h-248z" />
    <glyph glyph-name="Ohungarumlaut" unicode="&#x150;" horiz-adv-x="1511" 
d="M756 176q94 0 172 32.5t129 86t86.5 124.5t51 145.5t15.5 152.5t-15.5 152.5t-51 145.5t-86.5 124t-129 85.5t-172 32.5t-172 -32.5t-129.5 -85.5t-87 -124t-51 -145.5t-15.5 -152.5t15.5 -152.5t51 -145.5t87 -124.5t129.5 -86t172 -32.5zM758 1458q139 0 254 -44.5
t191.5 -118t129 -171t76 -200t23.5 -209.5q0 -105 -23.5 -207.5t-76 -199.5t-129 -170.5t-191.5 -118t-254 -44.5q-140 0 -255.5 44.5t-192.5 118t-130 170.5t-76.5 199.5t-23.5 207.5q0 107 23.5 210t76.5 200t130 170.5t192.5 118t255.5 44.5zM1151 1837l-152 -295h-188
l135 295h205zM848 1837l-152 -295h-188l135 295h205z" />
    <glyph glyph-name="ohungarumlaut" unicode="&#x151;" horiz-adv-x="1112" 
d="M557 141q77 0 136 32t92.5 85.5t50 114.5t16.5 127t-16.5 126.5t-50 114t-92.5 85.5t-136 32t-136 -32t-92.5 -85.5t-50 -114t-16.5 -126.5t16.5 -127t50 -114.5t92.5 -85.5t136 -32zM557 1024q102 0 185.5 -31.5t138 -83t92 -120.5t53.5 -141.5t16 -147.5t-16 -147.5
t-53.5 -141.5t-92 -121t-138 -83.5t-185.5 -31.5t-186 31.5t-139 83.5t-92.5 121t-53.5 141.5t-16 147.5t16 147.5t53.5 141.5t92.5 120.5t139 83t186 31.5zM950 1481l-151 -295h-189l135 295h205zM647 1481l-151 -295h-189l135 295h205z" />
    <glyph glyph-name="racute" unicode="&#x155;" horiz-adv-x="843" 
d="M803 999q-162 -1 -271 -91.5t-153 -245.5h-31q31 172 31 258q0 38 -25 58.5t-65 20.5h-248v-200h111q32 0 32 -33v-766h222v383q0 61 13 119t43.5 112.5t75 95t113 65t152.5 24.5v200zM674 1481l-152 -295h-188l135 295h205z" />
    <glyph glyph-name="Rcaron" unicode="&#x158;" horiz-adv-x="1343" 
d="M786 823q96 0 162 56.5t66 148.5q0 94 -66 149.5t-162 55.5h-407v-410h407zM979 723q93 0 160 -67t67 -160v-496h-202v489q0 55 -40 94.5t-96 39.5h-493v-623h-217v1434h653q209 0 316.5 -99.5t107.5 -257.5q0 -63 -23 -118t-54.5 -89t-71 -60.5t-64.5 -37.5t-43 -16v-33
zM508 1581l-178 256h192l103 -149h14l102 149h193l-178 -256h-248z" />
    <glyph glyph-name="rcaron" unicode="&#x159;" horiz-adv-x="843" 
d="M803 999q-162 -1 -271 -91.5t-153 -245.5h-31q31 172 31 258q0 38 -25 58.5t-65 20.5h-248v-200h111q32 0 32 -33v-766h222v383q0 61 13 119t43.5 112.5t75 95t113 65t152.5 24.5v200zM293 1225l-178 256h192l103 -150h14l102 150h193l-178 -256h-248z" />
    <glyph glyph-name="Scaron" unicode="&#x160;" horiz-adv-x="1239" 
d="M1153 416q0 63 -18 115.5t-46 90.5t-73 69.5t-88.5 51.5t-104 37t-108.5 27t-111 20q-70 12 -117.5 26t-91 38t-65 61t-21.5 88q0 39 17.5 75.5t52.5 69t96 52.5t139 20q81 0 143 -20t97 -52.5t52.5 -69t17.5 -75.5v-14h221v14q0 60 -18 117.5t-59.5 112.5t-101.5 96.5
t-151 66.5t-201 25q-109 0 -199 -25t-149.5 -66.5t-100.5 -96t-59 -112.5t-18 -118q0 -55 11.5 -102.5t35 -84t50.5 -65.5t66 -51.5t73.5 -38.5t81 -29.5t80 -21t79.5 -16.5q157 -29 215 -50q152 -55 152 -165q0 -97 -80.5 -168.5t-239.5 -71.5q-82 0 -146 22t-100 59
t-54.5 79.5t-18.5 87.5h-221q0 -64 18.5 -125.5t60.5 -121t103 -104t153.5 -71.5t204.5 -27t204.5 26.5t153.5 70t103.5 101t61 118.5t18.5 125zM475 1581l-178 256h192l103 -149h14l103 149h192l-178 -256h-248z" />
    <glyph glyph-name="scaron" unicode="&#x161;" horiz-adv-x="974" 
d="M913 311q0 85 -34.5 143t-90 86.5t-122.5 44.5t-134 23.5t-122.5 17t-90 31.5t-34.5 60q0 61 59 93t141 32q90 0 148.5 -32.5t58.5 -94.5v-17h203v17q0 134 -110 221.5t-302 87.5q-195 0 -305 -87.5t-110 -221.5q0 -81 34.5 -134.5t90 -78.5t122.5 -38.5t134 -21
t122.5 -19.5t90 -40.5t34.5 -77.5q0 -73 -64 -110t-149 -37q-104 0 -167.5 37.5t-63.5 113.5h-203q0 -143 115 -238.5t317 -95.5q200 0 316 96t116 240zM352 1225l-178 256h193l102 -150h14l103 150h192l-178 -256h-248z" />
    <glyph glyph-name="Tcaron" unicode="&#x164;" horiz-adv-x="1138" 
d="M1106 1434v-201h-426v-1233h-221v1233h-426v201h1073zM444 1579l-178 256h193l102 -149h14l103 149h192l-178 -256h-248z" />
    <glyph glyph-name="tcaron" unicode="&#x165;" horiz-adv-x="739" 
d="M186 319q0 -83 34.5 -154t109 -118t176.5 -47h199v201h-179q-50 0 -84 35t-34 86v477h297v200h-297v435h-222v-435h-161v-200h161v-480zM750 1837l-23 -551h-176l-23 551h222z" />
    <glyph glyph-name="Uring" unicode="&#x16e;" horiz-adv-x="1433" 
d="M1071 598q0 -77 -20 -149t-60.5 -134.5t-111 -100.5t-162.5 -38q-73 0 -134 25.5t-101 67t-68 97t-40 113.5t-12 119v836h-221v-836q0 -84 19 -167.5t63 -166.5t108.5 -146.5t164 -103t221.5 -39.5t222 39t164 102t108 146t62.5 167t18.5 169v836h-221v-836zM715 1675
q58 0 86 35t28 84q0 47 -28 82t-86 35q-57 0 -85 -35t-28 -82q0 -49 28 -84t85 -35zM715 2050q68 0 120.5 -23t82.5 -61t44.5 -81.5t14.5 -90.5q0 -48 -14.5 -91.5t-44.5 -81.5t-82.5 -60.5t-120.5 -22.5q-130 0 -195 76.5t-65 179.5q0 47 14.5 90.5t44.5 81.5t82 61t119 23
z" />
    <glyph glyph-name="uring" unicode="&#x16f;" 
d="M109 426q0 -67 17.5 -134.5t53 -129.5t96 -109.5t138.5 -66.5q95 -22 187 0t167.5 94.5t103.5 185.5h31q-47 -119 -47 -215v-51h221v999h-221v-319q0 -142 -8 -248q-15 -132 -91 -211t-210 -65q-113 13 -165 91t-52 195v557h-221v-573zM600 1413q58 0 86.5 35t28.5 84
q0 47 -28.5 82t-86.5 35q-57 0 -85 -35t-28 -82q0 -49 28 -84t85 -35zM600 1788q68 0 120.5 -23t82.5 -61t44.5 -81.5t14.5 -90.5q0 -48 -14.5 -91.5t-44.5 -81.5t-82.5 -60.5t-120.5 -22.5q-130 0 -195 76.5t-65 179.5q0 47 14.5 90.5t44.5 81.5t82 61t119 23z" />
    <glyph glyph-name="Uhungarumlaut" unicode="&#x170;" horiz-adv-x="1433" 
d="M1071 598q0 -77 -20 -149t-60.5 -134.5t-111 -100.5t-162.5 -38q-73 0 -134 25.5t-101 67t-68 97t-40 113.5t-12 119v836h-221v-836q0 -84 19 -167.5t63 -166.5t108.5 -146.5t164 -103t221.5 -39.5t222 39t164 102t108 146t62.5 167t18.5 169v836h-221v-836zM1110 1837
l-152 -295h-188l135 295h205zM807 1837l-152 -295h-188l135 295h205z" />
    <glyph glyph-name="uhungarumlaut" unicode="&#x171;" 
d="M109 426q0 -67 17.5 -134.5t53 -129.5t96 -109.5t138.5 -66.5q95 -22 187 0t167.5 94.5t103.5 185.5h31q-47 -119 -47 -215v-51h221v999h-221v-319q0 -142 -8 -248q-15 -132 -91 -211t-210 -65q-113 13 -165 91t-52 195v557h-221v-573zM987 1481l-151 -295h-189l135 295
h205zM684 1481l-152 -295h-188l135 295h205z" />
    <glyph glyph-name="Ydieresis" unicode="&#x178;" horiz-adv-x="1222" 
d="M668 920q-13 -22 -23 -46t-14 -38l-4 -13h-33q-12 48 -41 97l-305 514h-228l480 -816v-618h221v616l481 818h-227zM422 1612q-47 0 -82 33t-35 79q0 47 34.5 80t82.5 33q45 0 79 -33t34 -80q0 -45 -34 -78.5t-79 -33.5zM799 1612q-46 0 -81.5 33.5t-35.5 78.5
q0 47 35.5 80t81.5 33q45 0 78.5 -33t33.5 -80q0 -45 -33.5 -78.5t-78.5 -33.5z" />
    <glyph glyph-name="Zcaron" unicode="&#x17d;" horiz-adv-x="1247" 
d="M336 227q7 3 19 11t48.5 42t71.5 78l686 904v172h-1050v-201h784v-29q-6 -2 -17 -7.5t-44 -34t-66 -70.5l-700 -920v-172h1097v201h-829v26zM500 1581l-178 256h192l102 -149h15l102 149h193l-178 -256h-248z" />
    <glyph glyph-name="zcaron" unicode="&#x17e;" horiz-adv-x="987" 
d="M625 786q-62 -13 -140 -100q-23 -24 -126 -149t-195 -238l-92 -113v-186h831v182h-569v31q9 2 20 8t19.5 12t22.5 19t20.5 20t23 24t21.5 23q17 18 123.5 141.5t204.5 237.5l98 115v186h-783v-182h521v-31zM381 1225l-178 256h192l103 -150h14l102 150h193l-178 -256
h-248z" />
    <glyph glyph-name="Oslashacute" unicode="&#x1fe;" horiz-adv-x="1531" 
d="M766 176q94 0 172 32.5t129.5 86t87 124.5t51 145.5t15.5 152.5t-15.5 152.5t-51 145.5t-87 124t-129.5 85.5t-172 32.5t-172 -32.5t-129.5 -85.5t-87 -124t-51 -145.5t-15.5 -152.5t15.5 -152.5t51 -145.5t87 -124.5t129.5 -86t172 -32.5zM768 1458q139 0 254 -44.5
t191.5 -118t129 -171t76 -200t23.5 -209.5q0 -105 -23.5 -207.5t-76 -199.5t-129 -170.5t-191.5 -118t-254 -44.5q-140 0 -255.5 44.5t-192.5 118t-130 170.5t-76.5 199.5t-23.5 207.5q0 107 23.5 210t76.5 200t130 170.5t192.5 118t255.5 44.5zM1436 1448l-1102 -1462h-238
l1104 1462h236zM1018 1837l-152 -295h-188l135 295h205z" />
    <glyph glyph-name="oslashacute" unicode="&#x1ff;" horiz-adv-x="1112" 
d="M557 141q77 0 136 32t92.5 85.5t50 114.5t16.5 127t-16.5 126.5t-50 114t-92.5 85.5t-136 32t-136 -32t-92.5 -85.5t-50 -114t-16.5 -126.5t16.5 -127t50 -114.5t92.5 -85.5t136 -32zM557 1024q102 0 185.5 -31.5t138 -83t92 -120.5t53.5 -141.5t16 -147.5t-16 -147.5
t-53.5 -141.5t-92 -121t-138 -83.5t-185.5 -31.5t-186 31.5t-139 83.5t-92.5 121t-53.5 141.5t-16 147.5t16 147.5t53.5 141.5t92.5 120.5t139 83t186 31.5zM1008 1014l-734 -1028h-165l733 1028h166zM809 1481l-152 -295h-188l135 295h205z" />
    <glyph glyph-name="circumflex" unicode="&#x2c6;" horiz-adv-x="768" 
d="M508 1837l178 -256h-192l-103 148h-14l-103 -148h-192l178 256h248z" />
    <glyph glyph-name="caron" unicode="&#x2c7;" horiz-adv-x="768" 
d="M260 1581l-178 256h192l103 -149h14l103 149h192l-178 -256h-248z" />
    <glyph glyph-name="breve" unicode="&#x2d8;" horiz-adv-x="724" 
d="M635 1837q0 -49 -15.5 -94t-46.5 -84.5t-86 -63.5t-127 -24q-71 0 -125 24t-84.5 63.5t-45.5 84.5t-15 94h154q0 -47 29 -84t87 -37q60 0 90.5 37t30.5 84h154z" />
    <glyph glyph-name="dotaccent" unicode="&#x2d9;" horiz-adv-x="409" 
d="M207 1612q-47 0 -82 33t-35 79q0 47 34.5 80t82.5 33q45 0 78.5 -33t33.5 -80q0 -45 -33.5 -78.5t-78.5 -33.5z" />
    <glyph glyph-name="ring" unicode="&#x2da;" horiz-adv-x="686" 
d="M342 1675q58 0 86.5 35t28.5 84q0 47 -28.5 82t-86.5 35q-57 0 -85 -35t-28 -82q0 -49 28 -84t85 -35zM342 2050q68 0 120.5 -23t82.5 -61t44.5 -81.5t14.5 -90.5q0 -48 -14.5 -91.5t-44.5 -81.5t-82.5 -60.5t-120.5 -22.5q-130 0 -195 76.5t-65 179.5q0 47 14.5 90.5
t44.5 81.5t82 61t119 23z" />
    <glyph glyph-name="hungarumlaut" unicode="&#x2dd;" horiz-adv-x="821" 
d="M727 1837l-152 -295h-188l135 295h205zM424 1837l-152 -295h-188l135 295h205z" />
    <glyph glyph-name="endash" unicode="&#x2013;" horiz-adv-x="1280" 
d="M131 641h1018v-182h-1018v182z" />
    <glyph glyph-name="emdash" unicode="&#x2014;" horiz-adv-x="1964" 
d="M131 641h1702v-182h-1702v182z" />
    <glyph glyph-name="quoteleft" unicode="&#x2018;" horiz-adv-x="557" 
d="M166 1331q0 -53 38.5 -91t88.5 -38q56 0 95.5 37.5t39.5 91.5q0 52 -39.5 89.5t-95.5 37.5q-50 0 -88.5 -37.5t-38.5 -89.5zM256 1452q-9 52 25.5 99t101.5 61v76q-138 -14 -209 -128q-58 -93 -43 -199q15 -101 89 -141q33 -17 73 -18z" />
    <glyph glyph-name="quoteright" unicode="&#x2019;" horiz-adv-x="557" 
d="M391 1675q0 53 -38.5 91t-88.5 38q-56 0 -95.5 -37.5t-39.5 -91.5q0 -52 39.5 -89.5t95.5 -37.5q50 0 88.5 37.5t38.5 89.5zM301 1554q9 -52 -25.5 -98.5t-101.5 -60.5v-76q137 14 208 126q59 94 44 199q-14 102 -89 142q-33 17 -73 18z" />
    <glyph glyph-name="quotedblleft" unicode="&#x201c;" horiz-adv-x="899" 
d="M508 1331q0 -53 38.5 -91t88.5 -38q56 0 95.5 37.5t39.5 91.5q0 52 -39.5 89.5t-95.5 37.5q-50 0 -88.5 -37.5t-38.5 -89.5zM598 1452q-9 52 25.5 99t101.5 61v76q-138 -14 -209 -128q-58 -93 -43 -199q15 -101 89 -141q33 -17 73 -18zM166 1331q0 -53 38.5 -91t88.5 -38
q56 0 95.5 37.5t39.5 91.5q0 52 -39.5 89.5t-95.5 37.5q-50 0 -88.5 -37.5t-38.5 -89.5zM256 1452q-9 52 25.5 99t101.5 61v76q-138 -14 -209 -128q-58 -93 -43 -199q15 -101 89 -141q33 -17 73 -18z" />
    <glyph glyph-name="quotedblright" unicode="&#x201d;" horiz-adv-x="899" 
d="M733 1675q0 53 -38.5 91t-88.5 38q-56 0 -95.5 -37.5t-39.5 -91.5q0 -52 39.5 -89.5t95.5 -37.5q50 0 88.5 37.5t38.5 89.5zM643 1554q9 -52 -25.5 -98.5t-101.5 -60.5v-76q137 14 208 126q59 94 44 199q-14 102 -89 142q-33 17 -73 18zM391 1675q0 53 -38.5 91t-88.5 38
q-56 0 -95.5 -37.5t-39.5 -91.5q0 -52 39.5 -89.5t95.5 -37.5q50 0 88.5 37.5t38.5 89.5zM301 1554q9 -52 -25.5 -98.5t-101.5 -60.5v-76q137 14 208 126q59 94 44 199q-14 102 -89 142q-33 17 -73 18z" />
    <glyph glyph-name="quotedblbase" unicode="&#x201e;" horiz-adv-x="899" 
d="M733 102q0 53 -38.5 91t-88.5 38q-56 0 -95.5 -37.5t-39.5 -91.5q0 -52 39.5 -89.5t95.5 -37.5q50 0 88.5 37.5t38.5 89.5zM643 -18q9 -52 -25.5 -99t-101.5 -61v-76q137 14 208 126q59 94 44 199q-14 102 -89 142q-33 17 -73 18zM391 102q0 53 -38.5 91t-88.5 38
q-56 0 -95.5 -37.5t-39.5 -91.5q0 -52 39.5 -89.5t95.5 -37.5q50 0 88.5 37.5t38.5 89.5zM301 -18q9 -52 -25.5 -99t-101.5 -61v-76q137 14 208 126q59 94 44 199q-14 102 -89 142q-33 17 -73 18z" />
    <glyph glyph-name="bullet" unicode="&#x2022;" horiz-adv-x="675" 
d="M342 287q-93 0 -160 63.5t-67 153.5t67 154.5t160 64.5q87 0 153 -64.5t66 -154.5t-66 -153.5t-153 -63.5z" />
    <glyph glyph-name="guilsinglleft" unicode="&#x2039;" horiz-adv-x="839" 
d="M758 0q-344 404 -348 406q-36 39 -69 58t-46 19v31q11 0 44.5 22t70.5 60l348 403h-242l-434 -499l434 -500h242z" />
    <glyph glyph-name="guilsinglright" unicode="&#x203a;" horiz-adv-x="837" 
d="M82 0h240l434 500l-434 499h-240q346 -399 350 -403q36 -38 68.5 -60t44.5 -22v-31q-13 0 -45.5 -19t-67.5 -58z" />
    <glyph glyph-name="Euro" unicode="&#x20ac;" horiz-adv-x="1560" 
d="M1227 428q-20 -47 -52 -88.5t-79.5 -80t-117 -61t-151.5 -22.5q-95 0 -173.5 32.5t-130.5 86t-87.5 124.5t-51 146.5t-15.5 153.5q0 77 15.5 151.5t51 145t87.5 123.5t131 85.5t175 32.5q81 0 150 -22.5t116.5 -60.5t79.5 -79.5t52 -88.5h239q-11 36 -27 72t-44.5 82
t-63.5 86t-86 80t-110 68.5t-138 46t-168 17.5q-141 0 -257.5 -44.5t-193.5 -117.5t-130.5 -170.5t-77 -200t-23.5 -208.5t23.5 -208.5t77 -200t130.5 -171t193.5 -118t257.5 -44.5q122 0 226 34t170.5 83t119.5 115t78.5 117.5t42.5 103.5h-239zM43 915v-131h936v131h-936z
M43 649v-131h938v131h-938z" />
    <glyph glyph-name="uni2117" unicode="&#x2117;" horiz-adv-x="952" 
d="M526 1118q26 0 43 12.5t17 36.5q0 25 -17 38.5t-43 13.5h-108v-101h108zM662 1167q0 -55 -38 -85.5t-89 -30.5h-115v-203h-78v438h193q49 0 88 -30.5t39 -88.5zM475 754q83 0 147.5 28.5t100.5 76t54 100.5t18 110t-18 110t-54 100.5t-100.5 76t-147.5 28.5t-146.5 -28.5
t-99.5 -76t-53.5 -100.5t-17.5 -110t17.5 -110t53.5 -100.5t99.5 -76t146.5 -28.5zM475 1458q104 0 183 -35t123.5 -93t66.5 -124t22 -137t-22 -137t-66.5 -124t-123.5 -93t-183 -35q-103 0 -182 35t-123 93t-66 124t-22 137t22 137t66 124t123 93t182 35z" />
    <glyph glyph-name="trademark" unicode="&#x2122;" horiz-adv-x="1255" 
d="M475 1434v-84h-166v-488h-90v488h-168v84h424zM1133 1434v-572h-91v416l-170 -416h-141l-166 416v-416h-90v572h121l197 -488h20l201 488h119z" />
    <glyph glyph-name="minus" unicode="&#x2212;" horiz-adv-x="1171" 
d="M150 778h872v-182h-872v182z" />
    <glyph glyph-name="approxequal" unicode="&#x2248;" horiz-adv-x="1191" 
d="M858 1067q0 -35 -1 -55t-5 -45.5t-12 -39t-23 -23t-37 -9.5q-32 0 -88 26.5t-109 58.5t-116.5 58.5t-108.5 26.5q-41 0 -74 -12t-54.5 -31t-37 -50.5t-23.5 -60.5t-12.5 -72.5t-5.5 -75.5t-1 -79h184q0 31 0.5 46t2.5 39.5t7 36.5t13 25.5t22 19t33 5.5q31 0 87 -26
t109 -58t117 -58t109 -26q41 0 73.5 12t54 30.5t37 49.5t24 60.5t13 72t5.5 75.5t1 79h-184zM858 610q0 -36 -1 -56t-5 -46t-12 -39.5t-23 -23t-37 -9.5q-32 0 -88 26t-109 58t-116.5 58t-108.5 26q-48 0 -84.5 -14.5t-58.5 -44.5t-35.5 -61.5t-20 -80.5t-8 -86t-1.5 -92
h184q0 31 0.5 46.5t2.5 40t7 36.5t13 25t22 18.5t33 5.5q31 0 87 -26.5t109 -57.5t117 -57.5t109 -26.5q41 0 73.5 12t54 31t37 50t24 61t13 72.5t5.5 75.5t1 79h-184z" />
    <glyph glyph-name="notequal" unicode="&#x2260;" horiz-adv-x="1130" 
d="M154 571h825v-182h-825v182zM154 975h825v-182h-825v182zM788 1130h162l-610 -897h-162z" />
    <glyph glyph-name="lessequal" unicode="&#x2264;" horiz-adv-x="1124" 
d="M975 182h-825v-182h825v182zM975 514v-197l-825 308v270l825 305v-196q-504 -189 -531 -199l-125 -37v-20q68 -12 125 -35z" />
    <glyph glyph-name="greaterequal" unicode="&#x2265;" horiz-adv-x="1124" 
d="M150 182h823v-182h-823v182zM150 514q505 191 530 199q26 9 57.5 17t49.5 12l18 3v23q-68 17 -125 37l-530 199v194l825 -305v-270l-825 -306v197z" />
    <glyph glyph-name="O.ss01" horiz-adv-x="1634" 
d="M817 -25q-151 0 -288.5 59t-236.5 158.5t-157.5 237t-58.5 289.5q0 150 58.5 287t157.5 236t236.5 157.5t288.5 58.5q150 0 287.5 -58.5t237 -157.5t158.5 -236t59 -287q0 -152 -59 -290t-158.5 -237t-237 -158t-287.5 -59zM817 176q141 0 261 72.5t189.5 197.5t69.5 273
q0 146 -69.5 270t-189.5 196t-261 72q-106 0 -202.5 -42.5t-166 -114.5t-110.5 -172t-41 -209q0 -148 69 -273t189 -197.5t262 -72.5z" />
    <glyph glyph-name="Oacute.ss01" horiz-adv-x="1634" 
d="M1063 1837l-152 -295h-188l135 295h205zM817 -25q-151 0 -288.5 59t-236.5 158.5t-157.5 237t-58.5 289.5q0 150 58.5 287t157.5 236t236.5 157.5t288.5 58.5q150 0 287.5 -58.5t237 -157.5t158.5 -236t59 -287q0 -152 -59 -290t-158.5 -237t-237 -158t-287.5 -59z
M817 176q141 0 261 72.5t189.5 197.5t69.5 273q0 146 -69.5 270t-189.5 196t-261 72q-106 0 -202.5 -42.5t-166 -114.5t-110.5 -172t-41 -209q0 -148 69 -273t189 -197.5t262 -72.5z" />
    <glyph glyph-name="Ocircumflex.ss01" horiz-adv-x="1634" 
d="M928 1837l178 -256h-193l-102 148h-14l-103 -148h-192l178 256h248zM817 -25q-151 0 -288.5 59t-236.5 158.5t-157.5 237t-58.5 289.5q0 150 58.5 287t157.5 236t236.5 157.5t288.5 58.5q150 0 287.5 -58.5t237 -157.5t158.5 -236t59 -287q0 -152 -59 -290t-158.5 -237
t-237 -158t-287.5 -59zM817 176q141 0 261 72.5t189.5 197.5t69.5 273q0 146 -69.5 270t-189.5 196t-261 72q-106 0 -202.5 -42.5t-166 -114.5t-110.5 -172t-41 -209q0 -148 69 -273t189 -197.5t262 -72.5z" />
    <glyph glyph-name="Odieresis.ss01" horiz-adv-x="1634" 
d="M623 1612q-47 0 -82 33t-35 79q0 47 34.5 80t82.5 33q45 0 78.5 -33t33.5 -80q0 -45 -33.5 -78.5t-78.5 -33.5zM999 1612q-46 0 -81 33.5t-35 78.5q0 47 35 80t81 33q45 0 79 -33t34 -80q0 -45 -34 -78.5t-79 -33.5zM817 -25q-151 0 -288.5 59t-236.5 158.5t-157.5 237
t-58.5 289.5q0 150 58.5 287t157.5 236t236.5 157.5t288.5 58.5q150 0 287.5 -58.5t237 -157.5t158.5 -236t59 -287q0 -152 -59 -290t-158.5 -237t-237 -158t-287.5 -59zM817 176q141 0 261 72.5t189.5 197.5t69.5 273q0 146 -69.5 270t-189.5 196t-261 72
q-106 0 -202.5 -42.5t-166 -114.5t-110.5 -172t-41 -209q0 -148 69 -273t189 -197.5t262 -72.5z" />
    <glyph glyph-name="Ohungarumlaut.ss01" horiz-adv-x="1634" 
d="M1198 1837l-151 -295h-189l135 295h205zM895 1837l-152 -295h-188l135 295h205zM817 -25q-151 0 -288.5 59t-236.5 158.5t-157.5 237t-58.5 289.5q0 150 58.5 287t157.5 236t236.5 157.5t288.5 58.5q150 0 287.5 -58.5t237 -157.5t158.5 -236t59 -287q0 -152 -59 -290
t-158.5 -237t-237 -158t-287.5 -59zM817 176q141 0 261 72.5t189.5 197.5t69.5 273q0 146 -69.5 270t-189.5 196t-261 72q-106 0 -202.5 -42.5t-166 -114.5t-110.5 -172t-41 -209q0 -148 69 -273t189 -197.5t262 -72.5z" />
    <glyph glyph-name="Oslash.ss01" horiz-adv-x="1669" 
d="M1554 1448l-1200 -1462h-237l1202 1462h235zM834 -25q-202 0 -372.5 99.5t-270 270.5t-99.5 374q0 150 58.5 287t158 236t237 157.5t288.5 58.5q150 0 287.5 -58.5t236.5 -157.5t158 -236t59 -287q0 -202 -99.5 -373.5t-270 -271t-371.5 -99.5zM834 176q141 0 261 72.5
t189.5 197.5t69.5 273q0 146 -69.5 270t-189.5 196t-261 72q-142 0 -262 -72t-189.5 -196t-69.5 -270q0 -148 69.5 -273t189.5 -197.5t262 -72.5z" />
    <glyph glyph-name="Oslashacute.ss01" horiz-adv-x="1669" 
d="M1077 1837l-151 -295h-189l135 295h205zM1554 1448l-1200 -1462h-237l1202 1462h235zM834 -25q-202 0 -372.5 99.5t-270 270.5t-99.5 374q0 150 58.5 287t158 236t237 157.5t288.5 58.5q150 0 287.5 -58.5t236.5 -157.5t158 -236t59 -287q0 -202 -99.5 -373.5t-270 -271
t-371.5 -99.5zM834 176q141 0 261 72.5t189.5 197.5t69.5 273q0 146 -69.5 270t-189.5 196t-261 72q-142 0 -262 -72t-189.5 -196t-69.5 -270q0 -148 69.5 -273t189.5 -197.5t262 -72.5z" />
    <glyph glyph-name="A_A.dlig" horiz-adv-x="2734" 
d="M815 1434l514 -1434h-201l-114 328h-676l-117 -328h-201l515 1434h280zM401 510h547l-258 723h-33zM2200 1434l514 -1434h-201l-115 328h-676l-116 -328h-201l514 1434h281zM1786 510h547l-258 723h-33zM881 510h962v-182h-962v182z" />
    <glyph glyph-name="A_E.dlig" horiz-adv-x="1986" 
d="M1206 1434v-1434h-221v328h-555l-188 -328h-222l836 1434h350zM535 510h450v723h-33zM1884 1434v-201h-678v-408h611v-194h-611v-430h678v-201h-899v1434h899z" />
    <glyph glyph-name="A_V.dlig" horiz-adv-x="1982" 
d="M1731 1434h231l-492 -1434h-348l-501 1434h219l415 -1121q9 -26 15.5 -54t9.5 -43l2 -15h31q8 53 26 112zM815 1434l514 -1434h-201l-114 328h-676l-117 -328h-201l515 1434h280zM401 510h547l-258 723h-33z" />
    <glyph glyph-name="F_F.dlig" horiz-adv-x="2029" 
d="M1030 1233h-651v-408h536v-194h-536v-631h-221v1434h872v-201zM1972 1233h-653v-408h539v-194h-539v-631h-221v1434h874v-201zM973 1434h213v-201h-213v201z" />
    <glyph glyph-name="F_I.dlig" horiz-adv-x="1396" 
d="M1030 1233h-651v-408h536v-194h-536v-631h-221v1434h872v-201zM1018 1434h221v-1434h-221v1434z" />
    <glyph glyph-name="F_L.dlig" horiz-adv-x="2013" 
d="M1030 1233h-651v-408h536v-194h-536v-631h-221v1434h872v-201zM1309 1434v-1233h663v-201h-885v1434h222zM948 1434h228v-201h-228v201z" />
    <glyph glyph-name="H_E.dlig" horiz-adv-x="2072" 
d="M1292 1434v-1434h-221v629h-692v-629h-221v1434h221v-605h692v605h221zM1970 1434v-201h-678v-408h611v-194h-611v-430h678v-201h-899v1434h899z" />
    <glyph glyph-name="N_T.dlig" horiz-adv-x="2502" 
d="M1200 1434h221v-1434h-344l-684 1233h-31q17 -119 17 -256v-977h-221v1434h342l686 -1233h31q-17 121 -17 262v971zM2470 1434v-201h-426v-1233h-221v1233h-426v201h1073z" />
    <glyph glyph-name="T_E.dlig" horiz-adv-x="1208" 
d="M1106 1434v-201h-426v-1233h-221v1233h-426v201h1073zM1106 1434v-160h-436v-461h368v-201h-368v-411h436v-201h-641l2 1434h639z" />
    <glyph glyph-name="T_T.dlig" horiz-adv-x="2211" 
d="M1106 1434v-201h-426v-1233h-221v1233h-426v201h1073zM2179 1434v-201h-426v-1233h-221v1233h-426v201h1073z" />
    <glyph glyph-name="U_B.dlig" horiz-adv-x="2238" 
d="M1071 1434h221v-836q0 -85 -18.5 -169t-62.5 -167t-108 -146t-164 -102t-222 -39t-221.5 39.5t-164 103t-108.5 146.5t-63 166.5t-19 167.5v836h221v-836q0 -61 12 -119t40 -113.5t68 -97t101 -67t134 -25.5q92 0 162.5 38t111 100.5t60.5 134.5t20 149v836zM1640 201
q136 0 220 55.5t84 171.5q0 115 -84 171t-220 56h-348v-454h348zM1634 854q107 0 173.5 48t66.5 142q0 93 -66.5 141t-173.5 48h-342v-379h342zM2165 373q0 -80 -31 -144.5t-83 -106.5t-122.5 -70t-145.5 -40t-157 -12h-555v1434h551q88 0 168.5 -21.5t146.5 -63.5
t105 -111.5t39 -156.5q0 -71 -26 -128t-70 -93t-95.5 -57.5t-109.5 -28.5v-33q71 -7 136 -31.5t122.5 -67.5t92 -112.5t34.5 -156.5z" />
    <glyph glyph-name="U_D.dlig" horiz-adv-x="2363" 
d="M1071 1434h221v-836q0 -85 -18.5 -169t-62.5 -167t-108 -146t-164 -102t-222 -39t-221.5 39.5t-164 103t-108.5 146.5t-63 166.5t-19 167.5v836h221v-836q0 -61 12 -119t40 -113.5t68 -97t101 -67t134 -25.5q92 0 162.5 38t111 100.5t60.5 134.5t20 149v836zM1573 205
q156 0 268.5 69.5t166.5 184t54 258.5q0 107 -31.5 200t-91.5 164t-154 111.5t-212 40.5h-281v-1028h281zM2284 717q0 -224 -90 -387.5t-248.5 -246.5t-368.5 -83h-506v1434h506q153 0 282 -48t223.5 -137t148 -226t53.5 -306z" />
    <glyph glyph-name="U_L.dlig" horiz-adv-x="1998" 
d="M1071 1434h221v-836q0 -85 -18.5 -169t-62.5 -167t-108 -146t-164 -102t-222 -39t-221.5 39.5t-164 103t-108.5 146.5t-63 166.5t-19 167.5v836h221v-836q0 -61 12 -119t40 -113.5t68 -97t101 -67t134 -25.5q92 0 162.5 38t111 100.5t60.5 134.5t20 149v836zM1292 1434
v-1233h666v-201h-887v1434h221z" />
    <glyph glyph-name="U_P.dlig" horiz-adv-x="2197" 
d="M1071 1434h221v-836q0 -85 -18.5 -169t-62.5 -167t-108 -146t-164 -102t-222 -39t-221.5 39.5t-164 103t-108.5 146.5t-63 166.5t-19 167.5v836h221v-836q0 -61 12 -119t40 -113.5t68 -97t101 -67t134 -25.5q92 0 162.5 38t111 100.5t60.5 134.5t20 149v836zM1700 825
q96 0 160.5 56t64.5 149t-64 148t-161 55h-408v-408h408zM1724 1434q178 0 300 -113t122 -291q0 -179 -121.5 -292t-300.5 -113h-432v-625h-221v1434h653z" />
    <glyph glyph-name="U_R.dlig" horiz-adv-x="2256" 
d="M1071 1434h221v-836q0 -85 -18.5 -169t-62.5 -167t-108 -146t-164 -102t-222 -39t-221.5 39.5t-164 103t-108.5 146.5t-63 166.5t-19 167.5v836h221v-836q0 -61 12 -119t40 -113.5t68 -97t101 -67t134 -25.5q92 0 162.5 38t111 100.5t60.5 134.5t20 149v836zM1702 823
q95 0 160 56t65 149q0 94 -64.5 149.5t-160.5 55.5h-410v-410h410zM1894 723q91 0 158.5 -67t67.5 -160v-496h-203v489q0 55 -39.5 94.5t-93.5 39.5h-494v-623h-219v1434h655q209 0 315.5 -99.5t106.5 -257.5q0 -63 -23.5 -118t-54.5 -89t-70.5 -60.5t-63.5 -37t-42 -16.5
v-33z" />
    <glyph glyph-name="V_A" horiz-adv-x="1947" 
d="M1133 1434h192l-500 -1434h-313l-492 1434h234l389 -1121q9 -26 16 -54t10 -43l3 -15h28q11 53 29 112zM1413 1434l514 -1434h-201l-114 328h-676l-117 -328h-201l515 1434h280zM999 510h547l-256 723h-33z" />
    <glyph glyph-name="a.ss01" horiz-adv-x="1200" 
d="M580 823q-75 0 -132.5 -27.5t-90.5 -74.5t-49.5 -102.5t-16.5 -118.5q0 -62 16.5 -118.5t50 -103.5t90.5 -74.5t132 -27.5q59 0 107.5 18.5t81 49.5t55 73t32.5 88t10 95q0 62 -16.5 118t-49.5 103t-89.5 74.5t-130.5 27.5zM508 -25q-89 0 -163 30.5t-124 81t-85 119
t-50.5 142.5t-15.5 152t15.5 152t50.5 142t85.5 119t126 81t166.5 30q73 0 134 -19t102.5 -52t69 -69t46.5 -79h33q-33 90 -33 180v14h221v-999h-221v16q0 40 8 84.5t16 69.5l9 25h-33q-19 -43 -47 -79t-70 -69.5t-104 -52.5t-137 -19z" />
    <glyph glyph-name="aacute.ss01" horiz-adv-x="1200" 
d="M856 1481l-151 -295h-189l135 295h205zM580 823q-75 0 -132.5 -27.5t-90.5 -74.5t-49.5 -102.5t-16.5 -118.5q0 -62 16.5 -118.5t50 -103.5t90.5 -74.5t132 -27.5q59 0 107.5 18.5t81 49.5t55 73t32.5 88t10 95q0 62 -16.5 118t-49.5 103t-89.5 74.5t-130.5 27.5z
M508 -25q-89 0 -163 30.5t-124 81t-85 119t-50.5 142.5t-15.5 152t15.5 152t50.5 142t85.5 119t126 81t166.5 30q73 0 134 -19t102.5 -52t69 -69t46.5 -79h33q-33 90 -33 180v14h221v-999h-221v16q0 40 8 84.5t16 69.5l9 25h-33q-19 -43 -47 -79t-70 -69.5t-104 -52.5
t-137 -19z" />
    <glyph glyph-name="acircumflex.ss01" horiz-adv-x="1200" 
d="M762 1481l178 -256h-192l-103 147h-14l-103 -147h-192l178 256h248zM580 823q-75 0 -132.5 -27.5t-90.5 -74.5t-49.5 -102.5t-16.5 -118.5q0 -62 16.5 -118.5t50 -103.5t90.5 -74.5t132 -27.5q59 0 107.5 18.5t81 49.5t55 73t32.5 88t10 95q0 62 -16.5 118t-49.5 103
t-89.5 74.5t-130.5 27.5zM508 -25q-89 0 -163 30.5t-124 81t-85 119t-50.5 142.5t-15.5 152t15.5 152t50.5 142t85.5 119t126 81t166.5 30q73 0 134 -19t102.5 -52t69 -69t46.5 -79h33q-33 90 -33 180v14h221v-999h-221v16q0 40 8 84.5t16 69.5l9 25h-33q-19 -43 -47 -79
t-70 -69.5t-104 -52.5t-137 -19z" />
    <glyph glyph-name="adieresis.ss01" horiz-adv-x="1200" 
d="M434 1255q-47 0 -82 33.5t-35 79.5q0 47 34.5 80t82.5 33q45 0 79 -33t34 -80q0 -45 -34 -79t-79 -34zM811 1255q-46 0 -81.5 34t-35.5 79q0 47 35.5 80t81.5 33q45 0 79 -33t34 -80q0 -45 -34 -79t-79 -34zM580 823q-75 0 -132.5 -27.5t-90.5 -74.5t-49.5 -102.5
t-16.5 -118.5q0 -62 16.5 -118.5t50 -103.5t90.5 -74.5t132 -27.5q59 0 107.5 18.5t81 49.5t55 73t32.5 88t10 95q0 62 -16.5 118t-49.5 103t-89.5 74.5t-130.5 27.5zM508 -25q-89 0 -163 30.5t-124 81t-85 119t-50.5 142.5t-15.5 152t15.5 152t50.5 142t85.5 119t126 81
t166.5 30q73 0 134 -19t102.5 -52t69 -69t46.5 -79h33q-33 90 -33 180v14h221v-999h-221v16q0 40 8 84.5t16 69.5l9 25h-33q-19 -43 -47 -79t-70 -69.5t-104 -52.5t-137 -19z" />
    <glyph glyph-name="aring.ss01" horiz-adv-x="1200" 
d="M612 1362q58 0 86.5 35t28.5 84q0 47 -28.5 81.5t-86.5 34.5q-57 0 -84.5 -34.5t-27.5 -81.5q0 -49 27.5 -84t84.5 -35zM612 1737q68 0 120.5 -23t82.5 -61t44.5 -81.5t14.5 -90.5q0 -48 -14.5 -91.5t-44.5 -81.5t-82.5 -60.5t-120.5 -22.5q-130 0 -195 76.5t-65 179.5
q0 47 14.5 90.5t44.5 81.5t82 61t119 23zM580 823q-75 0 -132.5 -27.5t-90.5 -74.5t-49.5 -102.5t-16.5 -118.5q0 -62 16.5 -118.5t50 -103.5t90.5 -74.5t132 -27.5q59 0 107.5 18.5t81 49.5t55 73t32.5 88t10 95q0 62 -16.5 118t-49.5 103t-89.5 74.5t-130.5 27.5zM508 -25
q-89 0 -163 30.5t-124 81t-85 119t-50.5 142.5t-15.5 152t15.5 152t50.5 142t85.5 119t126 81t166.5 30q73 0 134 -19t102.5 -52t69 -69t46.5 -79h33q-33 90 -33 180v14h221v-999h-221v16q0 40 8 84.5t16 69.5l9 25h-33q-19 -43 -47 -79t-70 -69.5t-104 -52.5t-137 -19z" />
    <glyph glyph-name="f.ss01" horiz-adv-x="731" 
d="M25 799h161v-799h222v799h294v200h-677v-200zM471 999q-57 0 -99 29t-42 88q0 58 42.5 87.5t98.5 29.5h231v201h-325q-52 0 -99.5 -13t-89 -39t-66 -72t-24.5 -106q0 -27 5.5 -51.5t12.5 -40.5t19.5 -31.5t19.5 -22t19 -16.5l12 -10v-35z" />
    <glyph glyph-name="g.ss01" horiz-adv-x="1189" 
d="M532 127q-213 0 -342 122.5t-129 323.5q0 202 125.5 326.5t325.5 124.5q144 0 243 -80.5t119 -191.5q6 -20 28 -42.5t43.5 -40t38.5 -43.5t17 -53q0 -201 -129 -323.5t-340 -122.5zM532 297q125 0 205 77.5t80 198.5q0 124 -80 202.5t-205 78.5q-126 0 -206 -78.5
t-80 -202.5q0 -123 80 -199.5t206 -76.5zM907 752q-30 98 -30 174q0 31 21.5 52t53.5 21h197v-200h-109q-17 0 -28 -11t-11 -26v-189l-141 27l14 152h33zM1001 600v-567q0 -123 -51 -222.5t-155.5 -161t-247.5 -61.5q-207 0 -330 123.5t-123 304.5h185q0 -111 75.5 -184.5
t194.5 -73.5q122 0 195 77.5t73 197.5v567h184z" />
    <glyph glyph-name="k.ss01" horiz-adv-x="1175" 
d="M608 362l305 -364h248l-397 465v33q131 11 219 82.5t88 185.5q0 113 -81.5 186.5t-241.5 73.5q-102 0 -183 -26.5t-126.5 -66t-69.5 -74t-31 -62.5h-33q35 100 35 211v428h-221v-1434h221v362h268zM338 545q0 142 89.5 232.5t236.5 90.5q55 0 94.5 -13.5t58.5 -36.5
t27 -45.5t8 -47.5q0 -84 -77.5 -132t-194.5 -48h-242z" />
    <glyph glyph-name="o.ss01" horiz-adv-x="1187" 
d="M594 -25q-143 0 -263.5 70t-190.5 191t-70 264t70 263.5t190.5 190.5t263.5 70t263.5 -70t190.5 -190.5t70 -263.5t-70 -264t-190.5 -191t-263.5 -70zM594 176q127 0 215 94.5t88 229.5t-88 229t-215 94t-215 -94t-88 -229t88 -229.5t215 -94.5z" />
    <glyph glyph-name="oacute.ss01" horiz-adv-x="1187" 
d="M827 1483l-151 -295h-189l136 295h204zM594 -25q-143 0 -263.5 70t-190.5 191t-70 264t70 263.5t190.5 190.5t263.5 70t263.5 -70t190.5 -190.5t70 -263.5t-70 -264t-190.5 -191t-263.5 -70zM594 176q127 0 215 94.5t88 229.5t-88 229t-215 94t-215 -94t-88 -229
t88 -229.5t215 -94.5z" />
    <glyph glyph-name="ocircumflex.ss01" horiz-adv-x="1187" 
d="M723 1481l178 -256h-192l-103 147h-14l-103 -147h-192l178 256h248zM594 -25q-143 0 -263.5 70t-190.5 191t-70 264t70 263.5t190.5 190.5t263.5 70t263.5 -70t190.5 -190.5t70 -263.5t-70 -264t-190.5 -191t-263.5 -70zM594 176q127 0 215 94.5t88 229.5t-88 229
t-215 94t-215 -94t-88 -229t88 -229.5t215 -94.5z" />
    <glyph glyph-name="odieresis.ss01" horiz-adv-x="1187" 
d="M408 1255q-47 0 -82 33.5t-35 79.5q0 47 34.5 80t82.5 33q45 0 78.5 -33t33.5 -80q0 -46 -34 -79.5t-78 -33.5zM784 1255q-46 0 -81 34t-35 79q0 47 35 80t81 33q45 0 79 -33t34 -80q0 -45 -34 -79t-79 -34zM594 -25q-143 0 -263.5 70t-190.5 191t-70 264t70 263.5
t190.5 190.5t263.5 70t263.5 -70t190.5 -190.5t70 -263.5t-70 -264t-190.5 -191t-263.5 -70zM594 176q127 0 215 94.5t88 229.5t-88 229t-215 94t-215 -94t-88 -229t88 -229.5t215 -94.5z" />
    <glyph glyph-name="ohungarumlaut.ss01" horiz-adv-x="1187" 
d="M1008 1481l-152 -295h-188l135 295h205zM705 1481l-152 -295h-188l135 295h205zM594 -25q-143 0 -263.5 70t-190.5 191t-70 264t70 263.5t190.5 190.5t263.5 70t263.5 -70t190.5 -190.5t70 -263.5t-70 -264t-190.5 -191t-263.5 -70zM594 176q127 0 215 94.5t88 229.5
t-88 229t-215 94t-215 -94t-88 -229t88 -229.5t215 -94.5z" />
    <glyph glyph-name="oslash.ss01" horiz-adv-x="1224" 
d="M1128 1014l-856 -1028h-174l856 1028h174zM608 -25q-143 0 -263.5 70t-190.5 191t-70 264t70 263.5t190.5 190.5t263.5 70t264 -70t191 -190.5t70 -263.5t-70 -264t-191 -191t-264 -70zM608 176q127 0 215 94.5t88 229.5t-88 229t-215 94t-215 -94t-88 -229t88 -229.5
t215 -94.5z" />
    <glyph glyph-name="oslashacute.ss01" horiz-adv-x="1224" 
d="M868 1483l-151 -295h-189l136 295h204zM1128 1014l-856 -1028h-174l856 1028h174zM608 -25q-143 0 -263.5 70t-190.5 191t-70 264t70 263.5t190.5 190.5t263.5 70t264 -70t191 -190.5t70 -263.5t-70 -264t-191 -191t-264 -70zM608 176q127 0 215 94.5t88 229.5t-88 229
t-215 94t-215 -94t-88 -229t88 -229.5t215 -94.5z" />
    <glyph glyph-name="t.ss01" horiz-adv-x="737" 
d="M29 999v-200h161v-475q0 -68 16.5 -124t52 -102t99.5 -72t152 -26h199v160h-185q-57 0 -84.5 38t-27.5 93v508h297v200h-680zM233 1217q0 -87 -50.5 -152.5t-153.5 -65.5l225 -28v61q100 0 150.5 63t50.5 146v193h-222v-217z" />
    <glyph glyph-name="tcaron.ss01" horiz-adv-x="735" 
d="M782 1837l-22 -551h-176l-23 551h221zM25 999v-200h161v-475q0 -68 16.5 -124t52 -102t99.5 -72t152 -26h199v160h-185q-57 0 -84.5 38t-27.5 93v508h297v200h-680zM229 1217q0 -87 -50.5 -152.5t-153.5 -65.5l225 -28v61q100 0 150.5 63t50.5 146v193h-222v-217z" />
    <glyph glyph-name="a_e.dlig" horiz-adv-x="1863" 
d="M809 543q-43 -32 -350 -80q-66 -10 -117 -52.5t-51 -107.5q0 -60 42.5 -102.5t104.5 -53.5q56 -8 108 -0.5t111 39.5q62 34 100 87.5t46 111.5q6 38 6 84v74zM844 231q-1 -4 -4 -11.5t-15 -30t-27 -43t-42.5 -47t-59.5 -46.5q-149 -96 -350 -73q-108 11 -187 90.5
t-79 197.5q0 64 20 114.5t55 83.5t75 53t89 32q74 18 189.5 31.5t148.5 19.5q87 18 112 34q38 24 26 69q-14 60 -79 98.5t-159 38.5q-117 0 -185.5 -57t-68.5 -138h-215q0 71 30 137.5t87 120.5t149.5 86.5t206.5 32.5t204.5 -32t146 -87t84 -124t28.5 -146q0 -87 -37 -188
t-73 -159l-37 -57h-33zM1300 842q-64 0 -116 -23t-84.5 -61.5t-51.5 -81.5t-26 -90l559 -2q-5 44 -24 87.5t-51.5 82.5t-86 63.5t-119.5 24.5zM1016 451q3 -48 19 -95t47 -93.5t87.5 -75.5t130.5 -29q101 0 165 49t94 129h215q-11 -46 -30.5 -91t-58 -95.5t-88 -88
t-126.5 -62t-168 -24.5q-103 0 -187.5 31.5t-140.5 83.5t-94 121t-55 141.5t-17 147.5t16.5 147.5t54.5 141.5t94 120.5t140.5 83t188.5 31.5q127 0 225.5 -46.5t157 -126t85.5 -182t21 -218.5h-776z" />
    <glyph glyph-name="f_f.dlig" horiz-adv-x="1347" 
d="M186 1063q0 53 11.5 104.5t38.5 100.5t66 85.5t98.5 58.5t131.5 22h173v-201h-179q-58 0 -88 -40.5t-30 -96.5v-97h294v-200h-294v-799h-222v799h-161v200h161v64zM801 1063q0 54 11.5 105t38 100t65.5 85.5t98.5 58.5t132.5 22h172v-201h-178q-58 0 -88.5 -40.5
t-30.5 -96.5v-97h295v-200h-295v-799h-221v799h-164v200h164v64z" />
    <glyph glyph-name="f_f_i.dlig" horiz-adv-x="1728" 
d="M186 1063q0 53 11.5 104.5t38.5 100.5t66 85.5t98.5 58.5t131.5 22h173v-201h-179q-58 0 -88 -40.5t-30 -96.5v-97h294v-200h-294v-799h-222v799h-161v200h161v64zM801 1063q0 54 11.5 105t38 100t65.5 85.5t98.5 58.5t132.5 22h172v-201h-178q-58 0 -88.5 -40.5
t-30.5 -96.5v-97h295v-200h-295v-799h-221v799h-164v200h164v64zM1626 924v-924h-221v758q0 17 -12 29t-29 12h-90v200h276q32 0 54 -21.5t22 -53.5z" />
    <glyph glyph-name="f_f_j.dlig" horiz-adv-x="1736" 
d="M186 1063q0 53 11.5 104.5t38.5 100.5t66 85.5t98.5 58.5t131.5 22h173v-201h-179q-58 0 -88 -40.5t-30 -96.5v-97h294v-200h-294v-799h-222v799h-161v200h161v64zM801 1063q0 54 11.5 105t38 100t65.5 85.5t98.5 58.5t132.5 22h172v-201h-178q-58 0 -88.5 -40.5
t-30.5 -96.5v-97h295v-200h-295v-799h-221v799h-164v200h164v64zM1634 -272q0 -126 -76.5 -211.5t-216.5 -85.5h-213v200h166q52 0 85.5 32.5t33.5 88.5v1006q0 17 -12 29t-29 12h-98v200h282q32 0 55 -22.5t23 -54.5v-1194z" />
    <glyph glyph-name="f_f_r.dlig" horiz-adv-x="2056" 
d="M186 1063q0 53 11.5 104.5t38.5 100.5t66 85.5t98.5 58.5t131.5 22h173v-201h-179q-58 0 -88 -40.5t-30 -96.5v-97h294v-200h-294v-799h-222v799h-161v200h161v64zM801 1063q0 54 11.5 105t38 100t65.5 85.5t98.5 58.5t132.5 22h172v-201h-178q-58 0 -88.5 -40.5
t-30.5 -96.5v-97h295v-200h-295v-799h-221v799h-164v200h164v64zM2015 799q-84 0 -152.5 -24.5t-113 -65t-75 -95t-43.5 -112.5t-13 -119v-383h-221v766q0 15 -9 24t-24 9h-111v200h248q40 0 65 -20.5t25 -58.5t-7.5 -102.5t-15.5 -109.5l-7 -46h30q44 155 153 245.5
t271 91.5v-200z" />
    <glyph glyph-name="f_f_t.dlig" horiz-adv-x="1984" 
d="M1425 799h-401v-799h-221v799h-395v-799h-222v799h-161v200h161v64q0 53 11.5 104.5t38.5 100.5t66 85.5t98.5 58.5t131.5 22h173v-201h-179q-58 0 -88 -40.5t-30 -96.5v-97h395v64q0 54 11.5 105t38 100t65.5 85.5t98.5 58.5t132.5 22h172v-201h-178q-58 0 -88.5 -40.5
t-30.5 -96.5v-97h401v435h222v-435h297v-200h-297v-477q0 -51 34 -86t84 -35h179v-201h-199q-102 0 -176.5 47t-109 118t-34.5 154v480z" />
    <glyph glyph-name="f_i.dlig" horiz-adv-x="1116" 
d="M186 1063q0 53 11.5 104.5t38.5 100.5t66 85.5t98.5 58.5t131.5 22h173v-201h-179q-58 0 -88 -40.5t-30 -96.5v-97h294v-200h-294v-799h-222v799h-161v200h161v64zM1014 924v-924h-221v758q0 17 -12 29t-29 12h-90v200h276q31 0 53.5 -21.5t22.5 -53.5z" />
    <glyph glyph-name="f_j.dlig" horiz-adv-x="1124" 
d="M186 1063q0 53 11.5 104.5t38.5 100.5t66 85.5t98.5 58.5t131.5 22h173v-201h-179q-58 0 -88 -40.5t-30 -96.5v-97h294v-200h-294v-799h-222v799h-161v200h161v64zM1022 -272q0 -126 -77.5 -211.5t-217.5 -85.5h-211v200h166q52 0 85.5 32.5t33.5 88.5v1006q0 17 -12 29
t-29 12h-98v200h282q32 0 55 -22.5t23 -54.5v-1194z" />
    <glyph glyph-name="f_r.dlig" horiz-adv-x="1443" 
d="M186 1063q0 53 11.5 104.5t38.5 100.5t66 85.5t98.5 58.5t131.5 22h173v-201h-179q-58 0 -88 -40.5t-30 -96.5v-97h294v-200h-294v-799h-222v799h-161v200h161v64zM1403 799q-84 0 -153 -24.5t-113.5 -65t-75.5 -95t-44 -112.5t-13 -119v-383h-222v766q0 33 -32 33h-109
v200h248q39 0 64.5 -20.5t25.5 -58.5t-8.5 -102.5t-16.5 -109.5l-8 -46h33q44 155 153 245.5t271 91.5v-200z" />
    <glyph glyph-name="f_t.dlig" horiz-adv-x="1384" 
d="M186 1063q0 53 11.5 104.5t38.5 100.5t66 85.5t98.5 58.5t131.5 22h173v-201h-179q-58 0 -88 -40.5t-30 -96.5v-97h417v435h222v-435h296v-200h-296v-477q0 -51 34 -86t84 -35h178v-201h-198q-102 0 -176.5 47t-109 118t-34.5 154v480h-417v-799h-222v799h-161v200h161
v64z" />
    <glyph glyph-name="g_i.dlig" horiz-adv-x="1626" 
d="M553 127q-131 0 -238 55t-170 157.5t-63 233.5q0 202 125 326.5t325 124.5q144 0 243.5 -80.5t119.5 -191.5q6 -20 28 -42.5t43.5 -40t38.5 -43.5t17 -53q0 -201 -129 -323.5t-340 -122.5zM553 309q125 0 205 73.5t80 190.5q0 118 -80 193.5t-205 75.5
q-126 0 -206.5 -75.5t-80.5 -193.5q0 -117 80.5 -190.5t206.5 -73.5zM573 -432q149 0 247 41t98 106t-100.5 106.5t-244.5 41.5q-151 0 -247.5 -41t-96.5 -107t96 -106.5t248 -40.5zM287 -57h-58q-68 0 -108.5 33.5t-40.5 93.5q0 59 40.5 91t108.5 32h25v36l299 -61l-2 -41
h-232q-69 0 -69 -51t69 -51h254q155 0 280.5 -40t196 -111t70.5 -159q0 -133 -155 -221t-390 -88q-241 0 -394.5 79t-153.5 202q0 43 18 80t46 61.5t64 42.5t68.5 27t63.5 12v33zM928 752q-31 96 -31 172q0 32 22 53.5t54 21.5h196v-200h-108q-17 0 -28 -11t-11 -28v-187
l-141 27l14 152h33zM1516 924v-924h-222v758q0 17 -12 29t-29 12h-90v200h277q31 0 53.5 -21.5t22.5 -53.5zM1282 1368q0 -46 35 -79.5t82 -33.5q43 0 77.5 34t34.5 79q0 46 -34 79.5t-78 33.5q-48 0 -82.5 -33t-34.5 -80z" />
    <glyph glyph-name="g_r.dlig" horiz-adv-x="1972" 
d="M553 127q-131 0 -238 55t-170 157.5t-63 233.5q0 202 125 326.5t325 124.5q144 0 243.5 -80.5t119.5 -191.5q6 -20 28 -42.5t43.5 -40t38.5 -43.5t17 -53q0 -201 -129 -323.5t-340 -122.5zM553 309q125 0 205 73.5t80 190.5q0 118 -80 193.5t-205 75.5
q-126 0 -206.5 -75.5t-80.5 -193.5q0 -117 80.5 -190.5t206.5 -73.5zM573 -432q149 0 247 41t98 106t-100.5 106.5t-244.5 41.5q-151 0 -247.5 -41t-96.5 -107t96 -106.5t248 -40.5zM287 -57h-58q-68 0 -108.5 33.5t-40.5 93.5q0 59 40.5 91t108.5 32h25v36l299 -61l-2 -41
h-232q-69 0 -69 -51t69 -51h254q155 0 280.5 -40t196 -111t70.5 -159q0 -133 -155 -221t-390 -88q-241 0 -394.5 79t-153.5 202q0 43 18 80t46 61.5t64 42.5t68.5 27t63.5 12v33zM928 752q-31 96 -31 172q0 32 22 53.5t54 21.5h196v-200h-108q-17 0 -28 -11t-11 -28v-187
l-141 27l14 152h33zM1931 799q-84 0 -152.5 -24.5t-113 -65t-75 -95t-43.5 -112.5t-13 -119v-383h-221v766q0 15 -9 24t-24 9h-111v200h248q40 0 65 -20.5t25 -58.5t-7.5 -102.5t-15.5 -109.5l-7 -46h30q44 155 153 245.5t271 91.5v-200z" />
    <glyph glyph-name="r_i.dlig" horiz-adv-x="1236" 
d="M803 999q-162 -1 -271 -91.5t-153 -245.5h-31q31 172 31 258q0 38 -25 58.5t-65 20.5h-248v-200h111q32 0 32 -33v-766h222v383q0 61 13 119t43.5 112.5t75 95t113 65t152.5 24.5v200zM1126 924q0 32 -22 53.5t-53 21.5h-277v-200h90q17 0 29 -12t12 -29v-758h221v924z
M1010 1255q-47 0 -82 33.5t-35 79.5q0 47 34.5 80t82.5 33q45 0 78.5 -33t33.5 -80q0 -46 -34 -79.5t-78 -33.5z" />
    <glyph glyph-name="r_j.dlig" horiz-adv-x="1239" 
d="M803 999q-162 -1 -271 -91.5t-153 -245.5h-31q31 172 31 258q0 38 -25 58.5t-65 20.5h-248v-200h111q32 0 32 -33v-766h222v383q0 61 13 119t43.5 112.5t75 95t113 65t152.5 24.5v200zM1128 922q0 32 -22.5 54.5t-54.5 22.5h-283v-200h96q19 0 31 -12t12 -29v-1006
q0 -50 -35.5 -85.5t-85.5 -35.5h-163v-200h211q137 0 215.5 89t78.5 208v1194zM999 1255q-47 0 -81.5 33.5t-34.5 79.5q0 47 34 80t82 33q45 0 79 -33t34 -80q0 -45 -34 -79t-79 -34z" />
    <glyph glyph-name="t_i.dlig" horiz-adv-x="1148" 
d="M186 799h-161v200h161v435h222v-435h555q31 0 53 -21.5t22 -53.5v-924h-221v758q0 17 -12 29t-29 12h-368v-477q0 -51 34 -86t84 -35h179v-201h-199q-102 0 -176.5 47t-109 118t-34.5 154v480zM805 1368q0 47 34.5 80t82.5 33q45 0 78.5 -33t33.5 -80q0 -46 -34 -79.5
t-78 -33.5q-47 0 -82 33.5t-35 79.5z" />
    <glyph glyph-name="t_r.dlig" horiz-adv-x="1501" 
d="M186 799h-161v200h161v435h222v-435h297v-200h-297v-477q0 -51 34 -86t84 -35h179v-201h-199q-102 0 -176.5 47t-109 118t-34.5 154v480zM1460 799q-84 0 -152 -24.5t-113 -65t-75.5 -95t-43.5 -112.5t-13 -119v-383h-221v766q0 15 -9 24t-24 9h-111v200h248
q40 0 65 -20.5t25 -58.5t-7.5 -102.5t-14.5 -109.5l-8 -46h32q43 154 151 245t271 92v-200z" />
    <glyph glyph-name="t_t" horiz-adv-x="1357" 
d="M799 799h-162v200h162v435h221v-435h297v-200h-297v-477q0 -51 34.5 -86t84.5 -35h178v-201h-201q-77 0 -139 27t-100 72.5t-58 102t-20 117.5v480zM186 799h-161v200h161v435h222v-435h297v-200h-297v-477q0 -51 34 -86t84 -35h179v-201h-199q-102 0 -176.5 47t-109 118
t-34.5 154v480z" />
    </font>
</defs>
</svg>
