<?xml version="1.0" standalone="no"?>
<!DOCTYPE svg PUBLIC "-//W3C//DTD SVG 1.1//EN" "http://www.w3.org/Graphics/SVG/1.1/DTD/svg11.dtd" >
<svg xmlns="http://www.w3.org/2000/svg" xmlns:xlink="http://www.w3.org/1999/xlink" version="1.1">
<metadata>
Created by FontForge 20201107 at Sat Feb 17 11:41:00 2024
 By 
Copyright (c) 2020 by Serdar Ozturk. All rights reserved.
</metadata>
<defs>
<font id="Rota-Regular" horiz-adv-x="1097" >
  <font-face 
    font-family="Rota"
    font-weight="400"
    font-stretch="normal"
    units-per-em="2048"
    panose-1="0 0 0 0 0 0 0 0 0 0"
    ascent="1638"
    descent="-410"
    x-height="983"
    cap-height="1393"
    bbox="-211 -506 2533 1806"
    underline-thickness="81"
    underline-position="-203"
    unicode-range="U+000D-FB05"
  />
<missing-glyph horiz-adv-x="409" 
 />
    <glyph glyph-name="f_f" unicode="ff" horiz-adv-x="1235" 
d="M785 0v870h-459v-870h-118v870h-165v113h165v103q0 169 69 243.5t224 74.5h92v-118h-82q-99 0 -142 -47.5t-43 -157.5v-98h459v103q0 169 69 243.5t224 74.5h92v-118h-82q-98 0 -141 -47.5t-43 -157.5v-98h267v-113h-267v-870h-119z" />
    <glyph glyph-name="fi" unicode="fi" horiz-adv-x="966" 
d="M878 0h-119v870h-420v-870h-119v870h-164v113h164v103q0 169 69.5 243.5t223.5 74.5h93v-118h-83q-98 0 -141 -47.5t-43 -157.5v-98h539v-983zM741 1289q0 36 20.5 57.5t56.5 21.5t56.5 -21.5t20.5 -57.5q0 -35 -20.5 -56t-56.5 -21t-56.5 21t-20.5 56z" />
    <glyph glyph-name="fl" unicode="fl" horiz-adv-x="971" 
d="M878 0h-118v870h-421v-870h-119v870h-164v113h164v103q0 169 69.5 243.5t223.5 74.5h93v-118h-83q-98 0 -141 -47.5t-43 -157.5v-98h421v410h118v-1393z" />
    <glyph glyph-name="f_f_i" unicode="ffi" horiz-adv-x="1513" 
d="M1424 0h-118v870h-439v-870h-118v870h-420v-870h-119v870h-166v113h166v103q0 169 69 243.5t224 74.5h92v-118h-82q-98 0 -141 -47.5t-43 -157.5v-98h420v103q0 169 69 243.5t224 74.5h92v-118h-82q-99 0 -142 -47.5t-43 -157.5v-98h557v-983zM1286 1289q0 36 21 57.5
t58 21.5q34 0 54.5 -21.5t20.5 -57.5q0 -35 -20.5 -56t-54.5 -21q-36 0 -57.5 21t-21.5 56z" />
    <glyph glyph-name="f_f_l" unicode="ffl" horiz-adv-x="1536" 
d="M1447 0h-120v870h-434v-870h-120v870h-444v-870h-118v870h-165v113h165v103q0 169 69.5 243.5t224.5 74.5h91v-118h-82q-99 0 -142 -47.5t-43 -157.5v-98h444v103q0 169 69.5 243.5t224.5 74.5h93v-118h-84q-98 0 -140.5 -47.5t-42.5 -157.5v-98h434v410h120v-1393z" />
    <glyph glyph-name="f_t" unicode="ft" horiz-adv-x="1258" 
d="M832 1191h89v-208h267v-113h-267v-547q0 -109 43.5 -157t141.5 -48h82v-118h-94q-154 0 -222.5 74.5t-68.5 243.5v552h-469v-870h-118v870h-165v113h165v103q0 169 69.5 243.5t224.5 74.5h91v-118h-82q-99 0 -142 -47.5t-43 -157.5v-98h469z" />
    <glyph glyph-name="t_f" unicode="tf" horiz-adv-x="1238" 
d="M786 0v870h-444v-547q0 -109 43.5 -157t142.5 -48h81v-118h-93q-154 0 -223 74.5t-69 243.5v552h-168v113h168l30 208h88v-208h444v103q0 169 69 243.5t223 74.5h93v-118h-81q-99 0 -142.5 -47.5t-43.5 -157.5v-98h267v-113h-267v-870h-118z" />
    <glyph glyph-name=".notdef" horiz-adv-x="409" 
 />
    <glyph glyph-name="uni0000" horiz-adv-x="0" 
 />
    <glyph glyph-name="uni000D" horiz-adv-x="409" 
 />
    <glyph glyph-name="uni000D" horiz-adv-x="409" 
 />
    <glyph glyph-name="CR" unicode="&#xd;" horiz-adv-x="512" 
 />
    <glyph glyph-name="space" unicode=" " horiz-adv-x="409" 
 />
    <glyph glyph-name="exclam" unicode="!" horiz-adv-x="314" 
d="M200 357h-102l-10 1036h122zM70 69q0 35 20.5 56t56.5 21t56.5 -21t20.5 -56q0 -36 -20.5 -57.5t-56.5 -21.5t-56.5 21.5t-20.5 57.5z" />
    <glyph glyph-name="quotedbl" unicode="&#x22;" horiz-adv-x="568" 
d="M188 1050h-101l-10 343h121zM478 1050h-101l-10 343h121z" />
    <glyph glyph-name="numbersign" unicode="#" horiz-adv-x="1694" 
d="M306 0l99 395h-328l26 119h331l97 385h-328l28 118h329l94 376h124l-93 -376h472l93 376h123l-93 -376h342l-28 -118h-344l-95 -385h339l-28 -119h-340l-100 -395h-123l98 395h-472l-98 -395h-125zM559 514h472l96 385h-472z" />
    <glyph glyph-name="dollar" unicode="$" 
d="M67 400h118q12 -131 118.5 -213t258.5 -82t250 78.5t102 191.5q1 37 -6.5 69t-24.5 57t-35 45t-48 37.5t-53.5 29t-62 24t-62.5 19t-65 17.5q-163 41 -189 49q-152 50 -209 143q-46 74 -46 187q1 155 110 244.5t280 102.5v231h120v-232q161 -18 266 -114.5t112 -249.5
h-118q-11 116 -101 184t-223 68q-141 0 -233.5 -62t-94.5 -172q-1 -53 16 -93t44.5 -65t71 -44.5t86 -31.5t97.5 -25q21 -5 31 -7q74 -17 130 -34.5t121.5 -50.5t107.5 -74t69.5 -106t26.5 -146q-2 -142 -114 -252.5t-292 -129.5v-242h-120v241q-183 16 -305.5 126
t-133.5 282z" />
    <glyph glyph-name="percent" unicode="%" horiz-adv-x="1708" 
d="M72 1029q0 154 100 259t246 105t245.5 -105t99.5 -259q0 -156 -99 -260.5t-246 -104.5t-246.5 104.5t-99.5 260.5zM652 0h-120l515 1393h120zM418 1285q-100 0 -169.5 -73.5t-69.5 -180.5q0 -110 69.5 -184t169.5 -74q101 0 169 74t68 184q0 107 -68.5 180.5t-168.5 73.5
zM936 356q0 154 99.5 258.5t245.5 104.5t246 -104.5t100 -258.5q0 -156 -99.5 -261t-246.5 -105q-146 0 -245.5 105t-99.5 261zM1281 611q-100 0 -169.5 -73.5t-69.5 -180.5q0 -110 69.5 -183.5t169.5 -73.5q101 0 169.5 73.5t68.5 183.5q0 107 -69 180.5t-169 73.5z" />
    <glyph glyph-name="ampersand" unicode="&#x26;" horiz-adv-x="1318" 
d="M613 678l316 -314q122 171 159 378h118q-43 -256 -198 -457l285 -285h-154l-202 202q-96 -100 -205 -156t-219 -56q-198 0 -318.5 99.5t-120.5 264.5q0 263 309 406q-147 162 -147 313q0 145 99 236.5t256 91.5q158 0 271.5 -123.5t113.5 -296.5h-114q-8 133 -86.5 220.5
t-187.5 87.5q-105 0 -168 -62t-63 -162q0 -79 56 -162t200 -225zM859 280l-379 379q-2 3 -5 6t-7 6.5t-6 5.5q-129 -53 -198 -134.5t-69 -183.5q0 -114 88 -184t235 -70q87 0 175 46t166 129z" />
    <glyph glyph-name="quotesingle" unicode="'" horiz-adv-x="270" 
d="M188 1050h-101l-10 343h121z" />
    <glyph glyph-name="parenleft" unicode="(" horiz-adv-x="591" 
d="M406 -326q-336 534 -336 952q0 233 88 471.5t248 437.5h126q-161 -200 -249.5 -437t-90.5 -472q-2 -197 93.5 -466t246.5 -486h-126z" />
    <glyph glyph-name="parenright" unicode=")" horiz-adv-x="591" 
d="M193 -326h-124q149 218 245 487t94 465q-2 235 -90.5 472t-248.5 437h124q160 -199 248 -437.5t88 -471.5q0 -418 -336 -952z" />
    <glyph glyph-name="asterisk" unicode="*" horiz-adv-x="609" 
d="M508 1325l39 -57l-178 -119l178 -120l-39 -57l-167 111v-179h-69v179l-167 -111l-39 57l178 120l-178 119l39 57l167 -111v177h69v-177z" />
    <glyph glyph-name="plus" unicode="+" horiz-adv-x="865" 
d="M74 573v118h301v300h118v-300h300v-118h-300v-301h-118v301h-301z" />
    <glyph glyph-name="comma" unicode="," horiz-adv-x="291" 
d="M69 69q0 35 20.5 56t56.5 21q34 0 55.5 -21t21.5 -56q0 -65 -16 -114t-55 -117l-16 -30h-72l28 54q40 77 47 128q-33 2 -51.5 23t-18.5 56z" />
    <glyph glyph-name="hyphen" unicode="-" horiz-adv-x="765" 
d="M67 573v118h619v-118h-619z" />
    <glyph glyph-name="period" unicode="." horiz-adv-x="293" 
d="M69 69q0 35 20.5 56t56.5 21t56.5 -21t20.5 -56q0 -36 -20.5 -57.5t-56.5 -21.5t-56.5 21.5t-20.5 57.5z" />
    <glyph glyph-name="slash" unicode="/" horiz-adv-x="679" 
d="M144 0h-119l514 1393h120z" />
    <glyph glyph-name="zero" unicode="0" horiz-adv-x="1246" 
d="M61 696q0 207 69.5 367.5t197.5 249t295 88.5q166 0 294 -88.5t198 -249t70 -367.5q0 -314 -155.5 -510t-406.5 -196q-167 0 -295 89t-197.5 249.5t-69.5 367.5zM623 1285q-199 0 -321 -163.5t-122 -425.5q0 -265 121 -427.5t322 -162.5q200 0 321 163t121 427
q0 263 -121.5 426t-320.5 163z" />
    <glyph glyph-name="one" unicode="1" horiz-adv-x="593" 
d="M383 0v1262l-332 -118v122l355 127h97v-1393h-120z" />
    <glyph glyph-name="two" unicode="2" horiz-adv-x="1046" 
d="M197 120h786v-120h-904v98q0 110 26.5 197.5t79.5 154t120 115.5t162 95q221 107 304 190t83 195q0 108 -84.5 174.5t-222.5 66.5t-224 -73.5t-94 -196.5h-118q5 179 128 282t308 103q189 0 307.5 -95t118.5 -262q0 -54 -16 -105t-39.5 -89.5t-62 -77t-71 -63.5
t-81 -53.5t-76.5 -42.5t-72.5 -35t-56.5 -27q-158 -77 -229.5 -180t-71.5 -251z" />
    <glyph glyph-name="three" unicode="3" horiz-adv-x="1089" 
d="M419 778h128q150 0 232.5 71.5t82.5 199.5q0 113 -83 178.5t-228 65.5t-237 -79.5t-94 -215.5h-120q4 193 131 301t318 108q195 0 314.5 -94.5t119.5 -265.5q0 -110 -46.5 -192.5t-133.5 -130.5q101 -47 155.5 -132t54.5 -196q0 -194 -128.5 -300t-343.5 -106
q-130 0 -234.5 45.5t-169.5 140t-68 224.5h119q4 -135 102 -215t251 -80q168 0 261 76.5t93 214.5q0 123 -93 196t-256 73h-127v113z" />
    <glyph glyph-name="four" unicode="4" horiz-adv-x="1166" 
d="M69 324v120l731 949h119v-949h175v-120h-175v-324h-119v324h-731zM216 444h584v760z" />
    <glyph glyph-name="five" unicode="5" horiz-adv-x="1051" 
d="M108 726l48 667h722v-118h-613l-31 -435h295q199 0 322.5 -112.5t123.5 -296.5q0 -205 -124.5 -323t-337.5 -118q-186 0 -312.5 111t-130.5 299h118q5 -129 96 -212t229 -83q160 0 251 86t91 240q0 132 -90 213.5t-231 81.5h-426z" />
    <glyph glyph-name="six" unicode="6" horiz-adv-x="1081" 
d="M64 472q0 170 108 305l490 616h141l-352 -453q37 9 93 9q132 0 241.5 -64t171.5 -173.5t62 -239.5q0 -200 -137.5 -341t-337.5 -141q-133 0 -244 65t-173.5 175.5t-62.5 241.5zM544 831q-151 0 -255.5 -105t-104.5 -254q0 -150 104 -256t256 -106q150 0 252.5 106.5
t102.5 255.5q0 148 -102.5 253.5t-252.5 105.5z" />
    <glyph glyph-name="seven" unicode="7" horiz-adv-x="958" 
d="M904 1294l-509 -1294h-130l510 1275h-727v118h856v-99z" />
    <glyph glyph-name="eight" unicode="8" horiz-adv-x="1105" 
d="M64 382q0 119 68.5 213t186.5 144q-92 47 -145.5 129t-53.5 182q0 156 123.5 253.5t310.5 97.5q184 0 307.5 -98t123.5 -253q0 -100 -53.5 -182t-146.5 -131q116 -51 184 -144t68 -211q0 -173 -138.5 -282.5t-346.5 -109.5q-210 0 -349 109.5t-139 282.5zM554 1283
q-137 0 -226 -66.5t-89 -176.5q0 -112 89.5 -184.5t223.5 -72.5q135 0 224 72t89 185q0 110 -88 176.5t-223 66.5zM552 683q-159 0 -263.5 -82.5t-104.5 -210.5q0 -127 104.5 -203.5t263.5 -76.5t262.5 75.5t103.5 202.5q0 130 -103.5 212.5t-262.5 82.5z" />
    <glyph glyph-name="nine" unicode="9" horiz-adv-x="1066" 
d="M1014 921q0 -176 -108 -307l-488 -614h-139l350 451q-52 -9 -93 -9q-132 0 -241.5 64t-171.5 174t-62 241q0 199 137.5 339.5t337.5 140.5q201 0 339.5 -140.5t138.5 -339.5zM534 560q152 0 257 106t105 255t-104.5 255.5t-255.5 106.5q-150 0 -253.5 -107t-103.5 -255
q0 -149 102.5 -255t252.5 -106z" />
    <glyph glyph-name="colon" unicode=":" horiz-adv-x="316" 
d="M77 880q0 36 20.5 57t56.5 21t56.5 -21t20.5 -57q0 -35 -20.5 -56t-56.5 -21t-56.5 21t-20.5 56zM77 69q0 35 20.5 56t56.5 21t56.5 -21t20.5 -56q0 -36 -20.5 -57.5t-56.5 -21.5t-56.5 21.5t-20.5 57.5z" />
    <glyph glyph-name="semicolon" unicode=";" horiz-adv-x="299" 
d="M69 880q0 36 20.5 57t56.5 21q35 0 56 -21t21 -57q0 -34 -21.5 -55.5t-55.5 -21.5q-36 0 -56.5 21t-20.5 56zM69 69q0 35 20.5 56t56.5 21q34 0 55.5 -21t21.5 -56q0 -65 -16 -114t-55 -117l-16 -30h-72l28 54q40 77 47 128q-33 2 -51.5 23t-18.5 56z" />
    <glyph glyph-name="less" unicode="&#x3c;" horiz-adv-x="865" 
d="M74 570v123l719 293v-123l-569 -232l569 -231v-123z" />
    <glyph glyph-name="equal" unicode="=" horiz-adv-x="869" 
d="M74 809v118h719v-118h-719zM74 390v118h719v-118h-719z" />
    <glyph glyph-name="greater" unicode="&#x3e;" horiz-adv-x="865" 
d="M74 277v123l568 231l-568 232v123l719 -293v-123z" />
    <glyph glyph-name="question" unicode="?" horiz-adv-x="1064" 
d="M534 357h-118v79q0 126 62 207t186 135q74 33 115.5 65.5t63.5 81t22 119.5q0 106 -94 174t-234 68q-134 0 -223 -67.5t-99 -184.5h-120q5 115 66 199t158.5 126t217.5 42q126 0 226.5 -42t160.5 -124.5t61 -192.5q1 -64 -11.5 -114.5t-33.5 -86t-58 -66t-73.5 -51.5
t-92.5 -46q-182 -81 -182 -242v-79zM398 69q0 35 20.5 56t56.5 21t56.5 -21t20.5 -56q0 -36 -20.5 -57.5t-56.5 -21.5t-56.5 21.5t-20.5 57.5z" />
    <glyph glyph-name="at" unicode="@" horiz-adv-x="1794" 
d="M898 1419q168 0 318.5 -62t258.5 -168t171 -253.5t63 -312.5q0 -203 -78.5 -323t-214.5 -120q-100 0 -172 57t-102 153q-35 -85 -117 -136.5t-185 -51.5q-160 0 -259 106.5t-99 279.5q0 174 99 279.5t259 105.5q97 0 178 -50t108 -128v170h95v-444q0 -113 51.5 -178.5
t138.5 -65.5q92 0 146.5 95.5t54.5 250.5q0 146 -55.5 275.5t-150.5 222.5t-228.5 147t-282.5 54q-144 0 -276 -57t-228 -153.5t-152.5 -230t-56.5 -278.5q0 -148 56.5 -282.5t152 -232t229 -155.5t281.5 -58q114 0 216.5 28t219.5 92l-2 -97q-195 -119 -427 -119
q-168 0 -320 64t-262.5 173.5t-175.5 261.5t-65 320q0 223 108.5 412t295.5 299t409 110zM577 588q0 -130 76.5 -210t196.5 -80q124 0 200 80t76 210q0 128 -77.5 209t-198.5 81t-197 -80t-76 -210z" />
    <glyph glyph-name="A" unicode="A" horiz-adv-x="1325" 
d="M16 0l584 1393h127l584 -1393h-128l-166 395h-707l-166 -395h-128zM357 511h613l-306 729z" />
    <glyph glyph-name="B" unicode="B" horiz-adv-x="1094" 
d="M75 0v1393h510q179 0 284.5 -98.5t105.5 -268.5q0 -113 -48.5 -193.5t-138.5 -119.5q115 -39 182 -126.5t67 -201.5q0 -170 -109 -277.5t-281 -107.5h-572zM585 1275h-390v-513h405q118 0 186.5 69t68.5 188q0 117 -73 186.5t-197 69.5zM647 120q121 0 196 74.5t75 195.5
q0 111 -89 185t-229 74h-405v-529h452z" />
    <glyph glyph-name="C" unicode="C" horiz-adv-x="1358" 
d="M1158 911q-56 174 -181 270.5t-297 96.5q-225 0 -362.5 -160t-137.5 -422q0 -261 138.5 -420.5t363.5 -159.5q176 0 303.5 98.5t174.5 267.5h126q-49 -227 -212 -358.5t-391 -131.5q-279 0 -450.5 193.5t-171.5 510.5q0 318 170.5 511.5t451.5 193.5q227 0 386 -131
t217 -359h-128z" />
    <glyph glyph-name="D" unicode="D" horiz-adv-x="1222" 
d="M480 0h-401v1393h386q337 0 516 -179.5t179 -517.5q0 -336 -176 -516t-504 -180zM465 1275h-268v-1155h283q271 0 415.5 148.5t144.5 427.5q0 283 -147 431t-428 148z" />
    <glyph glyph-name="E" unicode="E" horiz-adv-x="958" 
d="M880 1275h-685v-520h670v-118h-670v-517h700v-120h-820v1393h805v-118z" />
    <glyph glyph-name="F" unicode="F" horiz-adv-x="938" 
d="M195 0h-120v1393h805v-118h-685v-520h670v-118h-670v-637z" />
    <glyph glyph-name="G" unicode="G" horiz-adv-x="1407" 
d="M623 641v113h716q4 -31 4 -68q0 -150 -49 -280t-133.5 -220.5t-201.5 -142t-251 -51.5q-137 0 -257 52.5t-206.5 144.5t-136 223.5t-49.5 283.5q0 201 83 362.5t230 252t331 90.5q206 0 358.5 -104.5t226.5 -293.5h-128q-65 134 -183 206t-272 72q-230 0 -378 -162.5
t-148 -422.5q0 -261 148 -423t382 -162q140 0 253.5 65.5t182 186.5t77.5 278h-599z" />
    <glyph glyph-name="H" unicode="H" horiz-adv-x="1178" 
d="M198 0h-118v1393h118v-638h785v638h120v-1393h-120v637h-785v-637z" />
    <glyph glyph-name="I" unicode="I" horiz-adv-x="304" 
d="M211 0h-118v1393h118v-1393z" />
    <glyph glyph-name="J" unicode="J" horiz-adv-x="1042" 
d="M847 495v898h120v-898q0 -227 -126 -365t-330 -138q-176 0 -296 102t-153 278h126q25 -121 112.5 -191t210.5 -70q152 0 244 105t92 279z" />
    <glyph glyph-name="K" unicode="K" horiz-adv-x="1066" 
d="M203 0h-119v1393h119v-682l642 682h146l-657 -697l710 -696h-158l-683 675v-675z" />
    <glyph glyph-name="L" unicode="L" horiz-adv-x="955" 
d="M893 120v-120h-818v1393h120v-1273h698z" />
    <glyph glyph-name="M" unicode="M" horiz-adv-x="1418" 
d="M193 0h-119v1393h119l516 -824l517 824h117v-1393h-117v1165l-469 -737h-97l-467 737v-1165z" />
    <glyph glyph-name="N" unicode="N" horiz-adv-x="1258" 
d="M193 0h-119v1393h119l869 -1193v1193h119v-1393h-119l-869 1193v-1193z" />
    <glyph glyph-name="O" unicode="O" horiz-adv-x="1381" 
d="M66 696q0 204 80 365t223.5 250.5t325.5 89.5q184 0 328 -89t224 -250t80 -366t-80 -366t-224 -250.5t-328 -89.5q-182 0 -325.5 89.5t-223.5 250.5t-80 366zM695 1285q-149 0 -265.5 -74.5t-181 -209t-64.5 -305.5q0 -260 143 -425t368 -165q227 0 370 165t143 425
t-143 424.5t-370 164.5z" />
    <glyph glyph-name="P" unicode="P" horiz-adv-x="1079" 
d="M555 531h-360v-531h-120v1393h466q215 0 345 -116.5t130 -313.5q0 -194 -127.5 -313t-333.5 -119zM541 1275h-346v-626h360q152 0 246.5 87t94.5 227q0 141 -97 226.5t-258 85.5z" />
    <glyph glyph-name="Q" unicode="Q" horiz-adv-x="1423" 
d="M66 696q0 314 174.5 509.5t454.5 195.5q185 0 329 -88.5t223.5 -249t79.5 -367.5q0 -171 -55 -311t-156 -236l160 -319h-132l-125 247q-143 -87 -324 -87q-280 0 -454.5 196t-174.5 510zM695 1285q-226 0 -368.5 -164t-142.5 -425t142.5 -425.5t368.5 -164.5
q228 0 370.5 164t142.5 426q0 263 -142 426t-371 163z" />
    <glyph glyph-name="R" unicode="R" horiz-adv-x="1091" 
d="M75 0v1393h467q215 0 345 -116.5t130 -313.5q0 -160 -88 -270.5t-239 -146.5l375 -546h-143l-362 531h-365v-531h-120zM542 1275h-347v-626h362q152 0 246.5 87t94.5 227q0 141 -97.5 226.5t-258.5 85.5z" />
    <glyph glyph-name="S" unicode="S" 
d="M67 400h118q12 -131 118.5 -213t258.5 -82t250 78.5t102 191.5q1 37 -6.5 69t-24.5 57t-35 45t-48 37.5t-53.5 29t-62 24t-62.5 19t-65 17.5q-163 41 -189 49q-152 50 -209 143q-46 74 -46 187q1 113 63 193.5t160.5 118t222.5 37.5q120 0 217.5 -43t158.5 -127.5
t66 -196.5h-118q-11 116 -101 184t-223 68q-141 0 -233.5 -62t-94.5 -172q-1 -53 16 -93t44.5 -65t71 -44.5t86 -31.5t97.5 -25q21 -5 31 -7q74 -17 130 -34.5t121.5 -50.5t107.5 -74t69.5 -106t26.5 -146q-1 -74 -35 -143.5t-93.5 -122.5t-148 -85.5t-191.5 -33.5
q-204 0 -344.5 112t-152.5 298z" />
    <glyph glyph-name="T" unicode="T" horiz-adv-x="1086" 
d="M601 0h-119v1275h-444v118h1009v-118h-446v-1275z" />
    <glyph glyph-name="U" unicode="U" horiz-adv-x="1273" 
d="M80 696v697h120v-697q0 -297 107 -443.5t324 -146.5q432 0 432 590v697h118v-697q0 -345 -140.5 -525.5t-409.5 -180.5q-270 0 -410.5 180t-140.5 526z" />
    <glyph glyph-name="V" unicode="V" horiz-adv-x="1282" 
d="M703 0h-128l-562 1393h128l498 -1236l498 1236h128z" />
    <glyph glyph-name="W" unicode="W" horiz-adv-x="1744" 
d="M462 0v2l-447 1391h123l380 -1170l291 1170h123l290 -1172l380 1172h123l-447 -1393h-123l-285 1147l-287 -1147h-121z" />
    <glyph glyph-name="X" unicode="X" horiz-adv-x="1194" 
d="M1171 0h-144l-434 596l-432 -596h-145l505 696l-505 697h145l432 -597l434 597h144l-506 -697z" />
    <glyph glyph-name="Y" unicode="Y" horiz-adv-x="1173" 
d="M646 591v-591h-120v591l-511 802h139l431 -705l432 705h140z" />
    <glyph glyph-name="Z" unicode="Z" horiz-adv-x="1087" 
d="M59 0v92l804 1184h-793v117h951v-95l-801 -1182h811v-116h-972z" />
    <glyph glyph-name="bracketleft" unicode="[" horiz-adv-x="648" 
d="M113 -326v1861h480v-118h-362v-1625h362v-118h-480z" />
    <glyph glyph-name="backslash" unicode="\" horiz-adv-x="688" 
d="M539 0l-514 1393h119l515 -1393h-120z" />
    <glyph glyph-name="bracketright" unicode="]" horiz-adv-x="648" 
d="M62 -326v118h361v1625h-361v118h480v-1861h-480z" />
    <glyph glyph-name="asciicircum" unicode="^" horiz-adv-x="794" 
d="M464 1393l270 -325h-133l-205 246l-204 -246h-133l270 325h135z" />
    <glyph glyph-name="underscore" unicode="_" horiz-adv-x="758" 
d="M70 0v118h620v-118h-620z" />
    <glyph glyph-name="grave" unicode="`" horiz-adv-x="276" 
d="M144 1070l-128 323h133l92 -323h-97z" />
    <glyph glyph-name="a" unicode="a" horiz-adv-x="1123" 
d="M901 0v229q-36 -108 -139 -173.5t-230 -65.5q-210 0 -340 138.5t-130 364.5q0 227 129.5 364.5t340.5 137.5q125 0 229 -67t140 -174v229h120v-983h-120zM182 493q0 -172 100.5 -277.5t259.5 -105.5q161 0 260.5 105t98.5 277q0 170 -101 277.5t-258 107.5
q-159 0 -259.5 -106t-100.5 -278z" />
    <glyph glyph-name="b" unicode="b" horiz-adv-x="1130" 
d="M216 0h-119v1394h119v-640q36 107 141 174t230 67q210 0 339 -137.5t129 -364.5q0 -226 -129.5 -364.5t-338.5 -138.5q-128 0 -231.5 65.5t-139.5 173.5v-229zM937 493q0 172 -100.5 278t-259.5 106q-158 0 -259.5 -107.5t-101.5 -277.5q-1 -172 98.5 -277t260.5 -105
q159 0 260.5 105.5t101.5 277.5z" />
    <glyph glyph-name="c" unicode="c" horiz-adv-x="1091" 
d="M541 878q-157 0 -255.5 -105.5t-98.5 -277.5t98.5 -278t255.5 -106q124 0 214 69t126 192h127q-43 -179 -166.5 -279.5t-300.5 -100.5q-211 0 -341.5 138.5t-130.5 364.5q0 225 130.5 363t341.5 138q177 0 300.5 -100t166.5 -278h-127q-39 125 -128 192.5t-212 67.5z" />
    <glyph glyph-name="d" unicode="d" horiz-adv-x="1133" 
d="M924 0v229q-36 -108 -139 -173.5t-231 -65.5q-210 0 -339.5 139t-129.5 364q0 227 129 364.5t340 137.5q125 0 229.5 -67t140.5 -174v640h120v-1394h-120zM203 493q0 -172 101.5 -277.5t260.5 -105.5t259 105t100 277q0 170 -101 277.5t-259 107.5q-159 0 -260 -106
t-101 -278z" />
    <glyph glyph-name="e" unicode="e" 
d="M857 301h124q-51 -139 -168 -224t-262 -85q-209 0 -341.5 141t-132.5 362q0 214 135 357.5t335 143.5q130 0 238 -64.5t170 -176.5t62 -247q0 -29 -3 -59h-816q14 -155 110 -249.5t241 -94.5q105 0 185.5 53.5t122.5 142.5zM198 541h700q-11 148 -110.5 245t-240.5 97
q-140 0 -237 -95.5t-112 -246.5z" />
    <glyph glyph-name="f" unicode="f" horiz-adv-x="671" 
d="M220 0v870h-164v113h164v103q0 169 69.5 243.5t223.5 74.5h93v-118h-83q-98 0 -141 -47.5t-43 -157.5v-98h267v-113h-267v-870h-119z" />
    <glyph glyph-name="g" unicode="g" 
d="M891 52v177q-34 -107 -136.5 -173t-223.5 -66q-200 0 -331 140t-131 363q0 224 130.5 363t331.5 139q121 0 224 -69t136 -172v229h120v-931q0 -226 -125.5 -364.5t-328.5 -138.5q-165 0 -285.5 92t-165.5 267h125q39 -119 127 -180t199 -61q149 0 241.5 105.5t92.5 279.5
zM187 493q0 -170 102 -276.5t253 -106.5q152 0 251 105.5t98 276.5q0 166 -99 275.5t-251 109.5q-149 0 -251.5 -107t-102.5 -277z" />
    <glyph glyph-name="h" unicode="h" horiz-adv-x="1014" 
d="M803 493q0 175 -83 279.5t-222 104.5q-127 0 -208.5 -109t-81.5 -276v-492h-120v1393h120v-639q30 107 113.5 174t194.5 67q186 0 296 -137t110 -365v-493h-119v493z" />
    <glyph glyph-name="i" unicode="i" horiz-adv-x="308" 
d="M77 1289q0 36 20.5 57.5t56.5 21.5t56.5 -21.5t20.5 -57.5q0 -35 -20.5 -56t-56.5 -21t-56.5 21t-20.5 56zM215 0h-120v983h120v-983z" />
    <glyph glyph-name="j" unicode="j" horiz-adv-x="321" 
d="M84 1289q0 36 20.5 57.5t56.5 21.5t56.5 -21.5t20.5 -57.5q0 -35 -20.5 -56t-56.5 -21t-56.5 21t-20.5 56zM220 983v-1116q0 -169 -69.5 -243.5t-224.5 -74.5h-91v118h81q99 0 142.5 47.5t43.5 157.5v1111h118z" />
    <glyph glyph-name="k" unicode="k" horiz-adv-x="865" 
d="M203 0h-118v1393h118v-883l469 473h139l-473 -491l507 -492h-155l-487 473v-473z" />
    <glyph glyph-name="l" unicode="l" horiz-adv-x="308" 
d="M213 0h-118v1393h118v-1393z" />
    <glyph glyph-name="m" unicode="m" horiz-adv-x="1725" 
d="M808 493q0 175 -83 279.5t-222 104.5q-127 0 -209.5 -109t-82.5 -276v-492h-118v983h118v-229q30 107 113.5 174t194.5 67q130 0 225 -68t142 -191q45 123 132 191t203 68q192 0 306.5 -137t114.5 -365v-493h-120v493q0 175 -83 279.5t-222 104.5q-127 0 -209 -109
t-82 -276v-492h-118v493z" />
    <glyph glyph-name="n" unicode="n" horiz-adv-x="1010" 
d="M804 493q0 175 -82.5 279.5t-221.5 104.5q-127 0 -209.5 -109t-82.5 -276v-492h-118v983h118v-229q30 107 113.5 174t194.5 67q186 0 296 -137t110 -365v-493h-118v493z" />
    <glyph glyph-name="o" unicode="o" horiz-adv-x="1081" 
d="M64 493q0 212 137.5 357t337.5 145q132 0 241.5 -66t171.5 -181t62 -255t-62 -255.5t-171 -181.5t-242 -66q-201 0 -338 145t-137 358zM539 877q-150 0 -253.5 -111t-103.5 -273q0 -163 103 -273t254 -110q152 0 254 110t102 273q0 162 -102.5 273t-253.5 111z" />
    <glyph glyph-name="p" unicode="p" horiz-adv-x="1102" 
d="M197 983v-229q36 108 138.5 173.5t229.5 65.5q210 0 340 -138.5t130 -364.5t-129.5 -363.5t-340.5 -137.5q-125 0 -228.5 66.5t-139.5 173.5v-640h-120v1394h120zM916 490q0 172 -101 278.5t-260 106.5q-161 0 -260 -105.5t-98 -277.5q0 -170 100.5 -277t257.5 -107
q159 0 260 105.5t101 276.5z" />
    <glyph glyph-name="q" unicode="q" horiz-adv-x="1114" 
d="M908 983h119v-1394h-119v640q-36 -107 -141 -173.5t-230 -66.5q-211 0 -339.5 137t-128.5 364q0 226 129.5 364.5t338.5 138.5q128 0 231.5 -65.5t139.5 -173.5v229zM187 490q0 -171 100.5 -276.5t259.5 -105.5q158 0 259.5 107t101.5 277q0 172 -100 277.5t-259 105.5
t-260.5 -106.5t-101.5 -278.5z" />
    <glyph glyph-name="r" unicode="r" horiz-adv-x="666" 
d="M618 995v-118q-197 2 -307.5 -103t-110.5 -294v-480h-120v983h120v-239q100 251 418 251z" />
    <glyph glyph-name="s" unicode="s" horiz-adv-x="845" 
d="M57 295h115q6 -83 81.5 -141.5t177.5 -60.5q100 -2 164 43.5t64 120.5q0 82 -61 128t-208 84q-67 17 -117 38.5t-92.5 53.5t-65 77t-22.5 103q0 112 96 183t239 71q135 0 224.5 -72.5t109.5 -195.5h-110q-13 73 -75 117.5t-149 46.5q-91 2 -153 -41t-62 -108
q0 -30 10 -55t32 -43t40.5 -30.5t50 -23t44 -14t38.5 -9.5q135 -36 184 -59q148 -68 164 -211q2 -19 2 -40q0 -118 -98.5 -192.5t-251.5 -74.5q-144 0 -254.5 86.5t-116.5 218.5z" />
    <glyph glyph-name="t" unicode="t" horiz-adv-x="683" 
d="M257 1191h87v-208h267v-113h-267v-547q0 -109 43.5 -157t141.5 -48h82v-118h-92q-155 0 -224 74.5t-69 243.5v552h-169v113h169z" />
    <glyph glyph-name="u" unicode="u" horiz-adv-x="986" 
d="M195 490q0 -175 83 -278.5t223 -103.5q125 0 207.5 108.5t82.5 275.5v491h118v-983h-118v229q-30 -106 -113.5 -173t-194.5 -67q-186 0 -296 136.5t-110 364.5v493h118v-493z" />
    <glyph glyph-name="v" unicode="v" horiz-adv-x="989" 
d="M557 0h-126l-411 983h127l346 -831l347 831h128z" />
    <glyph glyph-name="w" unicode="w" horiz-adv-x="1440" 
d="M464 0h-125l-318 983h125l255 -791l254 791h125l255 -791l256 791h123l-316 -983h-125l-255 791z" />
    <glyph glyph-name="x" unicode="x" horiz-adv-x="912" 
d="M25 0l360 492l-360 491h144l288 -393l288 393h145l-361 -491l361 -492h-145l-288 393l-288 -393h-144z" />
    <glyph glyph-name="y" unicode="y" horiz-adv-x="989" 
d="M557 0l-43 -106q-53 -137 -112.5 -194t-173.5 -57h-46v118h38q61 0 103 36t75 118l33 85l-411 983h127l346 -831l347 831h128z" />
    <glyph glyph-name="z" unicode="z" horiz-adv-x="868" 
d="M59 0v92l570 775h-559v116h720v-95l-566 -772h576v-116h-741z" />
    <glyph glyph-name="braceleft" unicode="{" horiz-adv-x="755" 
d="M184 605q61 0 113 -63.5t52 -154.5v-228q0 -193 57.5 -280t186.5 -87h74v-118h-74q-190 0 -276 115t-86 365v233q0 73 -40 113.5t-101 48.5v110q60 8 100.5 53.5t40.5 126.5v216q0 250 86 365t276 115h74v-118h-74q-129 0 -186.5 -86.5t-57.5 -280.5v-211
q0 -95 -51.5 -164.5t-113.5 -69.5z" />
    <glyph glyph-name="bar" unicode="|" horiz-adv-x="389" 
d="M254 -249h-118v1724h118v-1724z" />
    <glyph glyph-name="braceright" unicode="}" horiz-adv-x="755" 
d="M573 605q-62 0 -113.5 69.5t-51.5 164.5v211q0 194 -57.5 280.5t-186.5 86.5h-74v118h74q190 0 276 -115t86 -365v-216q0 -81 40.5 -126.5t100.5 -53.5v-110q-61 -8 -101 -48.5t-40 -113.5v-233q0 -250 -86 -365t-276 -115h-74v118h74q129 0 186.5 87t57.5 280v228
q0 91 51.5 154.5t113.5 63.5z" />
    <glyph glyph-name="asciitilde" unicode="~" horiz-adv-x="884" 
d="M131 464h-82q10 128 66.5 206.5t138.5 78.5q46 0 87.5 -19.5t72.5 -46.5t62 -54.5t68.5 -47t78.5 -19.5q53 0 85.5 49.5t38.5 137.5h80q-4 -128 -60 -206.5t-144 -78.5q-51 0 -95 19t-75.5 46.5t-60.5 55t-63.5 46.5t-71.5 19q-48 0 -84 -53t-42 -133z" />
    <glyph glyph-name="exclamdown" unicode="&#xa1;" horiz-adv-x="339" 
d="M80 919q0 35 20.5 56t56.5 21t56.5 -21t20.5 -56q0 -36 -20.5 -57.5t-56.5 -21.5t-56.5 21.5t-20.5 57.5zM106 629h102l8 -1035h-119z" />
    <glyph glyph-name="cent" unicode="&#xa2;" horiz-adv-x="1101" 
d="M547 878q-158 0 -256.5 -105.5t-98.5 -277.5q0 -173 98.5 -278.5t256.5 -105.5q123 0 213 69t126 192h127q-39 -164 -147 -262.5t-263 -114.5v-244h-118v244q-186 21 -298.5 156t-112.5 344q0 206 112 341t296 157v239h118v-239q157 -15 265.5 -113t147.5 -262h-127
q-38 125 -126.5 192.5t-212.5 67.5z" />
    <glyph glyph-name="sterling" unicode="&#xa3;" horiz-adv-x="1073" 
d="M75 113q73 19 115.5 89.5t42.5 171.5v276h-166v113h166v323q0 169 68 243.5t223 74.5h400v-118h-393q-96 0 -138 -47.5t-42 -157.5v-318h468v-113l-468 -9v-267q0 -170 -105 -261h740v-113h-911v113z" />
    <glyph glyph-name="currency" unicode="&#xa4;" horiz-adv-x="1199" 
d="M110 683q0 170 95 302l-107 108l84 83l105 -103q134 112 311 112q175 0 308 -109l107 105l83 -83l-108 -108q97 -134 97 -307q0 -174 -99 -308l112 -111l-84 -84l-108 108q-131 -108 -308 -108q-176 0 -310 110l-106 -106l-84 83l110 110q-98 133 -98 306zM600 1067
q-157 0 -264 -110t-107 -272q0 -165 106.5 -275t264.5 -110q156 0 261.5 110t105.5 275q0 162 -105.5 272t-261.5 110z" />
    <glyph glyph-name="yen" unicode="&#xa5;" horiz-adv-x="1173" 
d="M223 577v118h237l-445 698h139l428 -698h8l427 698h140l-446 -698h231v-118h-296v-200h296v-118h-296v-259h-120v259h-303v118h303v200h-303z" />
    <glyph glyph-name="brokenbar" unicode="&#xa6;" horiz-adv-x="381" 
d="M246 693h-120v782h120v-782zM246 -249h-120v781h120v-781z" />
    <glyph glyph-name="section" unicode="&#xa7;" horiz-adv-x="961" 
d="M44 -44h107q11 -113 103.5 -184.5t223.5 -71.5q132 0 218.5 69t88.5 167q0 36 -10 67t-24.5 53.5t-41.5 42.5t-49.5 32.5t-60 25.5t-61.5 20t-65 18q-147 36 -176 46q-138 46 -184 140q-29 59 -29 143q2 97 51 171.5t134 117.5q-88 34 -136.5 97t-48.5 176q2 147 113 227
t278 80q161 0 271 -87.5t117 -235.5h-106q-10 101 -88 160t-194 59q-123 0 -202 -53.5t-81 -149.5q-1 -46 15.5 -81.5t34.5 -55.5t65 -39.5t70 -26t87 -21.5q19 -5 28 -7q64 -14 113.5 -29.5t106.5 -44.5t93.5 -65t61.5 -93t24 -127q-2 -88 -54.5 -157t-145.5 -106
q203 -99 200 -297q-2 -136 -117 -236t-294 -101q-179 0 -302 97.5t-134 259.5zM492 295q132 2 211.5 55t81.5 146q1 37 -10 69.5t-27 55t-44.5 43t-52.5 33t-62 25.5t-61.5 19t-62.5 16q-116 -4 -193.5 -69.5t-79.5 -161.5q-1 -46 15 -81t34.5 -55t63 -39t69.5 -26t86 -22
q21 -5 32 -8z" />
    <glyph glyph-name="dieresis" unicode="&#xa8;" horiz-adv-x="601" 
d="M39 1289q0 36 20.5 57.5t56.5 21.5t56.5 -21.5t20.5 -57.5q0 -35 -20.5 -56t-56.5 -21t-56.5 21t-20.5 56zM405 1289q0 36 21 57.5t57 21.5q35 0 55.5 -21.5t20.5 -57.5q0 -35 -21 -56t-55 -21q-36 0 -57 21t-21 56z" />
    <glyph glyph-name="copyright" unicode="&#xa9;" horiz-adv-x="1558" 
d="M70 696q0 146 55.5 276.5t149.5 224.5t225 149t277 55t276.5 -55t225 -149t149.5 -224.5t55 -276.5t-55 -276.5t-149 -225t-225 -149.5t-277 -55t-277 55t-225 149.5t-149.5 225t-55.5 276.5zM777 1304q-168 0 -308 -80.5t-221 -220t-81 -307.5t81 -308t221 -220.5
t308 -80.5q169 0 309 80.5t220 220.5t80 308t-80.5 307.5t-220.5 220t-308 80.5zM777 954q-109 0 -177 -73t-68 -193t68 -193.5t177 -73.5q85 0 147 47.5t89 132.5h93q-29 -127 -116.5 -198.5t-212.5 -71.5q-150 0 -243 98t-93 259q0 160 93 258t243 98q124 0 212 -71.5
t117 -197.5h-93q-27 85 -88.5 132t-147.5 47z" />
    <glyph glyph-name="ordfeminine" unicode="&#xaa;" horiz-adv-x="516" 
d="M396 922v87q-13 -38 -58 -64.5t-94 -26.5q-88 0 -140 41t-52 108q0 139 197 139h147v13q0 63 -33 96t-96 33q-50 0 -86 -23.5t-43 -61.5h-69q6 65 61.5 106.5t134.5 41.5q94 0 146.5 -50.5t52.5 -141.5v-297h-68zM120 1070q0 -41 35 -65t96 -24q62 0 103.5 40.5
t41.5 100.5v35h-145q-131 0 -131 -87z" />
    <glyph glyph-name="guillemotleft" unicode="&#xab;" horiz-adv-x="1199" 
d="M80 588l367 395h162l-367 -395l367 -395h-162zM591 588l367 395h163l-367 -395l367 -395h-163z" />
    <glyph glyph-name="logicalnot" unicode="&#xac;" horiz-adv-x="981" 
d="M84 865v118h801v-464h-118v346h-683z" />
    <glyph glyph-name="registered" unicode="&#xae;" horiz-adv-x="845" 
d="M64 1042q0 151 104 255t256 104q150 0 254.5 -104t104.5 -255q0 -152 -104 -256t-255 -104q-152 0 -256 104t-104 256zM424 1355q-133 0 -224.5 -90.5t-91.5 -222.5t91.5 -222.5t224.5 -90.5t223 90t90 223q0 132 -91 222.5t-222 90.5zM293 845v400h135q63 0 99.5 -33.5
t36.5 -89.5q0 -44 -22 -75.5t-59 -45.5l99 -156h-53l-93 148h-97v-148h-46zM428 1201h-89v-164h94q38 0 62 23.5t24 61.5q0 37 -24 58t-67 21z" />
    <glyph glyph-name="macron" unicode="&#xaf;" horiz-adv-x="866" 
d="M69 1186v120h727v-120h-727z" />
    <glyph glyph-name="degree" unicode="&#xb0;" horiz-adv-x="642" 
d="M46 1357q0 121 79 202t196 81t196 -81t79 -202t-79 -202.5t-196 -81.5t-196 81.5t-79 202.5zM323 1547q-78 0 -131.5 -54t-53.5 -135q0 -82 52.5 -136.5t132.5 -54.5q76 0 128 55t52 136q0 79 -51.5 134t-128.5 55z" />
    <glyph glyph-name="plusminus" unicode="&#xb1;" horiz-adv-x="869" 
d="M74 819v118h301v302h118v-302h300v-118h-300v-300h-118v300h-301zM74 244v118h719v-118h-719z" />
    <glyph glyph-name="twosuperior" unicode="&#xb2;" horiz-adv-x="539" 
d="M48 708v49q0 104 48 167t143 110q106 54 145.5 95t39.5 97q0 50 -40 81.5t-105 31.5t-106 -35t-45 -93h-66q2 88 63.5 139t153.5 51q93 0 151 -47t58 -130q0 -28 -8 -53.5t-18.5 -45t-30.5 -39.5t-34.5 -32t-40 -27t-36.5 -21t-35.5 -18t-27.5 -13q-75 -37 -109.5 -85
t-36.5 -117h382v-65h-445z" />
    <glyph glyph-name="threesuperior" unicode="&#xb3;" horiz-adv-x="547" 
d="M221 1108h64q66 0 102.5 30.5t36.5 83.5q0 50 -36.5 78.5t-99.5 28.5q-65 0 -101.5 -32.5t-40.5 -90.5h-84q0 101 65 152t160 51q99 0 161 -49.5t62 -140.5q0 -95 -76 -147q90 -54 90 -158q0 -99 -65.5 -152.5t-171.5 -53.5q-105 0 -172 52t-67 149h81q2 -57 44 -89
t114 -32q71 0 112.5 33.5t41.5 89.5q0 55 -41 86.5t-115 31.5h-64v79z" />
    <glyph glyph-name="acute" unicode="&#xb4;" horiz-adv-x="289" 
d="M133 1070h-95l91 323h132z" />
    <glyph glyph-name="paragraph" unicode="&#xb6;" horiz-adv-x="1300" 
d="M1078 -210v1485h-390v-1485h-119v721q-212 0 -347 125t-135 318q0 194 130 316.5t352 122.5h629v-1603h-120z" />
    <glyph glyph-name="periodcentered" unicode="&#xb7;" horiz-adv-x="352" 
d="M93 770q0 35 20.5 56t56.5 21t56.5 -21t20.5 -56t-20.5 -56t-56.5 -21t-56.5 21t-20.5 56z" />
    <glyph glyph-name="cedilla" unicode="&#xb8;" horiz-adv-x="181" 
d="M-38 -274l86 294h96l-60 -294h-122z" />
    <glyph glyph-name="onesuperior" unicode="&#xb9;" horiz-adv-x="334" 
d="M206 708v614l-163 -59v69l175 61h52v-685h-64z" />
    <glyph glyph-name="ordmasculine" unicode="&#xba;" horiz-adv-x="635" 
d="M44 1055q0 153 76 249.5t199 96.5t199.5 -96.5t76.5 -249.5q0 -155 -76 -251t-200 -96q-123 0 -199 96t-76 251zM319 1337q-95 0 -153 -78.5t-58 -203.5q0 -127 57.5 -205t153.5 -78t154 78t58 205q0 126 -58 204t-154 78z" />
    <glyph glyph-name="guillemotright" unicode="&#xbb;" horiz-adv-x="1196" 
d="M1121 588l-367 -395h-163l367 395l-367 395h163zM609 588l-367 -395h-162l367 395l-367 395h162z" />
    <glyph glyph-name="onequarter" unicode="&#xbc;" horiz-adv-x="1387" 
d="M423 0h-81l515 1393h80zM233 708v614l-164 -59v69l175 61h54v-685h-65zM788 161v63l361 461h63v-461h91v-63h-91v-161h-63v161h-361zM870 224h279v359z" />
    <glyph glyph-name="questiondown" unicode="&#xbf;" horiz-adv-x="997" 
d="M644 916q0 -35 -20.5 -56t-56.5 -21t-56.5 21t-20.5 56q0 36 20.5 57.5t56.5 21.5t56.5 -21.5t20.5 -57.5zM508 628h118v-79q0 -126 -62.5 -207.5t-185.5 -135.5q-111 -49 -156 -105t-45 -160q0 -107 94 -174.5t234 -67.5q134 0 223 67t99 183h120q-7 -170 -132 -267.5
t-310 -97.5q-126 0 -226.5 42t-160.5 124.5t-61 192.5q-1 64 11.5 114.5t33.5 85.5t58 66t73.5 51.5t92.5 45.5q182 81 182 243v79z" />
    <glyph glyph-name="Agrave" unicode="&#xc0;" horiz-adv-x="1325" 
d="M609 1479l-127 323h132l92 -323h-97zM16 0l584 1393h127l584 -1393h-128l-166 395h-707l-166 -395h-128zM357 511h613l-306 729z" />
    <glyph glyph-name="Aacute" unicode="&#xc1;" horiz-adv-x="1325" 
d="M713 1479h-97l92 323h132zM16 0l584 1393h127l584 -1393h-128l-166 395h-707l-166 -395h-128zM357 511h613l-306 729z" />
    <glyph glyph-name="Acircumflex" unicode="&#xc2;" horiz-adv-x="1325" 
d="M729 1802l272 -324h-134l-203 246l-205 -246h-135l272 324h133zM16 0l584 1393h127l584 -1393h-128l-166 395h-707l-166 -395h-128zM357 511h613l-306 729z" />
    <glyph glyph-name="Atilde" unicode="&#xc3;" horiz-adv-x="1325" 
d="M383 1519h-82q8 127 61 206t130 79q42 0 81 -19.5t69.5 -46.5t59 -54.5t61.5 -47t66 -19.5q48 0 77.5 49t35.5 138h82q-4 -128 -57 -206.5t-135 -78.5q-46 0 -86 19.5t-69 46.5t-56 54.5t-58.5 47t-64.5 19.5q-44 0 -77 -53.5t-38 -133.5zM16 0l584 1393h127l584 -1393
h-128l-166 395h-707l-166 -395h-128zM357 511h613l-306 729z" />
    <glyph glyph-name="Adieresis" unicode="&#xc4;" horiz-adv-x="1325" 
d="M403 1699q0 36 20.5 57.5t56.5 21.5q35 0 56 -21.5t21 -57.5q0 -35 -21.5 -56t-55.5 -21q-36 0 -56.5 21t-20.5 56zM768 1699q0 36 21 57.5t58 21.5q34 0 54.5 -21.5t20.5 -57.5q0 -35 -20.5 -56t-54.5 -21q-36 0 -57.5 21t-21.5 56zM16 0l584 1393h127l584 -1393h-128
l-166 395h-707l-166 -395h-128zM357 511h613l-306 729z" />
    <glyph glyph-name="Aring" unicode="&#xc5;" horiz-adv-x="1325" 
d="M16 0l571 1363q-40 20 -64.5 60t-24.5 91q0 75 47.5 122t118.5 47q72 0 118.5 -46.5t46.5 -122.5q0 -51 -24 -91t-64 -60l570 -1363h-128l-166 395h-707l-166 -395h-128zM665 1625q-46 0 -78 -31t-32 -80q0 -48 32.5 -79t77.5 -31q44 0 75.5 31.5t31.5 78.5q0 49 -31 80
t-76 31zM357 511h613l-306 729z" />
    <glyph glyph-name="AE" unicode="&#xc6;" horiz-adv-x="1974" 
d="M1896 1275h-685v-520h670v-118h-670v-517h699v-120h-819v395h-624l-300 -395h-142l1058 1393h813v-118zM555 511h536v705z" />
    <glyph glyph-name="Ccedilla" unicode="&#xc7;" horiz-adv-x="1358" 
d="M1158 911q-56 174 -181 270.5t-297 96.5q-225 0 -362.5 -160t-137.5 -422q0 -261 138.5 -420.5t363.5 -159.5q176 0 303.5 98.5t174.5 267.5h126q-45 -205 -184 -333.5t-337 -151.5l-56 -271h-121l77 266q-272 6 -438 199t-166 505q0 318 170.5 511.5t451.5 193.5
q227 0 386 -131t217 -359h-128z" />
    <glyph glyph-name="Egrave" unicode="&#xc8;" horiz-adv-x="958" 
d="M465 1479l-127 323h131l91 -323h-95zM880 1275h-685v-520h670v-118h-670v-517h700v-120h-820v1393h805v-118z" />
    <glyph glyph-name="Eacute" unicode="&#xc9;" horiz-adv-x="958" 
d="M523 1479h-97l92 323h132zM880 1275h-685v-520h670v-118h-670v-517h700v-120h-820v1393h805v-118z" />
    <glyph glyph-name="Ecircumflex" unicode="&#xca;" horiz-adv-x="958" 
d="M546 1802l270 -324h-133l-205 246l-204 -246h-133l272 324h133zM880 1275h-685v-520h670v-118h-670v-517h700v-120h-820v1393h805v-118z" />
    <glyph glyph-name="Edieresis" unicode="&#xcb;" horiz-adv-x="958" 
d="M220 1699q0 36 21 57.5t57 21.5q35 0 55.5 -21.5t20.5 -57.5q0 -35 -21 -56t-55 -21q-36 0 -57 21t-21 56zM587 1699q0 36 20.5 57.5t56.5 21.5t56.5 -21.5t20.5 -57.5q0 -35 -20.5 -56t-56.5 -21t-56.5 21t-20.5 56zM880 1275h-685v-520h670v-118h-670v-517h700v-120
h-820v1393h805v-118z" />
    <glyph glyph-name="Igrave" unicode="&#xcc;" horiz-adv-x="296" 
d="M102 1479l-128 323h132l92 -323h-96zM213 0h-120v1393h120v-1393z" />
    <glyph glyph-name="Iacute" unicode="&#xcd;" horiz-adv-x="296" 
d="M193 1479h-96l91 323h133zM213 0h-120v1393h120v-1393z" />
    <glyph glyph-name="Icircumflex" unicode="&#xce;" horiz-adv-x="296" 
d="M213 1802l272 -324h-134l-205 246l-205 -246h-133l272 324h133zM213 0h-120v1393h120v-1393z" />
    <glyph glyph-name="Idieresis" unicode="&#xcf;" horiz-adv-x="296" 
d="M-113 1699q0 36 21 57.5t58 21.5q34 0 54.5 -21.5t20.5 -57.5q0 -35 -20.5 -56t-54.5 -21q-36 0 -57.5 21t-21.5 56zM254 1699q0 36 20.5 57.5t56.5 21.5t56.5 -21.5t20.5 -57.5q0 -35 -20.5 -56t-56.5 -21t-56.5 21t-20.5 56zM213 0h-120v1393h120v-1393z" />
    <glyph glyph-name="Eth" unicode="&#xd0;" horiz-adv-x="1284" 
d="M544 0h-401v654h-97v118h97v621h386q338 0 516.5 -179.5t178.5 -517.5q0 -336 -176 -516t-504 -180zM529 1275h-267v-503h403v-118h-403v-534h282q271 0 415.5 148.5t144.5 427.5q0 283 -147 431t-428 148z" />
    <glyph glyph-name="Ntilde" unicode="&#xd1;" horiz-adv-x="1258" 
d="M323 1519h-82q8 128 60.5 206.5t129.5 78.5q42 0 81 -19.5t69.5 -46.5t59 -54.5t61.5 -47t66 -19.5q48 0 77.5 49t35.5 138h81q-4 -128 -56 -206.5t-134 -78.5q-46 0 -86 19.5t-69 46.5t-56.5 54.5t-59 47t-64.5 19.5q-44 0 -76.5 -53.5t-37.5 -133.5zM193 0h-119v1393
h119l869 -1193v1193h119v-1393h-119l-869 1193v-1193z" />
    <glyph glyph-name="Ograve" unicode="&#xd2;" horiz-adv-x="1377" 
d="M646 1479l-128 323h132l92 -323h-96zM66 696q0 204 80 365t223.5 250.5t325.5 89.5q184 0 328 -89t224 -250t80 -366t-80 -366t-224 -250.5t-328 -89.5q-182 0 -325.5 89.5t-223.5 250.5t-80 366zM695 1285q-149 0 -265.5 -74.5t-181 -209t-64.5 -305.5q0 -260 143 -425
t368 -165q227 0 370 165t143 425t-143 424.5t-370 164.5z" />
    <glyph glyph-name="Oacute" unicode="&#xd3;" horiz-adv-x="1377" 
d="M734 1479h-95l92 323h132zM66 696q0 204 80 365t223.5 250.5t325.5 89.5q184 0 328 -89t224 -250t80 -366t-80 -366t-224 -250.5t-328 -89.5q-182 0 -325.5 89.5t-223.5 250.5t-80 366zM695 1285q-149 0 -265.5 -74.5t-181 -209t-64.5 -305.5q0 -260 143 -425t368 -165
q227 0 370 165t143 425t-143 424.5t-370 164.5z" />
    <glyph glyph-name="Ocircumflex" unicode="&#xd4;" horiz-adv-x="1377" 
d="M755 1802l272 -324h-132l-205 246l-205 -246h-133l271 324h132zM66 696q0 204 80 365t223.5 250.5t325.5 89.5q184 0 328 -89t224 -250t80 -366t-80 -366t-224 -250.5t-328 -89.5q-182 0 -325.5 89.5t-223.5 250.5t-80 366zM695 1285q-149 0 -265.5 -74.5t-181 -209
t-64.5 -305.5q0 -260 143 -425t368 -165q227 0 370 165t143 425t-143 424.5t-370 164.5z" />
    <glyph glyph-name="Otilde" unicode="&#xd5;" horiz-adv-x="1377" 
d="M411 1519h-82q7 127 60 206t130 79q42 0 81 -19.5t69.5 -46.5t59.5 -54.5t62 -47t66 -19.5q48 0 77.5 49t35.5 138h80q-4 -128 -56 -206.5t-134 -78.5q-46 0 -86.5 19.5t-69.5 46.5t-56 54.5t-58.5 47t-65.5 19.5q-43 0 -75.5 -54t-37.5 -133zM66 696q0 204 80 365
t223.5 250.5t325.5 89.5q184 0 328 -89t224 -250t80 -366t-80 -366t-224 -250.5t-328 -89.5q-182 0 -325.5 89.5t-223.5 250.5t-80 366zM695 1285q-149 0 -265.5 -74.5t-181 -209t-64.5 -305.5q0 -260 143 -425t368 -165q227 0 370 165t143 425t-143 424.5t-370 164.5z" />
    <glyph glyph-name="Odieresis" unicode="&#xd6;" horiz-adv-x="1377" 
d="M429 1699q0 36 21 57.5t58 21.5q34 0 54.5 -21.5t20.5 -57.5q0 -35 -20.5 -56t-54.5 -21q-36 0 -57.5 21t-21.5 56zM796 1699q0 36 20.5 57.5t56.5 21.5t56.5 -21.5t20.5 -57.5q0 -35 -20.5 -56t-56.5 -21t-56.5 21t-20.5 56zM66 696q0 204 80 365t223.5 250.5
t325.5 89.5q184 0 328 -89t224 -250t80 -366t-80 -366t-224 -250.5t-328 -89.5q-182 0 -325.5 89.5t-223.5 250.5t-80 366zM695 1285q-149 0 -265.5 -74.5t-181 -209t-64.5 -305.5q0 -260 143 -425t368 -165q227 0 370 165t143 425t-143 424.5t-370 164.5z" />
    <glyph glyph-name="multiply" unicode="&#xd7;" horiz-adv-x="770" 
d="M177 336l-84 83l213 213l-213 213l84 82l213 -211l211 211l84 -83l-213 -212l213 -213l-84 -81l-211 211z" />
    <glyph glyph-name="Oslash" unicode="&#xd8;" horiz-adv-x="1377" 
d="M66 696q0 204 80 365t223.5 250.5t325.5 89.5q93 0 180 -25l38 99h119l-52 -140q162 -82 254.5 -250.5t92.5 -388.5q0 -205 -80 -366t-224 -250.5t-328 -89.5q-106 0 -202 31l-49 -134h-120l68 180q-153 86 -239.5 250.5t-86.5 378.5zM695 1285q-149 0 -265.5 -74.5
t-181 -209t-64.5 -305.5q0 -173 66 -307.5t183 -208.5l401 1086q-74 19 -139 19zM939 1224l-405 -1091q86 -27 161 -27q227 0 370 165t143 425q0 181 -72 319t-197 209z" />
    <glyph glyph-name="Ugrave" unicode="&#xd9;" horiz-adv-x="1273" 
d="M583 1479l-128 323h133l92 -323h-97zM80 696v697h120v-697q0 -297 107 -443.5t324 -146.5q432 0 432 590v697h118v-697q0 -345 -140.5 -525.5t-409.5 -180.5q-270 0 -410.5 180t-140.5 526z" />
    <glyph glyph-name="Uacute" unicode="&#xda;" horiz-adv-x="1273" 
d="M664 1479h-97l92 323h132zM80 696v697h120v-697q0 -297 107 -443.5t324 -146.5q432 0 432 590v697h118v-697q0 -345 -140.5 -525.5t-409.5 -180.5q-270 0 -410.5 180t-140.5 526z" />
    <glyph glyph-name="Ucircumflex" unicode="&#xdb;" horiz-adv-x="1273" 
d="M703 1802l272 -324h-135l-203 246l-204 -246h-135l272 324h133zM80 696v697h120v-697q0 -297 107 -443.5t324 -146.5q432 0 432 590v697h118v-697q0 -345 -140.5 -525.5t-409.5 -180.5q-270 0 -410.5 180t-140.5 526z" />
    <glyph glyph-name="Udieresis" unicode="&#xdc;" horiz-adv-x="1273" 
d="M375 1699q0 36 21.5 57.5t57.5 21.5q34 0 54.5 -21.5t20.5 -57.5q0 -35 -20.5 -56t-54.5 -21q-36 0 -57.5 21t-21.5 56zM742 1699q0 36 21 57.5t58 21.5q34 0 54.5 -21.5t20.5 -57.5q0 -35 -20.5 -56t-54.5 -21q-36 0 -57.5 21t-21.5 56zM80 696v697h120v-697
q0 -297 107 -443.5t324 -146.5q432 0 432 590v697h118v-697q0 -345 -140.5 -525.5t-409.5 -180.5q-270 0 -410.5 180t-140.5 526z" />
    <glyph glyph-name="Yacute" unicode="&#xdd;" horiz-adv-x="1173" 
d="M626 1479h-97l92 323h133zM646 591v-591h-120v591l-511 802h139l431 -705l432 705h140z" />
    <glyph glyph-name="Thorn" unicode="&#xde;" horiz-adv-x="1114" 
d="M197 1393v-433q36 108 138.5 173.5t229.5 65.5q210 0 340 -138.5t130 -364.5t-129.5 -363.5t-340.5 -137.5q-124 0 -228 67t-140 174v-436h-120v1393h120zM916 696q0 172 -101 278.5t-260 106.5q-161 0 -260 -105.5t-98 -277.5q0 -170 100.5 -276.5t257.5 -106.5
q159 0 260 105t101 276z" />
    <glyph glyph-name="germandbls" unicode="&#xdf;" horiz-adv-x="1009" 
d="M90 927q0 129 31.5 222.5t88 145t123.5 75t149 23.5q158 0 259 -83t101 -214q0 -109 -71.5 -213t-206.5 -195q175 -16 275.5 -101.5t100.5 -219.5q0 -171 -108 -269t-298 -98h-101v113h93q144 0 222 69t78 195q0 109 -103.5 170t-283.5 61v106q11 10 53.5 42t74 59
t68.5 65.5t58.5 80.5t22.5 84q12 97 -55.5 164t-180.5 67q-123 0 -199 -85t-76 -264v-927h-115v927z" />
    <glyph glyph-name="agrave" unicode="&#xe0;" horiz-adv-x="1123" 
d="M487 1070l-128 323h131l92 -323h-95zM901 0v229q-36 -108 -139 -173.5t-230 -65.5q-210 0 -340 138.5t-130 364.5q0 227 129.5 364.5t340.5 137.5q125 0 229 -67t140 -174v229h120v-983h-120zM182 493q0 -172 100.5 -277.5t259.5 -105.5q161 0 260.5 105t98.5 277
q0 170 -101 277.5t-258 107.5q-159 0 -259.5 -106t-100.5 -278z" />
    <glyph glyph-name="aacute" unicode="&#xe1;" horiz-adv-x="1123" 
d="M588 1070h-96l91 323h133zM901 0v229q-36 -108 -139 -173.5t-230 -65.5q-210 0 -340 138.5t-130 364.5q0 227 129.5 364.5t340.5 137.5q125 0 229 -67t140 -174v229h120v-983h-120zM182 493q0 -172 100.5 -277.5t259.5 -105.5q161 0 260.5 105t98.5 277q0 170 -101 277.5
t-258 107.5q-159 0 -259.5 -106t-100.5 -278z" />
    <glyph glyph-name="acircumflex" unicode="&#xe2;" horiz-adv-x="1123" 
d="M628 1393l271 -325h-132l-205 246l-205 -246h-133l271 325h133zM901 0v229q-36 -108 -139 -173.5t-230 -65.5q-210 0 -340 138.5t-130 364.5q0 227 129.5 364.5t340.5 137.5q125 0 229 -67t140 -174v229h120v-983h-120zM182 493q0 -172 100.5 -277.5t259.5 -105.5
q161 0 260.5 105t98.5 277q0 170 -101 277.5t-258 107.5q-159 0 -259.5 -106t-100.5 -278z" />
    <glyph glyph-name="atilde" unicode="&#xe3;" horiz-adv-x="1123" 
d="M254 1109h-82q8 127 60.5 206t129.5 79q43 0 82.5 -19t70 -46.5t59 -55t61.5 -46.5t66 -19q47 0 77 49t35 137h82q-4 -127 -56.5 -206t-133.5 -79q-46 0 -86.5 19.5t-70 46.5t-56.5 54.5t-58.5 47t-64.5 19.5q-43 0 -76 -54t-39 -133zM901 0v229q-36 -108 -139 -173.5
t-230 -65.5q-210 0 -340 138.5t-130 364.5q0 227 129.5 364.5t340.5 137.5q125 0 229 -67t140 -174v229h120v-983h-120zM182 493q0 -172 100.5 -277.5t259.5 -105.5q161 0 260.5 105t98.5 277q0 170 -101 277.5t-258 107.5q-159 0 -259.5 -106t-100.5 -278z" />
    <glyph glyph-name="adieresis" unicode="&#xe4;" horiz-adv-x="1123" 
d="M303 1289q0 36 20.5 57.5t56.5 21.5q35 0 56 -21.5t21 -57.5q0 -35 -21.5 -56t-55.5 -21q-36 0 -56.5 21t-20.5 56zM668 1289q0 36 21 57.5t58 21.5q34 0 54.5 -21.5t20.5 -57.5q0 -35 -20.5 -56t-54.5 -21q-36 0 -57.5 21t-21.5 56zM901 0v229q-36 -108 -139 -173.5
t-230 -65.5q-210 0 -340 138.5t-130 364.5q0 227 129.5 364.5t340.5 137.5q125 0 229 -67t140 -174v229h120v-983h-120zM182 493q0 -172 100.5 -277.5t259.5 -105.5q161 0 260.5 105t98.5 277q0 170 -101 277.5t-258 107.5q-159 0 -259.5 -106t-100.5 -278z" />
    <glyph glyph-name="aring" unicode="&#xe5;" horiz-adv-x="1123" 
d="M370 1227q0 75 47.5 122t118.5 47q72 0 118.5 -46.5t46.5 -122.5q0 -75 -46.5 -122t-118.5 -47q-71 0 -118.5 47.5t-47.5 121.5zM537 1339q-46 0 -77.5 -31.5t-31.5 -81.5q0 -48 32 -79t77 -31q43 0 75 32t32 78q0 49 -31 81t-76 32zM901 0v229q-36 -108 -139 -173.5
t-230 -65.5q-210 0 -340 138.5t-130 364.5q0 227 129.5 364.5t340.5 137.5q125 0 229 -67t140 -174v229h120v-983h-120zM182 493q0 -172 100.5 -277.5t259.5 -105.5q161 0 260.5 105t98.5 277q0 170 -101 277.5t-258 107.5q-159 0 -259.5 -106t-100.5 -278z" />
    <glyph glyph-name="ae" unicode="&#xe6;" horiz-adv-x="1918" 
d="M901 0v229q-36 -108 -139 -173.5t-230 -65.5q-210 0 -340 138.5t-130 364.5q0 227 129.5 364.5t340.5 137.5q125 0 229 -67t140 -174v229h120v-151q136 163 350 163q198 0 335 -142t137 -347q0 -26 -5 -59h-816q13 -154 110.5 -249t242.5 -95q103 0 183.5 53.5
t122.5 143.5h126q-51 -139 -169 -224.5t-262 -85.5q-221 0 -355 156v-146h-120zM1022 539h702q-12 148 -112 245t-241 97q-140 0 -237 -95.5t-112 -246.5zM182 493q0 -172 100.5 -277.5t259.5 -105.5q161 0 260.5 105t98.5 277q0 170 -101 277.5t-258 107.5
q-159 0 -259.5 -106t-100.5 -278z" />
    <glyph glyph-name="ccedilla" unicode="&#xe7;" horiz-adv-x="1101" 
d="M547 878q-158 0 -256.5 -105.5t-98.5 -277.5q0 -173 98.5 -278.5t256.5 -105.5q123 0 213 69t126 192h127q-39 -165 -148 -264.5t-267 -114.5l-56 -267h-119l77 267q-192 16 -309 152t-117 350q0 225 131 363t342 138q176 0 300 -100t166 -278h-127q-38 125 -126.5 192.5
t-212.5 67.5z" />
    <glyph glyph-name="egrave" unicode="&#xe8;" 
d="M506 1070l-128 323h133l92 -323h-97zM857 301h124q-51 -139 -168 -224t-262 -85q-209 0 -341.5 141t-132.5 362q0 214 135 357.5t335 143.5q130 0 238 -64.5t170 -176.5t62 -247q0 -29 -3 -59h-816q14 -155 110 -249.5t241 -94.5q105 0 185.5 53.5t122.5 142.5zM198 541
h700q-11 148 -110.5 245t-240.5 97q-140 0 -237 -95.5t-112 -246.5z" />
    <glyph glyph-name="eacute" unicode="&#xe9;" 
d="M593 1070h-97l92 323h133zM857 301h124q-51 -139 -168 -224t-262 -85q-209 0 -341.5 141t-132.5 362q0 214 135 357.5t335 143.5q130 0 238 -64.5t170 -176.5t62 -247q0 -29 -3 -59h-816q14 -155 110 -249.5t241 -94.5q105 0 185.5 53.5t122.5 142.5zM198 541h700
q-11 148 -110.5 245t-240.5 97q-140 0 -237 -95.5t-112 -246.5z" />
    <glyph glyph-name="ecircumflex" unicode="&#xea;" 
d="M616 1393l272 -325h-133l-204 246l-205 -246h-133l270 325h133zM857 301h124q-51 -139 -168 -224t-262 -85q-209 0 -341.5 141t-132.5 362q0 214 135 357.5t335 143.5q130 0 238 -64.5t170 -176.5t62 -247q0 -29 -3 -59h-816q14 -155 110 -249.5t241 -94.5
q105 0 185.5 53.5t122.5 142.5zM198 541h700q-11 148 -110.5 245t-240.5 97q-140 0 -237 -95.5t-112 -246.5z" />
    <glyph glyph-name="edieresis" unicode="&#xeb;" 
d="M290 1289q0 36 20.5 57.5t56.5 21.5t56.5 -21.5t20.5 -57.5q0 -35 -20.5 -56t-56.5 -21t-56.5 21t-20.5 56zM657 1289q0 36 20.5 57.5t56.5 21.5q35 0 56 -21.5t21 -57.5q0 -35 -21.5 -56t-55.5 -21q-36 0 -56.5 21t-20.5 56zM857 301h124q-51 -139 -168 -224t-262 -85
q-209 0 -341.5 141t-132.5 362q0 214 135 357.5t335 143.5q130 0 238 -64.5t170 -176.5t62 -247q0 -29 -3 -59h-816q14 -155 110 -249.5t241 -94.5q105 0 185.5 53.5t122.5 142.5zM198 541h700q-11 148 -110.5 245t-240.5 97q-140 0 -237 -95.5t-112 -246.5z" />
    <glyph glyph-name="igrave" unicode="&#xec;" horiz-adv-x="308" 
d="M105 1070l-128 323h133l92 -323h-97zM211 0h-118v983h118v-983z" />
    <glyph glyph-name="iacute" unicode="&#xed;" horiz-adv-x="308" 
d="M197 1070h-95l91 323h131zM211 0h-118v983h118v-983z" />
    <glyph glyph-name="icircumflex" unicode="&#xee;" horiz-adv-x="308" 
d="M220 1393l272 -325h-135l-205 246l-204 -246h-133l272 325h133zM211 0h-118v983h118v-983z" />
    <glyph glyph-name="idieresis" unicode="&#xef;" horiz-adv-x="308" 
d="M-106 1289q0 36 20.5 57.5t56.5 21.5t56.5 -21.5t20.5 -57.5q0 -35 -20.5 -56t-56.5 -21t-56.5 21t-20.5 56zM259 1289q0 36 21.5 57.5t57.5 21.5q34 0 54.5 -21.5t20.5 -57.5q0 -35 -20.5 -56t-54.5 -21q-36 0 -57.5 21t-21.5 56zM211 0h-118v983h118v-983z" />
    <glyph glyph-name="eth" unicode="&#xf0;" horiz-adv-x="1096" 
d="M1026 472q0 -200 -139 -341t-340 -141q-200 0 -337.5 141t-137.5 341q0 130 62 239.5t171.5 173.5t241.5 64q54 0 94 -9l-158 200l-227 -118l-38 77l213 110l-143 184h140l104 -131l215 109l38 -73l-198 -104l331 -417q108 -131 108 -305zM546 831q-150 0 -253 -105.5
t-103 -253.5q0 -149 103.5 -255.5t253.5 -106.5q151 0 256 106.5t105 255.5t-104.5 254t-257.5 105z" />
    <glyph glyph-name="ntilde" unicode="&#xf1;" horiz-adv-x="1010" 
d="M200 1109h-82q7 127 60 206t130 79q42 0 81 -19t69.5 -46.5t59.5 -55t62 -46.5t66 -19q48 0 77.5 48.5t35.5 137.5h80q-4 -128 -56 -206.5t-134 -78.5q-46 0 -86.5 19.5t-69.5 46.5t-56 54.5t-58.5 47t-65.5 19.5q-43 0 -75.5 -54t-37.5 -133zM803 493q0 175 -83 279.5
t-222 104.5q-127 0 -208.5 -109t-81.5 -276v-492h-120v983h120v-229q30 107 113.5 174t194.5 67q186 0 296 -137t110 -365v-493h-119v493z" />
    <glyph glyph-name="ograve" unicode="&#xf2;" horiz-adv-x="1076" 
d="M495 1070l-128 323h131l92 -323h-95zM64 493q0 212 137.5 357t337.5 145q132 0 241.5 -66t171.5 -181t62 -255t-62 -255.5t-171 -181.5t-242 -66q-201 0 -338 145t-137 358zM539 877q-150 0 -253.5 -111t-103.5 -273q0 -163 103 -273t254 -110q152 0 254 110t102 273
q0 162 -102.5 273t-253.5 111z" />
    <glyph glyph-name="oacute" unicode="&#xf3;" horiz-adv-x="1076" 
d="M585 1070h-95l92 323h131zM64 493q0 212 137.5 357t337.5 145q132 0 241.5 -66t171.5 -181t62 -255t-62 -255.5t-171 -181.5t-242 -66q-201 0 -338 145t-137 358zM539 877q-150 0 -253.5 -111t-103.5 -273q0 -163 103 -273t254 -110q152 0 254 110t102 273
q0 162 -102.5 273t-253.5 111z" />
    <glyph glyph-name="ocircumflex" unicode="&#xf4;" horiz-adv-x="1076" 
d="M606 1393l271 -325h-133l-205 246l-205 -246h-132l271 325h133zM64 493q0 212 137.5 357t337.5 145q132 0 241.5 -66t171.5 -181t62 -255t-62 -255.5t-171 -181.5t-242 -66q-201 0 -338 145t-137 358zM539 877q-150 0 -253.5 -111t-103.5 -273q0 -163 103 -273t254 -110
q152 0 254 110t102 273q0 162 -102.5 273t-253.5 111z" />
    <glyph glyph-name="otilde" unicode="&#xf5;" horiz-adv-x="1076" 
d="M261 1109h-82q7 127 60 206t130 79q42 0 81 -19t69.5 -46.5t59 -55t61.5 -46.5t66 -19q48 0 77.5 48.5t35.5 137.5h80q-4 -128 -56 -206.5t-134 -78.5q-46 0 -86.5 19.5t-69 46.5t-55.5 54.5t-58.5 47t-65.5 19.5q-43 0 -75.5 -54t-37.5 -133zM64 493q0 212 137.5 357
t337.5 145q132 0 241.5 -66t171.5 -181t62 -255t-62 -255.5t-171 -181.5t-242 -66q-201 0 -338 145t-137 358zM539 877q-150 0 -253.5 -111t-103.5 -273q0 -163 103 -273t254 -110q152 0 254 110t102 273q0 162 -102.5 273t-253.5 111z" />
    <glyph glyph-name="odieresis" unicode="&#xf6;" horiz-adv-x="1076" 
d="M279 1289q0 36 20.5 57.5t56.5 21.5t56.5 -21.5t20.5 -57.5q0 -35 -20.5 -56t-56.5 -21t-56.5 21t-20.5 56zM646 1289q0 36 20.5 57.5t56.5 21.5q35 0 56 -21.5t21 -57.5q0 -35 -21 -56t-56 -21q-36 0 -56.5 21t-20.5 56zM64 493q0 212 137.5 357t337.5 145
q132 0 241.5 -66t171.5 -181t62 -255t-62 -255.5t-171 -181.5t-242 -66q-201 0 -338 145t-137 358zM539 877q-150 0 -253.5 -111t-103.5 -273q0 -163 103 -273t254 -110q152 0 254 110t102 273q0 162 -102.5 273t-253.5 111z" />
    <glyph glyph-name="divide" unicode="&#xf7;" horiz-adv-x="937" 
d="M387 952q0 36 20.5 56.5t57.5 20.5q35 0 55.5 -20.5t20.5 -56.5q0 -35 -21 -56t-55 -21q-36 0 -57 21t-21 56zM74 573v118h783v-118h-783zM387 313q0 35 21 56t57 21q34 0 55 -21t21 -56q0 -36 -20.5 -57.5t-55.5 -21.5q-36 0 -57 21.5t-21 57.5z" />
    <glyph glyph-name="oslash" unicode="&#xf8;" horiz-adv-x="1076" 
d="M64 493q0 212 137.5 357t337.5 145q52 0 115 -14l44 120h120l-59 -161q117 -61 186 -180t69 -267q0 -140 -62 -255.5t-171 -181.5t-242 -66q-60 0 -126 17l-44 -120h-122l61 164q-112 64 -178 181t-66 261zM539 877q-150 0 -253.5 -111t-103.5 -273q0 -105 45.5 -191.5
t123.5 -137.5l260 704q-41 9 -72 9zM716 827l-262 -707q40 -10 85 -10q152 0 254 110t102 273q0 109 -48.5 197t-130.5 137z" />
    <glyph glyph-name="ugrave" unicode="&#xf9;" horiz-adv-x="986" 
d="M459 1070l-130 323h133l92 -323h-95zM195 490q0 -175 83 -278.5t223 -103.5q125 0 207.5 108.5t82.5 275.5v491h118v-983h-118v229q-30 -106 -113.5 -173t-194.5 -67q-186 0 -296 136.5t-110 364.5v493h118v-493z" />
    <glyph glyph-name="uacute" unicode="&#xfa;" horiz-adv-x="986" 
d="M552 1070h-97l92 323h133zM195 490q0 -175 83 -278.5t223 -103.5q125 0 207.5 108.5t82.5 275.5v491h118v-983h-118v229q-30 -106 -113.5 -173t-194.5 -67q-186 0 -296 136.5t-110 364.5v493h118v-493z" />
    <glyph glyph-name="ucircumflex" unicode="&#xfb;" horiz-adv-x="986" 
d="M560 1393l272 -325h-132l-205 246l-205 -246h-133l271 325h132zM195 490q0 -175 83 -278.5t223 -103.5q125 0 207.5 108.5t82.5 275.5v491h118v-983h-118v229q-30 -106 -113.5 -173t-194.5 -67q-186 0 -296 136.5t-110 364.5v493h118v-493z" />
    <glyph glyph-name="udieresis" unicode="&#xfc;" horiz-adv-x="986" 
d="M233 1289q0 36 21 57.5t57 21.5q35 0 55.5 -21.5t20.5 -57.5q0 -35 -21 -56t-55 -21q-36 0 -57 21t-21 56zM600 1289q0 36 20.5 57.5t56.5 21.5t56.5 -21.5t20.5 -57.5q0 -35 -20.5 -56t-56.5 -21t-56.5 21t-20.5 56zM195 490q0 -175 83 -278.5t223 -103.5
q125 0 207.5 108.5t82.5 275.5v491h118v-983h-118v229q-30 -106 -113.5 -173t-194.5 -67q-186 0 -296 136.5t-110 364.5v493h118v-493z" />
    <glyph glyph-name="yacute" unicode="&#xfd;" horiz-adv-x="989" 
d="M532 1070h-95l92 323h131zM557 0l-43 -106q-53 -137 -112.5 -194t-173.5 -57h-46v118h38q61 0 103 36t75 118l33 85l-411 983h127l346 -831l347 831h128z" />
    <glyph glyph-name="thorn" unicode="&#xfe;" horiz-adv-x="1114" 
d="M197 1393v-639q36 108 138.5 173.5t229.5 65.5q211 0 340.5 -138t129.5 -365q0 -225 -130 -363t-340 -138q-125 0 -228.5 66.5t-139.5 173.5v-640h-120v1804h120zM916 490q0 172 -101 278.5t-260 106.5q-161 0 -260 -105.5t-98 -277.5q0 -170 100.5 -277t257.5 -107
q159 0 260 105.5t101 276.5z" />
    <glyph glyph-name="ydieresis" unicode="&#xff;" horiz-adv-x="989" 
d="M236 1289q0 36 20.5 57.5t56.5 21.5q35 0 56 -21.5t21 -57.5q0 -35 -21 -56t-56 -21q-36 0 -56.5 21t-20.5 56zM601 1289q0 36 21 57.5t58 21.5q34 0 54.5 -21.5t20.5 -57.5q0 -35 -20.5 -56t-54.5 -21q-36 0 -57.5 21t-21.5 56zM557 0l-43 -106q-53 -137 -112.5 -194
t-173.5 -57h-46v118h38q61 0 103 36t75 118l33 85l-411 983h127l346 -831l347 831h128z" />
    <glyph glyph-name="Amacron" unicode="&#x100;" horiz-adv-x="1325" 
d="M300 1596v119h727v-119h-727zM16 0l584 1393h127l584 -1393h-128l-166 395h-707l-166 -395h-128zM357 511h613l-306 729z" />
    <glyph glyph-name="amacron" unicode="&#x101;" horiz-adv-x="1123" 
d="M198 1186v120h728v-120h-728zM901 0v229q-36 -108 -139 -173.5t-230 -65.5q-210 0 -340 138.5t-130 364.5q0 227 129.5 364.5t340.5 137.5q125 0 229 -67t140 -174v229h120v-983h-120zM182 493q0 -172 100.5 -277.5t259.5 -105.5q161 0 260.5 105t98.5 277
q0 170 -101 277.5t-258 107.5q-159 0 -259.5 -106t-100.5 -278z" />
    <glyph glyph-name="Abreve" unicode="&#x102;" horiz-adv-x="1325" 
d="M372 1802h98q5 -82 59.5 -132.5t134.5 -50.5t132.5 50t58.5 133h99q-6 -126 -86.5 -204t-203.5 -78q-124 0 -205.5 78t-86.5 204zM16 0l584 1393h127l584 -1393h-128l-166 395h-707l-166 -395h-128zM357 511h613l-306 729z" />
    <glyph glyph-name="abreve" unicode="&#x103;" horiz-adv-x="1123" 
d="M270 1393h99q5 -83 59 -133.5t134 -50.5t133.5 50.5t59.5 133.5h99q-6 -126 -87 -204t-205 -78t-205.5 78t-86.5 204zM901 0v229q-36 -108 -139 -173.5t-230 -65.5q-210 0 -340 138.5t-130 364.5q0 227 129.5 364.5t340.5 137.5q125 0 229 -67t140 -174v229h120v-983
h-120zM182 493q0 -172 100.5 -277.5t259.5 -105.5q161 0 260.5 105t98.5 277q0 170 -101 277.5t-258 107.5q-159 0 -259.5 -106t-100.5 -278z" />
    <glyph glyph-name="Aogonek" unicode="&#x104;" horiz-adv-x="1325" 
d="M16 0l584 1393h127l584 -1393h-18q-102 -66 -90 -159q8 -48 48.5 -77t106.5 -29v-84q-110 0 -171.5 45t-67.5 127q-11 119 93 177h-29l-166 395h-707l-166 -395h-128zM357 511h613l-306 729z" />
    <glyph glyph-name="aogonek" unicode="&#x105;" horiz-adv-x="1123" 
d="M901 0v229q-36 -108 -139 -173.5t-230 -65.5q-210 0 -340 138.5t-130 364.5q0 227 129.5 364.5t340.5 137.5q125 0 229 -67t140 -174v229h120v-983h-18q-102 -66 -90 -159q8 -48 48.5 -77t106.5 -29v-84q-110 0 -171.5 45t-67.5 127q-11 119 93 177h-21zM182 493
q0 -172 100.5 -277.5t259.5 -105.5q161 0 260.5 105t98.5 277q0 170 -101 277.5t-258 107.5q-159 0 -259.5 -106t-100.5 -278z" />
    <glyph glyph-name="Cacute" unicode="&#x106;" horiz-adv-x="1358" 
d="M729 1479h-97l92 323h133zM1158 911q-56 174 -181 270.5t-297 96.5q-225 0 -362.5 -160t-137.5 -422q0 -261 138.5 -420.5t363.5 -159.5q176 0 303.5 98.5t174.5 267.5h126q-49 -227 -212 -358.5t-391 -131.5q-279 0 -450.5 193.5t-171.5 510.5q0 318 170.5 511.5
t451.5 193.5q227 0 386 -131t217 -359h-128z" />
    <glyph glyph-name="cacute" unicode="&#x107;" horiz-adv-x="1101" 
d="M596 1070h-96l91 323h133zM547 878q-158 0 -256.5 -105.5t-98.5 -277.5q0 -173 98.5 -278.5t256.5 -105.5q123 0 213 69t126 192h127q-42 -179 -166 -279.5t-300 -100.5q-211 0 -342 138.5t-131 364.5q0 225 131 363t342 138q176 0 300 -100t166 -278h-127
q-38 125 -126.5 192.5t-212.5 67.5z" />
    <glyph glyph-name="Ccircumflex" unicode="&#x108;" horiz-adv-x="1358" 
d="M747 1802l270 -324h-132l-205 246l-205 -246h-133l272 324h133zM1158 911q-56 174 -181 270.5t-297 96.5q-225 0 -362.5 -160t-137.5 -422q0 -261 138.5 -420.5t363.5 -159.5q176 0 303.5 98.5t174.5 267.5h126q-49 -227 -212 -358.5t-391 -131.5q-279 0 -450.5 193.5
t-171.5 510.5q0 318 170.5 511.5t451.5 193.5q227 0 386 -131t217 -359h-128z" />
    <glyph glyph-name="ccircumflex" unicode="&#x109;" horiz-adv-x="1101" 
d="M618 1393l270 -325h-133l-204 246l-205 -246h-133l270 325h135zM547 878q-158 0 -256.5 -105.5t-98.5 -277.5q0 -173 98.5 -278.5t256.5 -105.5q123 0 213 69t126 192h127q-42 -179 -166 -279.5t-300 -100.5q-211 0 -342 138.5t-131 364.5q0 225 131 363t342 138
q176 0 300 -100t166 -278h-127q-38 125 -126.5 192.5t-212.5 67.5z" />
    <glyph glyph-name="Cdotaccent" unicode="&#x10a;" horiz-adv-x="1358" 
d="M603 1699q0 36 20.5 57.5t56.5 21.5t56.5 -21.5t20.5 -57.5q0 -35 -20.5 -56t-56.5 -21t-56.5 21t-20.5 56zM1158 911q-56 174 -181 270.5t-297 96.5q-225 0 -362.5 -160t-137.5 -422q0 -261 138.5 -420.5t363.5 -159.5q176 0 303.5 98.5t174.5 267.5h126
q-49 -227 -212 -358.5t-391 -131.5q-279 0 -450.5 193.5t-171.5 510.5q0 318 170.5 511.5t451.5 193.5q227 0 386 -131t217 -359h-128z" />
    <glyph glyph-name="cdotaccent" unicode="&#x10b;" horiz-adv-x="1101" 
d="M473 1289q0 36 21 57.5t57 21.5t56.5 -21.5t20.5 -57.5q0 -35 -20.5 -56t-56.5 -21t-57 21t-21 56zM547 878q-158 0 -256.5 -105.5t-98.5 -277.5q0 -173 98.5 -278.5t256.5 -105.5q123 0 213 69t126 192h127q-42 -179 -166 -279.5t-300 -100.5q-211 0 -342 138.5
t-131 364.5q0 225 131 363t342 138q176 0 300 -100t166 -278h-127q-38 125 -126.5 192.5t-212.5 67.5z" />
    <glyph glyph-name="Ccaron" unicode="&#x10c;" horiz-adv-x="1358" 
d="M747 1478h-133l-272 324h133l205 -244l205 244h132zM1158 911q-56 174 -181 270.5t-297 96.5q-225 0 -362.5 -160t-137.5 -422q0 -261 138.5 -420.5t363.5 -159.5q176 0 303.5 98.5t174.5 267.5h126q-49 -227 -212 -358.5t-391 -131.5q-279 0 -450.5 193.5t-171.5 510.5
q0 318 170.5 511.5t451.5 193.5q227 0 386 -131t217 -359h-128z" />
    <glyph glyph-name="ccaron" unicode="&#x10d;" horiz-adv-x="1101" 
d="M618 1068h-135l-270 325h133l205 -244l204 244h133zM547 878q-158 0 -256.5 -105.5t-98.5 -277.5q0 -173 98.5 -278.5t256.5 -105.5q123 0 213 69t126 192h127q-42 -179 -166 -279.5t-300 -100.5q-211 0 -342 138.5t-131 364.5q0 225 131 363t342 138q176 0 300 -100
t166 -278h-127q-38 125 -126.5 192.5t-212.5 67.5z" />
    <glyph glyph-name="Dcaron" unicode="&#x10e;" horiz-adv-x="1222" 
d="M582 1478h-133l-270 324h132l205 -244l205 244h133zM480 0h-401v1393h386q337 0 516 -179.5t179 -517.5q0 -336 -176 -516t-504 -180zM465 1275h-268v-1155h283q271 0 415.5 148.5t144.5 427.5q0 283 -147 431t-428 148z" />
    <glyph glyph-name="dcaron" unicode="&#x10f;" horiz-adv-x="1353" 
d="M1137 1334q0 36 21.5 56.5t57.5 20.5q35 0 55 -20.5t20 -56.5q0 -64 -15.5 -114.5t-53.5 -115.5l-16 -29h-72l28 54q40 77 47 128q-33 1 -52.5 22.5t-19.5 54.5zM924 0v229q-36 -108 -139 -173.5t-231 -65.5q-210 0 -339.5 139t-129.5 364q0 227 129 364.5t340 137.5
q125 0 229.5 -67t140.5 -174v640h120v-1394h-120zM203 493q0 -172 101.5 -277.5t260.5 -105.5t259 105t100 277q0 170 -101 277.5t-259 107.5q-159 0 -260 -106t-101 -278z" />
    <glyph glyph-name="Dcroat" unicode="&#x110;" horiz-adv-x="1284" 
d="M544 0h-401v654h-97v118h97v621h386q338 0 516.5 -179.5t178.5 -517.5q0 -336 -176 -516t-504 -180zM529 1275h-267v-503h403v-118h-403v-534h282q271 0 415.5 148.5t144.5 427.5q0 283 -147 431t-428 148z" />
    <glyph glyph-name="dcroat" unicode="&#x111;" horiz-adv-x="1233" 
d="M924 0v229q-36 -108 -139 -173.5t-231 -65.5q-210 0 -339.5 139t-129.5 364q0 227 129 364.5t340 137.5q125 0 229.5 -67t140.5 -174v383h-300v93h300v164h120v-164h142v-93h-142v-1137h-120zM203 493q0 -172 101.5 -277.5t260.5 -105.5t259 105t100 277
q0 170 -101 277.5t-259 107.5q-159 0 -260 -106t-101 -278z" />
    <glyph glyph-name="Emacron" unicode="&#x112;" horiz-adv-x="958" 
d="M116 1596v119h728v-119h-728zM880 1275h-685v-520h670v-118h-670v-517h700v-120h-820v1393h805v-118z" />
    <glyph glyph-name="emacron" unicode="&#x113;" 
d="M185 1186v120h728v-120h-728zM857 301h124q-51 -139 -168 -224t-262 -85q-209 0 -341.5 141t-132.5 362q0 214 135 357.5t335 143.5q130 0 238 -64.5t170 -176.5t62 -247q0 -29 -3 -59h-816q14 -155 110 -249.5t241 -94.5q105 0 185.5 53.5t122.5 142.5zM198 541h700
q-11 148 -110.5 245t-240.5 97q-140 0 -237 -95.5t-112 -246.5z" />
    <glyph glyph-name="Ebreve" unicode="&#x114;" horiz-adv-x="958" 
d="M187 1802h100q5 -83 59 -133t134 -50t133 50t59 133h98q-6 -126 -86.5 -204t-203.5 -78q-124 0 -205.5 78t-87.5 204zM880 1275h-685v-520h670v-118h-670v-517h700v-120h-820v1393h805v-118z" />
    <glyph glyph-name="ebreve" unicode="&#x115;" 
d="M259 1393h98q5 -83 59.5 -133.5t134.5 -50.5t132.5 50.5t58.5 133.5h100q-6 -126 -87 -204t-204 -78q-124 0 -205.5 78t-86.5 204zM857 301h124q-51 -139 -168 -224t-262 -85q-209 0 -341.5 141t-132.5 362q0 214 135 357.5t335 143.5q130 0 238 -64.5t170 -176.5
t62 -247q0 -29 -3 -59h-816q14 -155 110 -249.5t241 -94.5q105 0 185.5 53.5t122.5 142.5zM198 541h700q-11 148 -110.5 245t-240.5 97q-140 0 -237 -95.5t-112 -246.5z" />
    <glyph glyph-name="Edotaccent" unicode="&#x116;" horiz-adv-x="958" 
d="M403 1699q0 36 20.5 57.5t56.5 21.5t56.5 -21.5t20.5 -57.5q0 -35 -20.5 -56t-56.5 -21t-56.5 21t-20.5 56zM880 1275h-685v-520h670v-118h-670v-517h700v-120h-820v1393h805v-118z" />
    <glyph glyph-name="edotaccent" unicode="&#x117;" 
d="M473 1289q0 36 21 57.5t57 21.5t56.5 -21.5t20.5 -57.5q0 -35 -20.5 -56t-56.5 -21t-57 21t-21 56zM857 301h124q-51 -139 -168 -224t-262 -85q-209 0 -341.5 141t-132.5 362q0 214 135 357.5t335 143.5q130 0 238 -64.5t170 -176.5t62 -247q0 -29 -3 -59h-816
q14 -155 110 -249.5t241 -94.5q105 0 185.5 53.5t122.5 142.5zM198 541h700q-11 148 -110.5 245t-240.5 97q-140 0 -237 -95.5t-112 -246.5z" />
    <glyph glyph-name="Eogonek" unicode="&#x118;" horiz-adv-x="958" 
d="M880 1275h-685v-520h670v-118h-670v-517h700v-120h-91q-89 -64 -77 -149q8 -49 48.5 -78.5t107.5 -29.5v-84q-111 0 -173 45.5t-68 128.5q-8 108 81 167h-648v1393h805v-118z" />
    <glyph glyph-name="eogonek" unicode="&#x119;" 
d="M857 301h124q-39 -107 -121 -184.5t-188 -108.5q-98 -66 -87 -157q6 -48 47.5 -77.5t108.5 -29.5v-83q-111 0 -173 45t-68 127q-7 101 67 159q-223 0 -356.5 139t-133.5 364q0 214 135 357.5t335 143.5q130 0 238 -64.5t170 -176.5t62 -247q0 -29 -3 -59h-816
q14 -155 110 -249.5t241 -94.5q105 0 185.5 53.5t122.5 142.5zM198 541h700q-11 148 -110.5 245t-240.5 97q-140 0 -237 -95.5t-112 -246.5z" />
    <glyph glyph-name="Ecaron" unicode="&#x11a;" horiz-adv-x="958" 
d="M546 1478h-133l-272 324h133l204 -244l205 244h133zM880 1275h-685v-520h670v-118h-670v-517h700v-120h-820v1393h805v-118z" />
    <glyph glyph-name="ecaron" unicode="&#x11b;" 
d="M616 1068h-133l-270 325h133l205 -244l204 244h133zM857 301h124q-51 -139 -168 -224t-262 -85q-209 0 -341.5 141t-132.5 362q0 214 135 357.5t335 143.5q130 0 238 -64.5t170 -176.5t62 -247q0 -29 -3 -59h-816q14 -155 110 -249.5t241 -94.5q105 0 185.5 53.5
t122.5 142.5zM198 541h700q-11 148 -110.5 245t-240.5 97q-140 0 -237 -95.5t-112 -246.5z" />
    <glyph glyph-name="Gcircumflex" unicode="&#x11c;" horiz-adv-x="1407" 
d="M770 1802l272 -324h-134l-203 246l-205 -246h-135l272 324h133zM623 641v113h716q4 -31 4 -68q0 -150 -49 -280t-133.5 -220.5t-201.5 -142t-251 -51.5q-137 0 -257 52.5t-206.5 144.5t-136 223.5t-49.5 283.5q0 201 83 362.5t230 252t331 90.5q206 0 358.5 -104.5
t226.5 -293.5h-128q-65 134 -183 206t-272 72q-230 0 -378 -162.5t-148 -422.5q0 -261 148 -423t382 -162q140 0 253.5 65.5t182 186.5t77.5 278h-599z" />
    <glyph glyph-name="gcircumflex" unicode="&#x11d;" horiz-adv-x="1105" 
d="M621 1393l270 -325h-132l-205 246l-205 -246h-133l272 325h133zM901 52v177q-35 -107 -137.5 -173t-222.5 -66q-200 0 -331 140t-131 363q0 225 130.5 363.5t331.5 138.5q121 0 224 -69t136 -172v229h118v-931q0 -227 -125 -365t-327 -138q-165 0 -286 92t-166 267h126
q38 -119 125.5 -180t200.5 -61q149 0 241.5 105.5t92.5 279.5zM197 493q0 -170 102 -276.5t252 -106.5q152 0 251 105.5t99 276.5q0 166 -99 275.5t-251 109.5q-151 0 -252.5 -107t-101.5 -277z" />
    <glyph glyph-name="Gbreve" unicode="&#x11e;" horiz-adv-x="1435" 
d="M416 1802h98q6 -83 60 -133t134 -50t133.5 50t59.5 133h98q-6 -126 -86.5 -204t-204.5 -78t-205.5 78t-86.5 204zM623 641v113h716q4 -31 4 -68q0 -150 -49 -280t-133.5 -220.5t-201.5 -142t-251 -51.5q-137 0 -257 52.5t-206.5 144.5t-136 223.5t-49.5 283.5
q0 201 83 362.5t230 252t331 90.5q206 0 358.5 -104.5t226.5 -293.5h-128q-65 134 -183 206t-272 72q-230 0 -378 -162.5t-148 -422.5q0 -261 148 -423t382 -162q140 0 253.5 65.5t182 186.5t77.5 278h-599z" />
    <glyph glyph-name="gbreve" unicode="&#x11f;" 
d="M257 1393h99q6 -83 59.5 -133.5t133.5 -50.5q81 0 134 50.5t59 133.5h98q-6 -126 -86.5 -204t-204.5 -78t-205 78t-87 204zM891 52v177q-34 -107 -136.5 -173t-223.5 -66q-200 0 -331 140t-131 363q0 224 130.5 363t331.5 139q121 0 224 -69t136 -172v229h120v-931
q0 -226 -125.5 -364.5t-328.5 -138.5q-165 0 -285.5 92t-165.5 267h125q39 -119 127 -180t199 -61q149 0 241.5 105.5t92.5 279.5zM187 493q0 -170 102 -276.5t253 -106.5q152 0 251 105.5t98 276.5q0 166 -99 275.5t-251 109.5q-149 0 -251.5 -107t-102.5 -277z" />
    <glyph glyph-name="Gdotaccent" unicode="&#x120;" horiz-adv-x="1407" 
d="M628 1699q0 36 20.5 57.5t56.5 21.5t56.5 -21.5t20.5 -57.5q0 -35 -20.5 -56t-56.5 -21t-56.5 21t-20.5 56zM623 641v113h716q4 -31 4 -68q0 -150 -49 -280t-133.5 -220.5t-201.5 -142t-251 -51.5q-137 0 -257 52.5t-206.5 144.5t-136 223.5t-49.5 283.5q0 201 83 362.5
t230 252t331 90.5q206 0 358.5 -104.5t226.5 -293.5h-128q-65 134 -183 206t-272 72q-230 0 -378 -162.5t-148 -422.5q0 -261 148 -423t382 -162q140 0 253.5 65.5t182 186.5t77.5 278h-599z" />
    <glyph glyph-name="gdotaccent" unicode="&#x121;" horiz-adv-x="1105" 
d="M477 1289q0 36 20.5 57.5t56.5 21.5t56.5 -21.5t20.5 -57.5q0 -35 -20.5 -56t-56.5 -21t-56.5 21t-20.5 56zM901 52v177q-35 -107 -137.5 -173t-222.5 -66q-200 0 -331 140t-131 363q0 225 130.5 363.5t331.5 138.5q121 0 224 -69t136 -172v229h118v-931
q0 -227 -125 -365t-327 -138q-165 0 -286 92t-166 267h126q38 -119 125.5 -180t200.5 -61q149 0 241.5 105.5t92.5 279.5zM197 493q0 -170 102 -276.5t252 -106.5q152 0 251 105.5t99 276.5q0 166 -99 275.5t-251 109.5q-151 0 -252.5 -107t-101.5 -277z" />
    <glyph glyph-name="uni0122" unicode="&#x122;" horiz-adv-x="1407" 
d="M623 641v113h716q4 -31 4 -68q0 -150 -49 -280t-133.5 -220.5t-201.5 -142t-251 -51.5q-137 0 -257 52.5t-206.5 144.5t-136 223.5t-49.5 283.5q0 201 83 362.5t230 252t331 90.5q206 0 358.5 -104.5t226.5 -293.5h-128q-65 134 -183 206t-272 72q-230 0 -378 -162.5
t-148 -422.5q0 -261 148 -423t382 -162q140 0 253.5 65.5t182 186.5t77.5 278h-599zM632 -246q0 35 20.5 56t56.5 21t56.5 -21t20.5 -56q0 -64 -16 -114.5t-54 -116.5l-16 -28h-71l26 54q39 67 50 127q-33 2 -53 23.5t-20 54.5z" />
    <glyph glyph-name="uni0123" unicode="&#x123;" horiz-adv-x="1105" 
d="M621 1240q0 -36 -21.5 -57t-57.5 -21q-35 0 -55 21t-20 57q0 64 15.5 114t53.5 116l16 29h72l-28 -54q-40 -77 -47 -128q33 -2 52.5 -23t19.5 -54zM901 52v177q-35 -107 -137.5 -173t-222.5 -66q-200 0 -331 140t-131 363q0 225 130.5 363.5t331.5 138.5q121 0 224 -69
t136 -172v229h118v-931q0 -227 -125 -365t-327 -138q-165 0 -286 92t-166 267h126q38 -119 125.5 -180t200.5 -61q149 0 241.5 105.5t92.5 279.5zM197 493q0 -170 102 -276.5t252 -106.5q152 0 251 105.5t99 276.5q0 166 -99 275.5t-251 109.5q-151 0 -252.5 -107
t-101.5 -277z" />
    <glyph glyph-name="Hcircumflex" unicode="&#x124;" horiz-adv-x="1178" 
d="M657 1802l270 -324h-132l-205 246l-205 -246h-133l272 324h133zM198 0h-118v1393h118v-638h785v638h120v-1393h-120v637h-785v-637z" />
    <glyph glyph-name="hcircumflex" unicode="&#x125;" horiz-adv-x="1014" 
d="M211 1801l271 -325h-133l-205 246l-205 -246h-132l270 325h134zM803 493q0 175 -83 279.5t-222 104.5q-127 0 -208.5 -109t-81.5 -276v-492h-120v1393h120v-639q30 107 113.5 174t194.5 67q186 0 296 -137t110 -365v-493h-119v493z" />
    <glyph glyph-name="Hbar" unicode="&#x126;" horiz-adv-x="1228" 
d="M223 0h-118v1034h-110v119h110v240h118v-240h785v240h119v-240h110v-119h-110v-1034h-119v637h-785v-637zM223 755h785v279h-785v-279z" />
    <glyph glyph-name="hbar" unicode="&#x127;" horiz-adv-x="1089" 
d="M878 493q0 175 -83 279.5t-222 104.5q-127 0 -209 -109t-82 -276v-492h-118v1139h-131v105h131v149h118v-149h357v-105h-357v-385q30 107 113.5 174t194.5 67q186 0 296 -137t110 -365v-493h-118v493z" />
    <glyph glyph-name="Itilde" unicode="&#x128;" horiz-adv-x="304" 
d="M-128 1519h-82q8 127 60.5 206t129.5 79q43 0 82.5 -19.5t70 -46.5t59 -54.5t61.5 -47t66 -19.5q48 0 78 49t36 138h80q-4 -128 -56 -206.5t-134 -78.5q-46 0 -86.5 19.5t-69.5 46.5t-56 54.5t-58.5 47t-65.5 19.5q-43 0 -76 -54t-39 -133zM211 0h-118v1393h118v-1393z
" />
    <glyph glyph-name="itilde" unicode="&#x129;" horiz-adv-x="308" 
d="M-125 1109h-81q8 127 60.5 206t129.5 79q42 0 81.5 -19t70 -46.5t59 -55t61.5 -46.5t65 -19q48 0 77.5 48.5t35.5 137.5h82q-4 -128 -57 -206.5t-135 -78.5q-46 0 -86 19.5t-69 46.5t-56 54.5t-58.5 47t-64.5 19.5q-44 0 -77 -53.5t-38 -133.5zM215 0h-118v983h118v-983z
" />
    <glyph glyph-name="Imacron" unicode="&#x12a;" horiz-adv-x="304" 
d="M-211 1596v119h727v-119h-727zM211 0h-118v1393h118v-1393z" />
    <glyph glyph-name="imacron" unicode="&#x12b;" horiz-adv-x="308" 
d="M-210 1186v120h728v-120h-728zM215 0h-118v983h118v-983z" />
    <glyph glyph-name="Iogonek" unicode="&#x12e;" horiz-adv-x="304" 
d="M211 0h-118v1393h118v-1393zM139 13l54 -13q-100 -67 -88 -159q6 -48 47.5 -77t108.5 -29v-84q-111 0 -173 45t-68 127q-10 131 119 190z" />
    <glyph glyph-name="iogonek" unicode="&#x12f;" horiz-adv-x="308" 
d="M77 1289q0 36 20.5 57.5t56.5 21.5t56.5 -21.5t20.5 -57.5q0 -35 -20.5 -56t-56.5 -21t-56.5 21t-20.5 56zM215 0h-20q-103 -67 -89 -159q6 -48 47.5 -77t108.5 -29v-84q-111 0 -173 45t-68 127q-10 118 94 177h-20v983h120v-983z" />
    <glyph glyph-name="Idotaccent" unicode="&#x130;" horiz-adv-x="304" 
d="M75 1699q0 36 21 57.5t58 21.5q34 0 54.5 -21.5t20.5 -57.5q0 -35 -20.5 -56t-54.5 -21q-36 0 -57.5 21t-21.5 56zM211 0h-118v1393h118v-1393z" />
    <glyph glyph-name="dotlessi" unicode="&#x131;" horiz-adv-x="308" 
d="M215 0h-118v983h118v-983z" />
    <glyph glyph-name="IJ" unicode="&#x132;" horiz-adv-x="1322" 
d="M213 0h-120v1393h120v-1393zM1129 495v898h119v-898q0 -227 -125.5 -365t-329.5 -138q-176 0 -296 102t-153 278h125q27 -121 114 -191t210 -70q152 0 244 105t92 279z" />
    <glyph glyph-name="ij" unicode="&#x133;" horiz-adv-x="598" 
d="M69 1289q0 36 20.5 57.5t56.5 21.5t56.5 -21.5t20.5 -57.5q0 -35 -20.5 -56t-56.5 -21t-56.5 21t-20.5 56zM360 1289q0 36 20.5 57.5t56.5 21.5t56.5 -21.5t20.5 -57.5q0 -35 -20.5 -56t-56.5 -21t-56.5 21t-20.5 56zM206 0h-119v983h409v-1116q0 -169 -68.5 -243.5
t-222.5 -74.5h-94v118h82q99 0 142 47.5t43 157.5v995h-172v-867z" />
    <glyph glyph-name="Jcircumflex" unicode="&#x134;" horiz-adv-x="1042" 
d="M973 1802l272 -324h-133l-204 246l-205 -246h-133l270 324h133zM847 495v898h120v-898q0 -227 -126 -365t-330 -138q-176 0 -296 102t-153 278h126q25 -121 112.5 -191t210.5 -70q152 0 244 105t92 279z" />
    <glyph glyph-name="jcircumflex" unicode="&#x135;" horiz-adv-x="319" 
d="M224 1393l272 -325h-132l-205 246l-205 -246h-133l271 325h132zM218 983v-1116q0 -169 -69 -243.5t-224 -74.5h-94v118h84q98 0 140.5 47.5t42.5 157.5v1111h120z" />
    <glyph glyph-name="uni0136" unicode="&#x136;" horiz-adv-x="1068" 
d="M203 0h-119v1393h119v-682l642 682h146l-657 -697l710 -696h-158l-683 675v-675zM441 -246q0 36 20.5 56.5t56.5 20.5t56.5 -20.5t20.5 -56.5q0 -63 -16 -113t-55 -116l-16 -30h-71l27 54q38 66 49 128q-33 1 -52.5 22.5t-19.5 54.5z" />
    <glyph glyph-name="uni0137" unicode="&#x137;" horiz-adv-x="865" 
d="M242 0h-119v1393h119v-883l469 473h138l-472 -491l508 -492h-156l-487 473v-473zM342 -246q0 35 21.5 56t57.5 21q34 0 54.5 -21t20.5 -56q0 -65 -15 -115.5t-53 -115.5l-17 -28h-72l28 54q41 78 48 127q-33 2 -53 23.5t-20 54.5z" />
    <glyph glyph-name="kgreenlandic" unicode="&#x138;" horiz-adv-x="865" 
d="M203 0h-118v983h118v-473l469 473h139l-473 -491l507 -492h-155l-487 473v-473z" />
    <glyph glyph-name="Lacute" unicode="&#x139;" horiz-adv-x="955" 
d="M185 1478h-95l92 323h131zM893 120v-120h-818v1393h120v-1273h698z" />
    <glyph glyph-name="lacute" unicode="&#x13a;" horiz-adv-x="296" 
d="M193 1475h-95l92 322h133zM206 0h-118v1393h118v-1393z" />
    <glyph glyph-name="uni013B" unicode="&#x13b;" horiz-adv-x="955" 
d="M893 120v-120h-818v1393h120v-1273h698zM413 -247q0 36 21 56.5t58 20.5q35 0 55 -20.5t20 -56.5q0 -63 -16 -113.5t-55 -116.5l-14 -29h-72l26 54q38 66 49 128q-33 1 -52.5 22.5t-19.5 54.5z" />
    <glyph glyph-name="uni013C" unicode="&#x13c;" horiz-adv-x="296" 
d="M206 0h-118v1393h118v-1393zM75 -246q0 35 21.5 56t57.5 21q34 0 54.5 -21t20.5 -56q0 -65 -15 -115.5t-53 -115.5l-17 -28h-72l28 54q40 75 47 127q-33 2 -52.5 23.5t-19.5 54.5z" />
    <glyph glyph-name="Lcaron" unicode="&#x13d;" horiz-adv-x="955" 
d="M582 1317q0 35 21 56t57 21q34 0 55 -21t21 -56q0 -65 -16 -114t-55 -117l-15 -29h-72l27 54q42 74 49 128q-33 2 -52.5 23t-19.5 55zM893 120v-120h-818v1393h120v-1273h698z" />
    <glyph glyph-name="lcaron" unicode="&#x13e;" horiz-adv-x="509" 
d="M206 0h-118v1393h118v-1393zM300 1316q0 35 20.5 56t56.5 21t56.5 -21t20.5 -56q0 -63 -16 -113.5t-55 -117.5l-16 -28h-70l26 54q38 66 49 128q-33 1 -52.5 22.5t-19.5 54.5z" />
    <glyph glyph-name="Ldot" unicode="&#x13f;" horiz-adv-x="955" 
d="M893 120v-120h-818v1393h120v-1273h698zM511 696q0 35 20.5 56t56.5 21t56.5 -21t20.5 -56t-20.5 -56t-56.5 -21t-56.5 21t-20.5 56z" />
    <glyph glyph-name="ldot" unicode="&#x140;" horiz-adv-x="517" 
d="M206 0h-118v1393h118v-1393zM297 696q0 35 21 56t57 21q34 0 55 -21t21 -56t-21 -56t-55 -21q-36 0 -57 21t-21 56z" />
    <glyph glyph-name="Lslash" unicode="&#x141;" horiz-adv-x="1007" 
d="M944 120v-120h-818v534l-92 -36v118l92 36v741h118v-695l151 59v-118l-151 -57v-462h700z" />
    <glyph glyph-name="lslash" unicode="&#x142;" horiz-adv-x="404" 
d="M259 0h-118v552l-113 -44v118l113 44v723h118v-675l116 45v-117l-116 -46v-600z" />
    <glyph glyph-name="Nacute" unicode="&#x143;" horiz-adv-x="1258" 
d="M682 1479h-95l91 323h133zM193 0h-119v1393h119l869 -1193v1193h119v-1393h-119l-869 1193v-1193z" />
    <glyph glyph-name="nacute" unicode="&#x144;" horiz-adv-x="1010" 
d="M565 1070h-96l91 323h133zM803 493q0 175 -83 279.5t-222 104.5q-127 0 -208.5 -109t-81.5 -276v-492h-120v983h120v-229q30 107 113.5 174t194.5 67q186 0 296 -137t110 -365v-493h-119v493z" />
    <glyph glyph-name="uni0145" unicode="&#x145;" horiz-adv-x="1258" 
d="M193 0h-119v1393h119l869 -1193v1193h119v-1393h-119l-869 1193v-1193zM559 -246q0 35 20.5 56t56.5 21t56.5 -21t20.5 -56q0 -63 -16 -113.5t-55 -117.5l-16 -28h-72l28 54q39 67 47 127q-33 2 -51.5 23.5t-18.5 54.5z" />
    <glyph glyph-name="uni0146" unicode="&#x146;" horiz-adv-x="1010" 
d="M803 493q0 175 -83 279.5t-222 104.5q-127 0 -208.5 -109t-81.5 -276v-492h-120v983h120v-229q30 107 113.5 174t194.5 67q186 0 296 -137t110 -365v-493h-119v493zM436 -246q0 35 20.5 56t56.5 21q35 0 56 -21.5t21 -55.5q0 -63 -16 -113.5t-55 -117.5l-16 -28h-72
l28 54q40 75 47 127q-33 2 -51.5 23.5t-18.5 54.5z" />
    <glyph glyph-name="Ncaron" unicode="&#x147;" horiz-adv-x="1258" 
d="M696 1478h-132l-272 324h132l205 -244l205 244h133zM193 0h-119v1393h119l869 -1193v1193h119v-1393h-119l-869 1193v-1193z" />
    <glyph glyph-name="ncaron" unicode="&#x148;" horiz-adv-x="1010" 
d="M573 1068h-132l-272 325h132l205 -244l205 244h133zM803 493q0 175 -83 279.5t-222 104.5q-127 0 -208.5 -109t-81.5 -276v-492h-120v983h120v-229q30 107 113.5 174t194.5 67q186 0 296 -137t110 -365v-493h-119v493z" />
    <glyph glyph-name="napostrophe" unicode="&#x149;" horiz-adv-x="1192" 
d="M51 1111q0 35 21 56t57 21q34 0 55 -21t21 -56q0 -63 -16 -113.5t-55 -117.5l-16 -28h-70l26 54q38 66 49 128q-33 1 -52.5 22.5t-19.5 54.5zM988 493q0 176 -83 280t-223 104q-125 0 -207.5 -109t-82.5 -276v-492h-120v983h120v-229q30 107 113.5 174t194.5 67
q186 0 296 -137t110 -365v-493h-118v493z" />
    <glyph glyph-name="Omacron" unicode="&#x14c;" horiz-adv-x="1377" 
d="M326 1596v119h727v-119h-727zM66 696q0 204 80 365t223.5 250.5t325.5 89.5q184 0 328 -89t224 -250t80 -366t-80 -366t-224 -250.5t-328 -89.5q-182 0 -325.5 89.5t-223.5 250.5t-80 366zM695 1285q-149 0 -265.5 -74.5t-181 -209t-64.5 -305.5q0 -260 143 -425
t368 -165q227 0 370 165t143 425t-143 424.5t-370 164.5z" />
    <glyph glyph-name="omacron" unicode="&#x14d;" horiz-adv-x="1076" 
d="M175 1186v120h728v-120h-728zM64 493q0 212 137.5 357t337.5 145q132 0 241.5 -66t171.5 -181t62 -255t-62 -255.5t-171 -181.5t-242 -66q-201 0 -338 145t-137 358zM539 877q-150 0 -253.5 -111t-103.5 -273q0 -163 103 -273t254 -110q152 0 254 110t102 273
q0 162 -102.5 273t-253.5 111z" />
    <glyph glyph-name="Obreve" unicode="&#x14e;" horiz-adv-x="1377" 
d="M398 1802h98q5 -82 59.5 -132.5t134.5 -50.5t132.5 50t58.5 133h100q-6 -126 -87 -204t-204 -78q-124 0 -205.5 78t-86.5 204zM66 696q0 204 80 365t223.5 250.5t325.5 89.5q184 0 328 -89t224 -250t80 -366t-80 -366t-224 -250.5t-328 -89.5q-182 0 -325.5 89.5
t-223.5 250.5t-80 366zM695 1285q-149 0 -265.5 -74.5t-181 -209t-64.5 -305.5q0 -260 143 -425t368 -165q227 0 370 165t143 425t-143 424.5t-370 164.5z" />
    <glyph glyph-name="obreve" unicode="&#x14f;" horiz-adv-x="1076" 
d="M247 1393h99q6 -83 59.5 -133.5t133.5 -50.5q81 0 134 50.5t59 133.5h99q-6 -126 -87 -204t-205 -78t-205 78t-87 204zM64 493q0 212 137.5 357t337.5 145q132 0 241.5 -66t171.5 -181t62 -255t-62 -255.5t-171 -181.5t-242 -66q-201 0 -338 145t-137 358zM539 877
q-150 0 -253.5 -111t-103.5 -273q0 -163 103 -273t254 -110q152 0 254 110t102 273q0 162 -102.5 273t-253.5 111z" />
    <glyph glyph-name="Ohungarumlaut" unicode="&#x150;" horiz-adv-x="1377" 
d="M560 1479h-95l92 323h133zM911 1479h-97l92 323h133zM66 696q0 204 80 365t223.5 250.5t325.5 89.5q184 0 328 -89t224 -250t80 -366t-80 -366t-224 -250.5t-328 -89.5q-182 0 -325.5 89.5t-223.5 250.5t-80 366zM695 1285q-149 0 -265.5 -74.5t-181 -209t-64.5 -305.5
q0 -260 143 -425t368 -165q227 0 370 165t143 425t-143 424.5t-370 164.5z" />
    <glyph glyph-name="ohungarumlaut" unicode="&#x151;" horiz-adv-x="1076" 
d="M405 1070h-97l92 323h132zM754 1070h-95l91 323h131zM64 493q0 212 137.5 357t337.5 145q132 0 241.5 -66t171.5 -181t62 -255t-62 -255.5t-171 -181.5t-242 -66q-201 0 -338 145t-137 358zM539 877q-150 0 -253.5 -111t-103.5 -273q0 -163 103 -273t254 -110
q152 0 254 110t102 273q0 162 -102.5 273t-253.5 111z" />
    <glyph glyph-name="OE" unicode="&#x152;" horiz-adv-x="2106" 
d="M66 696q0 204 80 365t223.5 250.5t325.5 89.5q165 0 298.5 -73t217.5 -204v269h804v-118h-685v-520h670v-118h-670v-517h700v-120h-819v269q-84 -132 -217.5 -205.5t-298.5 -73.5q-182 0 -325.5 89.5t-223.5 250.5t-80 366zM695 1285q-149 0 -265.5 -74.5t-181 -209
t-64.5 -305.5q0 -260 143 -425t368 -165q227 0 370 165t143 425t-143 424.5t-370 164.5z" />
    <glyph glyph-name="oe" unicode="&#x153;" horiz-adv-x="1912" 
d="M69 493q0 212 137.5 357t339.5 145q133 0 243 -68.5t171 -184.5q60 116 168.5 184.5t242.5 68.5q97 0 184.5 -38t150.5 -103.5t99.5 -156t36.5 -191.5q0 -26 -5 -59h-816q14 -155 110.5 -249.5t241.5 -94.5q103 0 184.5 54t121.5 143h127q-51 -139 -169 -224.5
t-262 -85.5q-140 0 -249.5 66t-167.5 183q-63 -115 -171 -182t-241 -67q-202 0 -339.5 144.5t-137.5 358.5zM1022 539h700q-11 148 -111 245t-240 97t-237.5 -96t-111.5 -246zM546 877q-151 0 -254.5 -111t-103.5 -273q0 -163 103 -273t255 -110t253.5 110t101.5 273
q0 162 -102 273t-253 111z" />
    <glyph glyph-name="Racute" unicode="&#x154;" horiz-adv-x="1091" 
d="M529 1479h-96l91 323h133zM75 0v1393h467q215 0 345 -116.5t130 -313.5q0 -160 -88 -270.5t-239 -146.5l375 -546h-143l-362 531h-365v-531h-120zM542 1275h-347v-626h362q152 0 246.5 87t94.5 227q0 141 -97.5 226.5t-258.5 85.5z" />
    <glyph glyph-name="racute" unicode="&#x155;" horiz-adv-x="666" 
d="M370 1070h-95l92 323h133zM618 995v-118q-197 2 -307.5 -103t-110.5 -294v-480h-120v983h120v-239q100 251 418 251z" />
    <glyph glyph-name="uni0156" unicode="&#x156;" horiz-adv-x="1091" 
d="M75 0v1393h467q215 0 345 -116.5t130 -313.5q0 -160 -88 -270.5t-239 -146.5l375 -546h-143l-362 531h-365v-531h-120zM542 1275h-347v-626h362q152 0 246.5 87t94.5 227q0 141 -97.5 226.5t-258.5 85.5zM473 -246q0 36 21.5 57.5t57.5 21.5q35 0 55.5 -21.5t20.5 -57.5
q0 -64 -15.5 -113.5t-53.5 -115.5l-17 -30h-72l28 54q42 80 48 128q-33 2 -53 23t-20 54z" />
    <glyph glyph-name="uni0157" unicode="&#x157;" horiz-adv-x="666" 
d="M618 995v-118q-197 2 -307.5 -103t-110.5 -294v-480h-120v983h120v-239q100 251 418 251zM67 -244q0 36 20.5 56.5t56.5 20.5q35 0 56 -20.5t21 -56.5q0 -64 -16 -113.5t-54 -115.5l-17 -30h-72l28 54q42 80 48 128q-33 1 -52 22.5t-19 54.5z" />
    <glyph glyph-name="Rcaron" unicode="&#x158;" horiz-adv-x="1091" 
d="M613 1478h-135l-270 324h133l205 -244l204 244h133zM75 0v1393h467q215 0 345 -116.5t130 -313.5q0 -160 -88 -270.5t-239 -146.5l375 -546h-143l-362 531h-365v-531h-120zM542 1275h-347v-626h362q152 0 246.5 87t94.5 227q0 141 -97.5 226.5t-258.5 85.5z" />
    <glyph glyph-name="rcaron" unicode="&#x159;" horiz-adv-x="666" 
d="M400 1068h-133l-272 325h133l205 -244l204 244h133zM618 995v-118q-197 2 -307.5 -103t-110.5 -294v-480h-120v983h120v-239q100 251 418 251z" />
    <glyph glyph-name="Sacute" unicode="&#x15a;" 
d="M598 1479h-97l92 323h133zM67 400h118q12 -131 118.5 -213t258.5 -82t250 78.5t102 191.5q1 37 -6.5 69t-24.5 57t-35 45t-48 37.5t-53.5 29t-62 24t-62.5 19t-65 17.5q-163 41 -189 49q-152 50 -209 143q-46 74 -46 187q1 113 63 193.5t160.5 118t222.5 37.5
q120 0 217.5 -43t158.5 -127.5t66 -196.5h-118q-11 116 -101 184t-223 68q-141 0 -233.5 -62t-94.5 -172q-1 -53 16 -93t44.5 -65t71 -44.5t86 -31.5t97.5 -25q21 -5 31 -7q74 -17 130 -34.5t121.5 -50.5t107.5 -74t69.5 -106t26.5 -146q-1 -74 -35 -143.5t-93.5 -122.5
t-148 -85.5t-191.5 -33.5q-204 0 -344.5 112t-152.5 298z" />
    <glyph glyph-name="sacute" unicode="&#x15b;" horiz-adv-x="845" 
d="M465 1070h-95l92 323h131zM57 295h115q6 -83 81.5 -141.5t177.5 -60.5q100 -2 164 43.5t64 120.5q0 82 -61 128t-208 84q-67 17 -117 38.5t-92.5 53.5t-65 77t-22.5 103q0 112 96 183t239 71q135 0 224.5 -72.5t109.5 -195.5h-110q-13 73 -75 117.5t-149 46.5
q-91 2 -153 -41t-62 -108q0 -30 10 -55t32 -43t40.5 -30.5t50 -23t44 -14t38.5 -9.5q135 -36 184 -59q148 -68 164 -211q2 -19 2 -40q0 -118 -98.5 -192.5t-251.5 -74.5q-144 0 -254.5 86.5t-116.5 218.5z" />
    <glyph glyph-name="Scircumflex" unicode="&#x15c;" 
d="M629 1802l270 -324h-132l-205 246l-205 -246h-133l272 324h133zM67 400h118q12 -131 118.5 -213t258.5 -82t250 78.5t102 191.5q1 37 -6.5 69t-24.5 57t-35 45t-48 37.5t-53.5 29t-62 24t-62.5 19t-65 17.5q-163 41 -189 49q-152 50 -209 143q-46 74 -46 187
q1 113 63 193.5t160.5 118t222.5 37.5q120 0 217.5 -43t158.5 -127.5t66 -196.5h-118q-11 116 -101 184t-223 68q-141 0 -233.5 -62t-94.5 -172q-1 -53 16 -93t44.5 -65t71 -44.5t86 -31.5t97.5 -25q21 -5 31 -7q74 -17 130 -34.5t121.5 -50.5t107.5 -74t69.5 -106
t26.5 -146q-1 -74 -35 -143.5t-93.5 -122.5t-148 -85.5t-191.5 -33.5q-204 0 -344.5 112t-152.5 298z" />
    <glyph glyph-name="scircumflex" unicode="&#x15d;" horiz-adv-x="845" 
d="M493 1393l272 -325h-133l-204 246l-205 -246h-133l270 325h133zM57 295h115q6 -83 81.5 -141.5t177.5 -60.5q100 -2 164 43.5t64 120.5q0 82 -61 128t-208 84q-67 17 -117 38.5t-92.5 53.5t-65 77t-22.5 103q0 112 96 183t239 71q135 0 224.5 -72.5t109.5 -195.5h-110
q-13 73 -75 117.5t-149 46.5q-91 2 -153 -41t-62 -108q0 -30 10 -55t32 -43t40.5 -30.5t50 -23t44 -14t38.5 -9.5q135 -36 184 -59q148 -68 164 -211q2 -19 2 -40q0 -118 -98.5 -192.5t-251.5 -74.5q-144 0 -254.5 86.5t-116.5 218.5z" />
    <glyph glyph-name="Scedilla" unicode="&#x15e;" 
d="M67 400h118q12 -131 118.5 -213t258.5 -82t250 78.5t102 191.5q1 37 -6.5 69t-24.5 57t-35 45t-48 37.5t-53.5 29t-62 24t-62.5 19t-65 17.5q-163 41 -189 49q-152 50 -209 143q-46 74 -46 187q1 113 63 193.5t160.5 118t222.5 37.5q120 0 217.5 -43t158.5 -127.5
t66 -196.5h-118q-11 116 -101 184t-223 68q-141 0 -233.5 -62t-94.5 -172q-1 -53 16 -93t44.5 -65t71 -44.5t86 -31.5t97.5 -25q21 -5 31 -7q74 -17 130 -34.5t121.5 -50.5t107.5 -74t69.5 -106t26.5 -146q-1 -68 -29.5 -132t-79 -115.5t-125.5 -87t-164 -45.5l-56 -269
h-119l77 264q-195 8 -326.5 119.5t-142.5 290.5z" />
    <glyph glyph-name="scedilla" unicode="&#x15f;" horiz-adv-x="845" 
d="M57 295h115q6 -83 81.5 -141.5t177.5 -60.5q100 -2 164 43.5t64 120.5q0 82 -61 128t-208 84q-67 17 -117 38.5t-92.5 53.5t-65 77t-22.5 103q0 112 96 183t239 71q135 0 224.5 -72.5t109.5 -195.5h-110q-13 73 -75 117.5t-149 46.5q-91 2 -153 -41t-62 -108
q0 -30 10 -55t32 -43t40.5 -30.5t50 -23t44 -14t38.5 -9.5q135 -36 184 -59q148 -68 164 -211q2 -19 2 -40q0 -104 -78 -175t-205 -87l-54 -269h-122l77 266q-135 9 -234 93.5t-105 209.5z" />
    <glyph glyph-name="Scaron" unicode="&#x160;" 
d="M614 1478h-132l-271 324h133l205 -244l205 244h132zM67 400h118q12 -131 118.5 -213t258.5 -82t250 78.5t102 191.5q1 37 -6.5 69t-24.5 57t-35 45t-48 37.5t-53.5 29t-62 24t-62.5 19t-65 17.5q-163 41 -189 49q-152 50 -209 143q-46 74 -46 187q1 113 63 193.5
t160.5 118t222.5 37.5q120 0 217.5 -43t158.5 -127.5t66 -196.5h-118q-11 116 -101 184t-223 68q-141 0 -233.5 -62t-94.5 -172q-1 -53 16 -93t44.5 -65t71 -44.5t86 -31.5t97.5 -25q21 -5 31 -7q74 -17 130 -34.5t121.5 -50.5t107.5 -74t69.5 -106t26.5 -146
q-1 -74 -35 -143.5t-93.5 -122.5t-148 -85.5t-191.5 -33.5q-204 0 -344.5 112t-152.5 298z" />
    <glyph glyph-name="scaron" unicode="&#x161;" horiz-adv-x="845" 
d="M490 1068h-134l-271 325h133l205 -244l205 244h132zM57 295h115q6 -83 81.5 -141.5t177.5 -60.5q100 -2 164 43.5t64 120.5q0 82 -61 128t-208 84q-67 17 -117 38.5t-92.5 53.5t-65 77t-22.5 103q0 112 96 183t239 71q135 0 224.5 -72.5t109.5 -195.5h-110
q-13 73 -75 117.5t-149 46.5q-91 2 -153 -41t-62 -108q0 -30 10 -55t32 -43t40.5 -30.5t50 -23t44 -14t38.5 -9.5q135 -36 184 -59q148 -68 164 -211q2 -19 2 -40q0 -118 -98.5 -192.5t-251.5 -74.5q-144 0 -254.5 86.5t-116.5 218.5z" />
    <glyph glyph-name="uni0162" unicode="&#x162;" horiz-adv-x="1086" 
d="M601 0h-11l-56 -274h-121l80 274h-11v1275h-444v118h1009v-118h-446v-1275z" />
    <glyph glyph-name="uni0163" unicode="&#x163;" horiz-adv-x="683" 
d="M257 1191h87v-208h267v-113h-267v-547q0 -109 43.5 -157t141.5 -48h82v-118h-92l-55 -274h-122l82 282q-103 19 -150.5 94t-47.5 216v552h-169v113h169z" />
    <glyph glyph-name="Tcaron" unicode="&#x164;" horiz-adv-x="1086" 
d="M609 1478h-132l-272 324h134l205 -244l203 244h134zM601 0h-119v1275h-444v118h1009v-118h-446v-1275z" />
    <glyph glyph-name="tcaron" unicode="&#x165;" horiz-adv-x="701" 
d="M519 1388q0 35 21.5 56t57.5 21q34 0 54.5 -21t20.5 -56q0 -65 -15.5 -114.5t-54.5 -116.5l-15 -30h-72l26 54q42 74 49 128q-33 2 -52.5 23.5t-19.5 55.5zM257 1191h87v-208h267v-113h-267v-547q0 -109 43.5 -157t141.5 -48h82v-118h-92q-155 0 -224 74.5t-69 243.5v552
h-169v113h169z" />
    <glyph glyph-name="Tbar" unicode="&#x166;" horiz-adv-x="1086" 
d="M601 0h-119v575h-305v118h305v582h-444v118h1009v-118h-446v-582h303v-118h-303v-575z" />
    <glyph glyph-name="tbar" unicode="&#x167;" horiz-adv-x="683" 
d="M257 1191h87v-208h267v-113h-267v-301h267v-114h-267v-132q0 -109 43.5 -157t141.5 -48h82v-118h-92q-155 0 -224 74.5t-69 243.5v137h-169v114h169v301h-169v113h169z" />
    <glyph glyph-name="Utilde" unicode="&#x168;" horiz-adv-x="1273" 
d="M329 1519h-82q8 127 60.5 206t129.5 79q42 0 81 -19.5t69.5 -46.5t59.5 -54.5t62 -47t66 -19.5q48 0 77.5 49t35.5 138h82q-4 -128 -57 -206.5t-135 -78.5q-46 0 -86 19.5t-69 46.5t-56 54.5t-58.5 47t-64.5 19.5q-44 0 -77 -53.5t-38 -133.5zM80 696v697h120v-697
q0 -297 107 -443.5t324 -146.5q432 0 432 590v697h118v-697q0 -345 -140.5 -525.5t-409.5 -180.5q-270 0 -410.5 180t-140.5 526z" />
    <glyph glyph-name="utilde" unicode="&#x169;" horiz-adv-x="986" 
d="M187 1109h-82q8 127 60.5 206t129.5 79q42 0 81.5 -19t70 -46.5t59 -55t61.5 -46.5t65 -19q48 0 77.5 48.5t35.5 137.5h82q-4 -128 -56.5 -206.5t-134.5 -78.5q-46 0 -86 19.5t-69 46.5t-56.5 54.5t-59 47t-64.5 19.5q-43 0 -75.5 -53.5t-38.5 -133.5zM195 490
q0 -175 83 -278.5t223 -103.5q125 0 207.5 108.5t82.5 275.5v491h118v-983h-118v229q-30 -106 -113.5 -173t-194.5 -67q-186 0 -296 136.5t-110 364.5v493h118v-493z" />
    <glyph glyph-name="Umacron" unicode="&#x16a;" horiz-adv-x="1273" 
d="M272 1596v119h727v-119h-727zM80 696v697h120v-697q0 -297 107 -443.5t324 -146.5q432 0 432 590v697h118v-697q0 -345 -140.5 -525.5t-409.5 -180.5q-270 0 -410.5 180t-140.5 526z" />
    <glyph glyph-name="umacron" unicode="&#x16b;" horiz-adv-x="986" 
d="M129 1186v120h728v-120h-728zM195 490q0 -175 83 -278.5t223 -103.5q125 0 207.5 108.5t82.5 275.5v491h118v-983h-118v229q-30 -106 -113.5 -173t-194.5 -67q-186 0 -296 136.5t-110 364.5v493h118v-493z" />
    <glyph glyph-name="Ubreve" unicode="&#x16c;" horiz-adv-x="1273" 
d="M346 1802h98q5 -83 59 -133t134 -50t133 50t59 133h98q-6 -126 -86.5 -204t-203.5 -78q-124 0 -205 78t-86 204zM80 696v697h120v-697q0 -297 107 -443.5t324 -146.5q432 0 432 590v697h118v-697q0 -345 -140.5 -525.5t-409.5 -180.5q-270 0 -410.5 180t-140.5 526z" />
    <glyph glyph-name="ubreve" unicode="&#x16d;" horiz-adv-x="986" 
d="M203 1393h98q5 -83 59.5 -133.5t134.5 -50.5t132.5 50.5t58.5 133.5h100q-6 -126 -87 -204t-204 -78q-124 0 -205.5 78t-86.5 204zM195 490q0 -175 83 -278.5t223 -103.5q125 0 207.5 108.5t82.5 275.5v491h118v-983h-118v229q-30 -106 -113.5 -173t-194.5 -67
q-186 0 -296 136.5t-110 364.5v493h118v-493z" />
    <glyph glyph-name="Uring" unicode="&#x16e;" horiz-adv-x="1273" 
d="M472 1637q0 75 47 122t118 47q72 0 119 -46.5t47 -122.5q0 -74 -47 -121.5t-119 -47.5q-71 0 -118 47.5t-47 121.5zM639 1748q-46 0 -78 -31.5t-32 -81.5q0 -48 32 -79t78 -31q43 0 74 32t31 78q0 50 -30 81.5t-75 31.5zM80 696v697h120v-697q0 -297 107 -443.5
t324 -146.5q432 0 432 590v697h118v-697q0 -345 -140.5 -525.5t-409.5 -180.5q-270 0 -410.5 180t-140.5 526z" />
    <glyph glyph-name="uring" unicode="&#x16f;" horiz-adv-x="986" 
d="M328 1227q0 75 47.5 122t119.5 47q71 0 117.5 -47t46.5 -122q0 -74 -47 -121.5t-117 -47.5q-72 0 -119.5 47.5t-47.5 121.5zM495 1339q-45 0 -76.5 -31.5t-31.5 -81.5q0 -48 32 -79t76 -31t75 32t31 78q0 50 -30.5 81.5t-75.5 31.5zM195 490q0 -175 83 -278.5t223 -103.5
q125 0 207.5 108.5t82.5 275.5v491h118v-983h-118v229q-30 -106 -113.5 -173t-194.5 -67q-186 0 -296 136.5t-110 364.5v493h118v-493z" />
    <glyph glyph-name="Uhungarumlaut" unicode="&#x170;" horiz-adv-x="1273" 
d="M496 1479h-95l92 323h131zM845 1479h-95l92 323h133zM80 696v697h120v-697q0 -297 107 -443.5t324 -146.5q432 0 432 590v697h118v-697q0 -345 -140.5 -525.5t-409.5 -180.5q-270 0 -410.5 180t-140.5 526z" />
    <glyph glyph-name="uhungarumlaut" unicode="&#x171;" horiz-adv-x="986" 
d="M356 1070h-95l91 323h131zM705 1070h-96l92 323h133zM195 490q0 -175 83 -278.5t223 -103.5q125 0 207.5 108.5t82.5 275.5v491h118v-983h-118v229q-30 -106 -113.5 -173t-194.5 -67q-186 0 -296 136.5t-110 364.5v493h118v-493z" />
    <glyph glyph-name="Uogonek" unicode="&#x172;" horiz-adv-x="1273" 
d="M80 696v697h120v-697q0 -297 107 -443.5t324 -146.5q432 0 432 590v697h118v-697q0 -292 -101 -466.5t-297 -222.5q-101 -68 -87 -158q6 -48 47 -77t107 -29v-84q-109 0 -171 45t-68 127q-10 100 69 161q-16 -2 -49 -2q-270 0 -410.5 180t-140.5 526z" />
    <glyph glyph-name="uogonek" unicode="&#x173;" horiz-adv-x="986" 
d="M195 490q0 -175 83 -278.5t223 -103.5q125 0 207.5 108.5t82.5 275.5v491h118v-983h-18q-100 -67 -88 -159q8 -48 48 -77t107 -29v-84q-111 0 -172.5 45t-67.5 127q-10 117 93 177h-20v229q-30 -106 -113.5 -173t-194.5 -67q-186 0 -296 136.5t-110 364.5v493h118v-493z
" />
    <glyph glyph-name="Wcircumflex" unicode="&#x174;" horiz-adv-x="1744" 
d="M939 1802l272 -324h-135l-203 246l-205 -246h-134l272 324h133zM462 0v2l-447 1391h123l380 -1170l291 1170h123l290 -1172l380 1172h123l-447 -1393h-123l-285 1147l-287 -1147h-121z" />
    <glyph glyph-name="wcircumflex" unicode="&#x175;" horiz-adv-x="1440" 
d="M786 1393l272 -325h-132l-205 246l-205 -246h-133l271 325h132zM464 0h-125l-318 983h125l255 -791l254 791h125l255 -791l256 791h123l-316 -983h-125l-255 791z" />
    <glyph glyph-name="Ycircumflex" unicode="&#x176;" horiz-adv-x="1173" 
d="M654 1802l272 -324h-133l-205 246l-205 -246h-132l270 324h133zM646 591v-591h-120v591l-511 802h139l431 -705l432 705h140z" />
    <glyph glyph-name="ycircumflex" unicode="&#x177;" horiz-adv-x="989" 
d="M562 1393l270 -325h-132l-205 246l-205 -246h-133l272 325h133zM557 0l-43 -106q-53 -137 -112.5 -194t-173.5 -57h-46v118h38q61 0 103 36t75 118l33 85l-411 983h127l346 -831l347 831h128z" />
    <glyph glyph-name="Ydieresis" unicode="&#x178;" horiz-adv-x="1173" 
d="M326 1699q0 36 21 57.5t58 21.5q34 0 54.5 -21.5t20.5 -57.5q0 -35 -20.5 -56t-54.5 -21q-36 0 -57.5 21t-21.5 56zM693 1699q0 36 20.5 57.5t56.5 21.5t56.5 -21.5t20.5 -57.5q0 -35 -20.5 -56t-56.5 -21t-56.5 21t-20.5 56zM646 591v-591h-120v591l-511 802h139
l431 -705l432 705h140z" />
    <glyph glyph-name="Zacute" unicode="&#x179;" horiz-adv-x="1087" 
d="M587 1479h-97l92 323h132zM59 0v92l804 1184h-793v117h951v-95l-801 -1182h811v-116h-972z" />
    <glyph glyph-name="zacute" unicode="&#x17a;" horiz-adv-x="868" 
d="M465 1070h-96l91 323h133zM59 0v92l570 775h-559v116h720v-95l-566 -772h576v-116h-741z" />
    <glyph glyph-name="Zdotaccent" unicode="&#x17b;" horiz-adv-x="1087" 
d="M467 1699q0 36 21.5 57.5t57.5 21.5q34 0 54.5 -21.5t20.5 -57.5q0 -35 -20.5 -56t-54.5 -21q-36 0 -57.5 21t-21.5 56zM59 0v92l804 1184h-793v117h951v-95l-801 -1182h811v-116h-972z" />
    <glyph glyph-name="zdotaccent" unicode="&#x17c;" horiz-adv-x="868" 
d="M357 1289q0 36 21 57.5t58 21.5q34 0 54.5 -21.5t20.5 -57.5q0 -35 -20.5 -56t-54.5 -21q-36 0 -57.5 21t-21.5 56zM59 0v92l570 775h-559v116h720v-95l-566 -772h576v-116h-741z" />
    <glyph glyph-name="Zcaron" unicode="&#x17d;" horiz-adv-x="1087" 
d="M611 1478h-133l-270 324h133l205 -244l204 244h133zM59 0v92l804 1184h-793v117h951v-95l-801 -1182h811v-116h-972z" />
    <glyph glyph-name="zcaron" unicode="&#x17e;" horiz-adv-x="868" 
d="M501 1068h-132l-272 325h132l205 -244l205 244h133zM59 0v92l570 775h-559v116h720v-95l-566 -772h576v-116h-741z" />
    <glyph glyph-name="longs" unicode="&#x17f;" horiz-adv-x="535" 
d="M105 0v1086q0 169 68.5 243.5t222.5 74.5h94v-118h-82q-99 0 -142 -47.5t-43 -157.5v-1081h-118z" />
    <glyph glyph-name="florin" unicode="&#x192;" horiz-adv-x="671" 
d="M56 870v113h164v103q0 169 69.5 243.5t223.5 74.5h93v-118h-83q-98 0 -141 -47.5t-43 -157.5v-98h267v-113h-267v-973q0 -169 -69 -243.5t-224 -74.5h-92v118h82q98 0 141 47.5t43 157.5v968h-164z" />
    <glyph glyph-name="uni0218" unicode="&#x218;" 
d="M67 400h118q12 -131 118.5 -213t258.5 -82t250 78.5t102 191.5q1 37 -6.5 69t-24.5 57t-35 45t-48 37.5t-53.5 29t-62 24t-62.5 19t-65 17.5q-163 41 -189 49q-152 50 -209 143q-46 74 -46 187q1 113 63 193.5t160.5 118t222.5 37.5q120 0 217.5 -43t158.5 -127.5
t66 -196.5h-118q-11 116 -101 184t-223 68q-141 0 -233.5 -62t-94.5 -172q-1 -53 16 -93t44.5 -65t71 -44.5t86 -31.5t97.5 -25q21 -5 31 -7q74 -17 130 -34.5t121.5 -50.5t107.5 -74t69.5 -106t26.5 -146q-1 -74 -35 -143.5t-93.5 -122.5t-148 -85.5t-191.5 -33.5
q-204 0 -344.5 112t-152.5 298zM492 -246q0 35 20.5 56t56.5 21t56.5 -21t20.5 -56q0 -63 -16 -113.5t-55 -117.5l-16 -28h-72l27 54q39 67 50 127q-34 2 -53 23t-19 55z" />
    <glyph glyph-name="uni0219" unicode="&#x219;" horiz-adv-x="845" 
d="M57 295h115q6 -83 81.5 -141.5t177.5 -60.5q100 -2 164 43.5t64 120.5q0 82 -61 128t-208 84q-67 17 -117 38.5t-92.5 53.5t-65 77t-22.5 103q0 112 96 183t239 71q135 0 224.5 -72.5t109.5 -195.5h-110q-13 73 -75 117.5t-149 46.5q-91 2 -153 -41t-62 -108
q0 -30 10 -55t32 -43t40.5 -30.5t50 -23t44 -14t38.5 -9.5q135 -36 184 -59q148 -68 164 -211q2 -19 2 -40q0 -118 -98.5 -192.5t-251.5 -74.5q-144 0 -254.5 86.5t-116.5 218.5zM360 -246q0 35 21.5 56t57.5 21q34 0 54.5 -21t20.5 -56q0 -64 -16 -114.5t-54 -116.5
l-15 -28h-72l26 54q43 74 50 127q-33 2 -53 23.5t-20 54.5z" />
    <glyph glyph-name="uni021A" unicode="&#x21a;" horiz-adv-x="1086" 
d="M601 0h-119v1275h-444v118h1009v-118h-446v-1275zM465 -246q0 35 20.5 56t56.5 21q34 0 55.5 -21.5t21.5 -55.5q0 -64 -16 -114.5t-54 -116.5l-17 -28h-72l28 54q41 78 48 127q-33 2 -52 23.5t-19 54.5z" />
    <glyph glyph-name="uni021B" unicode="&#x21b;" horiz-adv-x="683" 
d="M257 1191h87v-208h267v-113h-267v-547q0 -109 43.5 -157t141.5 -48h82v-118h-92q-155 0 -224 74.5t-69 243.5v552h-169v113h169zM300 -246q0 35 20.5 56t56.5 21t56.5 -21t20.5 -56q0 -63 -16 -113.5t-55 -117.5l-16 -28h-72l28 54q39 67 47 127q-33 2 -51.5 23.5
t-18.5 54.5z" />
    <glyph glyph-name="uni0237" unicode="&#x237;" horiz-adv-x="321" 
d="M84 1289q0 36 20.5 57.5t56.5 21.5t56.5 -21.5t20.5 -57.5q0 -35 -20.5 -56t-56.5 -21t-56.5 21t-20.5 56zM220 983v-1116q0 -169 -69.5 -243.5t-224.5 -74.5h-91v118h81q99 0 142.5 47.5t43.5 157.5v1111h118z" />
    <glyph glyph-name="circumflex" unicode="&#x2c6;" horiz-adv-x="791" 
d="M464 1393l270 -325h-133l-205 246l-204 -246h-133l270 325h135z" />
    <glyph glyph-name="caron" unicode="&#x2c7;" horiz-adv-x="773" 
d="M454 1068h-133l-272 325h133l205 -244l204 244h133z" />
    <glyph glyph-name="uni02C9" unicode="&#x2c9;" horiz-adv-x="745" 
d="M70 1186v120h605v-120h-605z" />
    <glyph glyph-name="breve" unicode="&#x2d8;" horiz-adv-x="642" 
d="M28 1393h98q6 -83 59.5 -133.5t133.5 -50.5t134 50.5t60 133.5h98q-6 -126 -87 -204t-205 -78t-205 78t-86 204z" />
    <glyph glyph-name="dotaccent" unicode="&#x2d9;" horiz-adv-x="231" 
d="M36 1289q0 36 21.5 57.5t57.5 21.5q34 0 54.5 -21.5t20.5 -57.5q0 -35 -20.5 -56t-54.5 -21q-36 0 -57.5 21t-21.5 56z" />
    <glyph glyph-name="ring" unicode="&#x2da;" horiz-adv-x="416" 
d="M43 1227q0 75 47 122t118 47q72 0 119 -46.5t47 -122.5q0 -74 -47 -121.5t-119 -47.5q-71 0 -118 47.5t-47 121.5zM210 1339q-46 0 -78 -31.5t-32 -81.5q0 -48 32 -79t78 -31q43 0 74.5 32t31.5 78q0 50 -30.5 81.5t-75.5 31.5z" />
    <glyph glyph-name="ogonek" unicode="&#x2db;" horiz-adv-x="322" 
d="M165 13l53 -13q-100 -67 -89 -159q8 -48 48.5 -77t107.5 -29v-84q-111 0 -173 45t-68 127q-10 131 121 190z" />
    <glyph glyph-name="tilde" unicode="&#x2dc;" horiz-adv-x="824" 
d="M131 1109h-82q8 127 60.5 206t129.5 79q42 0 81.5 -19t70 -46.5t59.5 -55t62 -46.5t65 -19q48 0 77.5 48.5t35.5 137.5h82q-4 -128 -57 -206.5t-135 -78.5q-46 0 -86 19.5t-69 46.5t-56 54.5t-58.5 47t-64.5 19.5q-43 0 -76 -54t-39 -133z" />
    <glyph glyph-name="hungarumlaut" unicode="&#x2dd;" horiz-adv-x="642" 
d="M133 1070h-95l91 323h132zM482 1070h-95l91 323h133z" />
    <glyph glyph-name="uni0326" unicode="&#x326;" horiz-adv-x="249" 
d="M46 69q0 35 20.5 56t56.5 21t56.5 -21t20.5 -56q0 -65 -16 -114t-55 -117l-16 -30h-72l28 54q38 66 49 128q-34 2 -53 23t-19 56z" />
    <glyph glyph-name="uni0394" unicode="&#x394;" horiz-adv-x="1328" 
d="M16 0l584 1393h127l584 -1393h-1295zM193 116h941l-470 1124z" />
    <glyph glyph-name="uni03A9" unicode="&#x3a9;" horiz-adv-x="1556" 
d="M580 0h-495v116h279q-111 95 -173 241t-62 325q0 208 82.5 372t230.5 255.5t336 91.5q189 0 337 -91.5t230 -255.5t82 -372q0 -179 -61 -324.5t-172 -241.5h279v-116h-495v116q155 63 243 212t88 354q0 265 -149 434t-382 169q-234 0 -381.5 -169t-147.5 -436
q0 -204 88 -352.5t243 -211.5v-116z" />
    <glyph glyph-name="uni03BC" unicode="&#x3bc;" horiz-adv-x="994" 
d="M195 490q0 -175 83 -278.5t223 -103.5q125 0 207.5 108.5t82.5 275.5v491h118v-983h-118v229q-30 -106 -113.5 -173t-194.5 -67q-178 0 -288 126v-479h-118v1347h118v-493z" />
    <glyph glyph-name="pi" unicode="&#x3c0;" horiz-adv-x="1277" 
d="M1208 118v-118h-56q-154 0 -223 74.5t-69 243.5v555h-490v-873h-118v873h-195v110h1151v-110h-230v-550q0 -109 43.5 -157t141.5 -48h45z" />
    <glyph glyph-name="Wgrave" unicode="&#x1e80;" horiz-adv-x="1744" 
d="M816 1479l-128 323h133l92 -323h-97zM462 0v2l-447 1391h123l380 -1170l291 1170h123l290 -1172l380 1172h123l-447 -1393h-123l-285 1147l-287 -1147h-121z" />
    <glyph glyph-name="wgrave" unicode="&#x1e81;" horiz-adv-x="1440" 
d="M667 1070l-130 323h133l92 -323h-95zM464 0h-125l-318 983h125l255 -791l254 791h125l255 -791l256 791h123l-316 -983h-125l-255 791z" />
    <glyph glyph-name="Wacute" unicode="&#x1e82;" horiz-adv-x="1744" 
d="M921 1479h-95l92 323h132zM462 0v2l-447 1391h123l380 -1170l291 1170h123l290 -1172l380 1172h123l-447 -1393h-123l-285 1147l-287 -1147h-121z" />
    <glyph glyph-name="wacute" unicode="&#x1e83;" horiz-adv-x="1440" 
d="M768 1070h-96l91 323h133zM464 0h-125l-318 983h125l255 -791l254 791h125l255 -791l256 791h123l-316 -983h-125l-255 791z" />
    <glyph glyph-name="Wdieresis" unicode="&#x1e84;" horiz-adv-x="1744" 
d="M613 1699q0 36 20.5 57.5t56.5 21.5t56.5 -21.5t20.5 -57.5q0 -35 -20.5 -56t-56.5 -21t-56.5 21t-20.5 56zM978 1699q0 36 21.5 57.5t57.5 21.5q34 0 54.5 -21.5t20.5 -57.5q0 -35 -20.5 -56t-54.5 -21q-36 0 -57.5 21t-21.5 56zM462 0v2l-447 1391h123l380 -1170
l291 1170h123l290 -1172l380 1172h123l-447 -1393h-123l-285 1147l-287 -1147h-121z" />
    <glyph glyph-name="wdieresis" unicode="&#x1e85;" horiz-adv-x="1440" 
d="M460 1289q0 36 20.5 57.5t56.5 21.5q35 0 56 -21.5t21 -57.5q0 -35 -21 -56t-56 -21q-36 0 -56.5 21t-20.5 56zM826 1289q0 36 21 57.5t57 21.5q35 0 55.5 -21.5t20.5 -57.5q0 -35 -21 -56t-55 -21q-36 0 -57 21t-21 56zM464 0h-125l-318 983h125l255 -791l254 791h125
l255 -791l256 791h123l-316 -983h-125l-255 791z" />
    <glyph glyph-name="endash" unicode="&#x2013;" horiz-adv-x="860" 
d="M67 573v118h724v-118h-724z" />
    <glyph glyph-name="emdash" unicode="&#x2014;" horiz-adv-x="1277" 
d="M67 573v118h1126v-118h-1126z" />
    <glyph glyph-name="quoteleft" unicode="&#x2018;" horiz-adv-x="298" 
d="M218 1134q0 -36 -20.5 -56.5t-56.5 -20.5t-56.5 20.5t-20.5 56.5q0 64 16 113.5t54 115.5l17 30h70l-26 -54q-38 -66 -49 -128q33 -1 52.5 -22.5t19.5 -54.5z" />
    <glyph glyph-name="quoteright" unicode="&#x2019;" horiz-adv-x="298" 
d="M77 1316q0 35 20.5 56t56.5 21t56.5 -21t20.5 -56q0 -64 -16 -114.5t-54 -116.5l-17 -28h-72l28 54q39 69 47 128q-33 1 -51.5 22.5t-18.5 54.5z" />
    <glyph glyph-name="quotesinglbase" unicode="&#x201a;" horiz-adv-x="303" 
d="M75 69q0 35 21.5 56t57.5 21q34 0 54.5 -21t20.5 -56q0 -65 -15.5 -114.5t-54.5 -116.5l-15 -30h-72l26 54q38 66 49 128q-33 2 -52.5 23.5t-19.5 55.5z" />
    <glyph glyph-name="quotedblleft" unicode="&#x201c;" horiz-adv-x="575" 
d="M218 1134q0 -36 -20.5 -56.5t-56.5 -20.5t-56.5 20.5t-20.5 56.5q0 64 16 113.5t54 115.5l17 30h70l-26 -54q-38 -66 -49 -128q33 -1 52.5 -22.5t19.5 -54.5zM496 1134q0 -36 -20.5 -56.5t-56.5 -20.5t-56.5 20.5t-20.5 56.5q0 63 16 113t55 116l16 30h71l-27 -54
q-38 -66 -49 -128q33 -1 52.5 -22.5t19.5 -54.5z" />
    <glyph glyph-name="quotedblright" unicode="&#x201d;" horiz-adv-x="575" 
d="M354 1316q0 35 20.5 56t56.5 21t56.5 -21t20.5 -56q0 -63 -16 -113.5t-55 -117.5l-16 -28h-70l26 54q38 66 49 128q-33 1 -52.5 22.5t-19.5 54.5zM75 1316q0 35 20.5 56t56.5 21t56.5 -21t20.5 -56q0 -64 -16 -114.5t-54 -116.5l-16 -28h-71l26 54q38 66 49 128
q-33 1 -52.5 22.5t-19.5 54.5z" />
    <glyph glyph-name="quotedblbase" unicode="&#x201e;" horiz-adv-x="576" 
d="M351 69q0 35 20.5 56t56.5 21q34 0 55.5 -21t21.5 -56q0 -65 -16 -114t-55 -117l-16 -30h-72l28 54q40 77 47 128q-33 2 -51.5 23t-18.5 56zM72 69q0 35 20.5 56t56.5 21q35 0 56 -21t21 -56q0 -65 -15.5 -114.5t-54.5 -116.5l-17 -30h-72l28 54q42 80 48 128
q-33 2 -52 23.5t-19 55.5z" />
    <glyph glyph-name="dagger" unicode="&#x2020;" horiz-adv-x="869" 
d="M492 -249h-120v1114h-285v118h285v410h120v-410h286v-118h-286v-1114z" />
    <glyph glyph-name="daggerdbl" unicode="&#x2021;" horiz-adv-x="838" 
d="M492 -249h-120v426h-285v120h285v568h-285v118h285v410h120v-410h286v-118h-286v-568h286v-120h-286v-426z" />
    <glyph glyph-name="bullet" unicode="&#x2022;" horiz-adv-x="375" 
d="M69 793q0 52 32.5 84t85.5 32t85.5 -32t32.5 -84q0 -54 -32.5 -86t-85.5 -32t-85.5 32t-32.5 86z" />
    <glyph glyph-name="ellipsis" unicode="&#x2026;" horiz-adv-x="874" 
d="M69 69q0 35 20.5 56t56.5 21t56.5 -21t20.5 -56q0 -36 -20.5 -57.5t-56.5 -21.5t-56.5 21.5t-20.5 57.5zM360 69q0 35 20.5 56t56.5 21t56.5 -21t20.5 -56q0 -36 -20.5 -57.5t-56.5 -21.5t-56.5 21.5t-20.5 57.5zM652 69q0 35 21.5 56t57.5 21q34 0 54.5 -21t20.5 -56
q0 -36 -20.5 -57.5t-54.5 -21.5q-37 0 -58 21.5t-21 57.5z" />
    <glyph glyph-name="perthousand" unicode="&#x2030;" horiz-adv-x="2496" 
d="M72 1029q0 154 100 259t246 105t245.5 -105t99.5 -259q0 -156 -99 -260.5t-246 -104.5t-246.5 104.5t-99.5 260.5zM652 0h-120l515 1393h120zM418 1285q-100 0 -169.5 -73.5t-69.5 -180.5q0 -110 69.5 -184t169.5 -74q101 0 169 74t68 184q0 107 -68.5 180.5t-168.5 73.5
zM936 356q0 154 99.5 258.5t245.5 104.5t246 -104.5t100 -258.5q0 -156 -99.5 -261t-246.5 -105q-146 0 -245.5 105t-99.5 261zM1730 356q0 154 99.5 258.5t247.5 104.5q146 0 246 -104.5t100 -258.5q0 -156 -99.5 -261t-246.5 -105q-148 0 -247.5 105t-99.5 261zM1281 611
q-100 0 -169.5 -73.5t-69.5 -180.5q0 -110 69.5 -183.5t169.5 -73.5q101 0 169.5 73.5t68.5 183.5q0 107 -69 180.5t-169 73.5zM2077 611q-101 0 -170 -73.5t-69 -180.5q0 -110 69 -183.5t170 -73.5t169.5 73.5t68.5 183.5q0 107 -69 180.5t-169 73.5z" />
    <glyph glyph-name="guilsinglleft" unicode="&#x2039;" horiz-adv-x="702" 
d="M80 588l367 395h162l-367 -395l367 -395h-162z" />
    <glyph glyph-name="guilsinglright" unicode="&#x203a;" horiz-adv-x="693" 
d="M621 588l-367 -395h-162l367 395l-367 395h162z" />
    <glyph glyph-name="fraction" unicode="&#x2044;" horiz-adv-x="679" 
d="M144 0h-119l514 1393h120z" />
    <glyph glyph-name="franc" unicode="&#x20a3;" horiz-adv-x="1055" 
d="M310 0h-118v238h-153v118h153v1037h804v-118h-686v-520h671v-118h-671v-281h349v-118h-349v-238z" />
    <glyph glyph-name="lira" unicode="&#x20a4;" horiz-adv-x="1073" 
d="M75 113q73 19 115.5 89.5t42.5 171.5v63h-166v114h166v267h-166v113h166v155q0 169 68 243.5t223 74.5h400v-118h-393q-96 0 -138 -47.5t-42 -157.5v-150h468v-113h-468v-267h468v-114l-468 2q0 -116 -19 -191.5t-86 -134.5h740v-113h-911v113z" />
    <glyph glyph-name="peseta" unicode="&#x20a7;" horiz-adv-x="2598" 
d="M555 531h-360v-531h-120v1393h466q215 0 345 -116.5t130 -313.5q0 -194 -127.5 -313t-333.5 -119zM541 1275h-346v-626h360q152 0 246.5 87t94.5 227q0 141 -97 226.5t-258 85.5zM1342 1191h88v-208h267v-113h-267v-547q0 -109 43 -157t141 -48h83v-118h-93
q-154 0 -223.5 74.5t-69.5 243.5v552h-167v113h167zM1814 295h113q6 -83 81.5 -142t178.5 -60q98 -2 162 43.5t64 120.5q0 82 -60.5 128t-207.5 84q-67 17 -116.5 38.5t-92 53.5t-64.5 77t-22 103q0 112 95 183t237 71q135 0 225 -72.5t110 -195.5h-109q-15 73 -77 117.5
t-149 46.5q-90 2 -151.5 -41t-62.5 -108q0 -30 10 -55t32 -43t40.5 -30.5t49.5 -23t43.5 -14t38.5 -9.5q135 -36 184 -59q148 -67 165 -210q2 -20 2 -41q0 -118 -99 -192.5t-252 -74.5q-143 0 -252.5 86t-115.5 219z" />
    <glyph glyph-name="Euro" unicode="&#x20ac;" horiz-adv-x="1448" 
d="M1235 911q-56 175 -170 271t-270 96q-159 0 -272 -100t-156 -275h557l-36 -99h-539q-5 -57 -5 -108q0 -43 5 -95h485l-26 -98l-444 2q42 -181 157 -285t277 -104q159 0 275.5 98.5t163.5 267.5h126q-49 -227 -200.5 -358.5t-361.5 -131.5q-216 0 -365 137.5t-195 375.5
h-157v96h144q-4 62 -4 95q0 51 5 108h-149v99h164q47 230 194.5 364t361.5 134q209 0 357 -131t206 -359h-128z" />
    <glyph glyph-name="uni20BA" unicode="&#x20ba;" horiz-adv-x="1233" 
d="M1058 668h118q-43 -328 -244 -498t-558 -170h-82v585l-222 -61v107l222 62v185l-222 -60v106l222 62v407h118v-374l421 118v-108l-421 -116v-187l421 118v-108l-421 -118v-498q568 7 648 548z" />
    <glyph glyph-name="uni2113" unicode="&#x2113;" horiz-adv-x="766" 
d="M487 118h70v-118h-80q-164 0 -237 83t-73 268v188q-50 -7 -113 -7v97q70 4 113 12v401q0 165 72.5 262t194.5 97q127 0 199 -90.5t72 -248.5q0 -169 -116 -305t-302 -192v-200q0 -134 46 -190.5t154 -56.5zM287 1034v-361q137 51 219 151t82 221q0 238 -154 238
q-75 0 -111 -65.5t-36 -183.5z" />
    <glyph glyph-name="trademark" unicode="&#x2122;" horiz-adv-x="684" 
d="M195 1075h-41v277h-95v41h231v-41h-95v-277zM357 1075h-39v318h39l112 -174l113 174h39v-318h-39v244l-95 -146h-36l-94 144v-242z" />
    <glyph glyph-name="estimated" unicode="&#x212e;" horiz-adv-x="1143" 
d="M922 401l51 -37q-73 -93 -179 -146t-227 -53q-140 0 -259 69.5t-188 188.5t-69 259t69 259t188 188t259 69t259 -69t188 -188t69 -259q0 -22 -2 -32h-858v-263q64 -74 153 -116t191 -42q106 0 198.5 46t156.5 126zM223 976v-263h672v282q-137 139 -328 139
q-102 0 -191 -42t-153 -116z" />
    <glyph glyph-name="partialdiff" unicode="&#x2202;" horiz-adv-x="1086" 
d="M1019 472q0 -131 -62.5 -241.5t-173.5 -175.5t-244 -65q-200 0 -337.5 141t-137.5 341q0 130 62 239.5t171.5 173.5t241.5 64q56 0 93 -9l-352 453h141l490 -616q108 -135 108 -305zM539 831q-150 0 -252.5 -105.5t-102.5 -253.5q0 -149 102.5 -255.5t252.5 -106.5
q152 0 256 106t104 256q0 149 -104.5 254t-255.5 105z" />
    <glyph glyph-name="product" unicode="&#x220f;" horiz-adv-x="1295" 
d="M121 -410v1803h1055v-1803h-118v1685h-817v-1685h-120z" />
    <glyph glyph-name="summation" unicode="&#x2211;" horiz-adv-x="1084" 
d="M95 1271v122h885v-122h-752l373 -779l-373 -780h752v-122h-885v122l375 780z" />
    <glyph glyph-name="minus" unicode="&#x2212;" horiz-adv-x="1015" 
d="M67 573v118h869v-118h-869z" />
    <glyph glyph-name="uni2215" unicode="&#x2215;" horiz-adv-x="1089" 
d="M159 0h-134l901 1393h134z" />
    <glyph glyph-name="uni2219" unicode="&#x2219;" horiz-adv-x="385" 
d="M69 793q0 52 32.5 84t85.5 32t85.5 -32t32.5 -84q0 -54 -32.5 -86t-85.5 -32t-85.5 32t-32.5 86z" />
    <glyph glyph-name="radical" unicode="&#x221a;" horiz-adv-x="1348" 
d="M611 0l-313 644h-232v121h304l302 -609l485 1237h128l-546 -1393h-128z" />
    <glyph glyph-name="infinity" unicode="&#x221e;" horiz-adv-x="1605" 
d="M82 708q0 154 101.5 263t245.5 109q60 0 113 -19.5t99.5 -58.5t85.5 -84t82 -109q90 133 177.5 202t201.5 69q145 0 247 -109t102 -263t-102.5 -264t-246.5 -110q-114 0 -201.5 69.5t-177.5 202.5q-90 -133 -178 -202.5t-202 -69.5q-144 0 -245.5 110t-101.5 264z
M197 709q0 -108 67.5 -183t166.5 -75q79 0 153 62t158 196q-88 135 -160.5 194.5t-150.5 59.5q-99 0 -166.5 -74t-67.5 -180zM1420 709q0 106 -67.5 180t-166.5 74q-78 0 -150.5 -60t-160.5 -194q86 -135 159.5 -196.5t151.5 -61.5q99 0 166.5 75t67.5 183z" />
    <glyph glyph-name="integral" unicode="&#x222b;" horiz-adv-x="675" 
d="M606 1286h-83q-98 0 -141 -47.5t-43 -157.5v-1184q0 -169 -69 -243.5t-224 -74.5h-92v118h82q98 0 141 47.5t43 157.5v1184q0 169 69.5 243.5t223.5 74.5h93v-118z" />
    <glyph glyph-name="approxequal" unicode="&#x2248;" horiz-adv-x="884" 
d="M136 700h-82q8 127 65 206t138 79q47 0 88.5 -19.5t73 -46.5t62 -54.5t68.5 -47t79 -19.5q52 0 84 49t38 138h82q-4 -127 -60.5 -206t-143.5 -79q-52 0 -96 19t-75.5 46.5t-60 55t-63 46.5t-71.5 19q-48 0 -84.5 -53.5t-41.5 -132.5zM136 351h-82q8 127 65 206t138 79
q47 0 88.5 -19.5t73 -47t62 -54.5t68.5 -46.5t79 -19.5q52 0 84 49t38 138h82q-4 -127 -60.5 -206t-143.5 -79q-52 0 -96 19t-75.5 46.5t-60 55t-63 46.5t-71.5 19q-48 0 -84.5 -53.5t-41.5 -132.5z" />
    <glyph glyph-name="notequal" unicode="&#x2260;" horiz-adv-x="869" 
d="M74 809v118h395l70 190h120l-71 -190h205v-118h-247l-112 -301h359v-118h-403l-71 -190h-119l70 190h-196v118h241l111 301h-352z" />
    <glyph glyph-name="lessequal" unicode="&#x2264;" horiz-adv-x="899" 
d="M92 782v124l719 292v-123l-569 -231l569 -231v-125zM92 188v118h719v-118h-719z" />
    <glyph glyph-name="greaterequal" unicode="&#x2265;" horiz-adv-x="897" 
d="M92 488v125l568 231l-568 231v123l719 -292v-124zM811 188h-719v118h719v-118z" />
    <glyph glyph-name="lozenge" unicode="&#x25ca;" 
d="M25 492l457 901h127l458 -901l-458 -902h-127zM546 -283l391 775l-391 774l-392 -774z" />
    <glyph glyph-name="longs_t" unicode="&#xfb05;" horiz-adv-x="969" 
d="M351 983h167l26 180h-164q-98 0 -140.5 -48t-42.5 -158v-957h-120v962q0 169 69 243.5t224 74.5h267v-297h267v-113h-267v-547q0 -109 43 -157t141 -48h83v-118h-93q-155 0 -224 74.5t-69 243.5v552h-167v113z" />
    <glyph glyph-name="NULL" horiz-adv-x="0" 
 />
    <glyph glyph-name="a.alt" horiz-adv-x="1007" 
d="M796 0v175q-33 -77 -128 -131t-199 -54q-178 0 -283.5 83t-105.5 222q0 143 98.5 212.5t303.5 69.5h314v28q0 135 -72.5 206.5t-209.5 71.5q-108 0 -186.5 -51.5t-91.5 -136.5h-125q13 132 127 216t275 84q191 0 297 -103t106 -287v-605h-120zM200 303q0 -92 75 -145
t208 -53q132 0 222.5 77.5t90.5 191.5v119h-313q-283 0 -283 -190z" />
    <glyph glyph-name="y.alt" horiz-adv-x="989" 
d="M187 490q0 -175 83 -278.5t222 -103.5q127 0 208.5 108.5t81.5 275.5v491h119v-931q0 -226 -112.5 -364.5t-295.5 -138.5q-153 0 -264 96t-147 263h124q30 -112 109 -176.5t180 -64.5q129 0 208 106.5t79 278.5v177q-30 -106 -114 -173t-195 -67q-186 0 -296 136.5
t-110 364.5v493h120v-493z" />
    </font>
</defs>
</svg>
